VERSION	0.00.00	1.03.00
FES_MODE	0
BPM_DEF	145.000	145.000	145.000	145.000
MET_DEF	4	4
RESOLUTION	384
CLK_DEF	384
COMPATIBLE_CODE	MA2

BPM	0	0	145.000
MET	0	0	4	4
CLK	0	0
CLK	0	96
CLK	0	192
CLK	0	288

HLD	1	0	2	384
TAP	2	0	3
TAP	2	192	2
TAP	2	192	3
HLD	3	0	5	384
TAP	4	0	4
TAP	4	192	4
TAP	4	192	5
TAP	5	0	6
TAP	5	96	6
TAP	5	192	6
TAP	5	192	7
TAP	6	0	1
TAP	6	96	1
TAP	6	192	0
TAP	6	192	1
TAP	7	0	6
TAP	7	96	7
TAP	7	192	0
TAP	7	288	1
TAP	8	0	0
TAP	8	0	7
TAP	8	96	0
TAP	8	96	7
XTP	8	192	1
XTP	8	192	6
TAP	9	0	2
TAP	9	96	2
TAP	9	192	2
TAP	9	192	3
TAP	10	0	5
TAP	10	96	5
TAP	10	192	4
TAP	10	192	5
TAP	11	0	2
TAP	11	96	3
TAP	11	192	4
TAP	11	288	5
TAP	12	0	3
TAP	12	0	4
TAP	12	96	3
TAP	12	96	4
XTP	12	192	2
XTP	12	192	5
STR	13	0	1
SI_	13	0	1	96	192	4
STR	14	0	5
SCR	14	0	5	96	480	2
HLD	16	0	2	192
TAP	16	96	3
TAP	16	192	3
HLD	17	0	5	192
TAP	17	96	4
TAP	17	192	4
HLD	18	0	2	192
HLD	18	192	1	192
HLD	19	0	0	192
TAP	19	192	7
HLD	20	0	6	192
HLD	20	192	5	192
HLD	21	0	4	192
TAP	21	192	3
STR	22	0	1
SI_	22	0	1	96	192	4
STR	23	0	5
SI_	23	0	5	96	192	0
STR	24	0	0
SXL	24	0	0	96	480	3
STR	24	0	7
SXR	24	0	7	96	480	4
TTP	26	0	2	B	0	L1
TTP	26	96	0	C	0	L1
TTP	26	192	5	B	0	L1
TTP	27	0	6	B	0	L1
TTP	27	96	0	C	0	L1
TTP	27	192	1	B	0	L1
TTP	28	0	4	B	0	L1
TTP	28	0	5	B	0	L1
TTP	28	192	2	B	0	L1
TTP	28	192	3	B	0	L1
THO	29	0	0	192	C	1	L1
TAP	30	0	1
TAP	30	96	1
TAP	30	192	0
TAP	30	192	7
TAP	31	0	6
TAP	31	96	6
TAP	31	192	0
TAP	31	192	7
TAP	32	0	5
TAP	32	96	5
TAP	32	192	3
TAP	32	192	4
TAP	33	0	2
TAP	33	96	2
TAP	33	192	3
TAP	33	192	4
TAP	34	0	5
TAP	34	96	5
TAP	34	192	6
TAP	34	288	6
TAP	35	0	7
TAP	35	96	7
TAP	35	192	0
TAP	35	288	0
TAP	36	0	1
TAP	36	96	1
TAP	36	192	2
TAP	36	288	2
TAP	37	0	3
TAP	37	0	4
TAP	37	96	2
TAP	37	96	5
BRK	37	192	1
BRK	37	192	6
TAP	38	0	2
TAP	38	96	3
TAP	38	192	2
TAP	38	192	4
TAP	39	0	5
TAP	39	96	4
TAP	39	192	3
TAP	39	192	5
TAP	40	0	6
TAP	40	96	7
TAP	40	192	0
TAP	40	192	6
TAP	41	0	1
TAP	41	96	0
TAP	41	192	1
TAP	41	192	7
TAP	42	0	6
TAP	42	96	6
TAP	42	192	5
TAP	42	288	5
TAP	43	0	4
TAP	43	96	4
TAP	43	192	3
TAP	43	288	3
TAP	44	0	2
TAP	44	96	2
TAP	44	192	1
TAP	44	288	1
TAP	45	0	0
TAP	45	0	7
TAP	45	96	1
TAP	45	96	6
BRK	45	192	2
BRK	45	192	5
TTP	46	0	1	B	0	L1
TTP	46	96	0	C	0	L1
TTP	46	192	5	B	0	L1
TTP	47	0	6	B	0	L1
TTP	47	96	0	C	0	L1
TTP	47	192	2	B	0	L1
TTP	48	0	5	B	0	L1
TTP	48	96	0	C	0	L1
TTP	48	192	1	B	0	L1
TTP	49	0	2	B	0	L1
TTP	49	96	0	C	0	L1
TTP	49	192	6	B	0	L1
TTP	50	0	3	B	0	L1
TTP	50	0	5	E	0	L1
TTP	50	192	3	E	0	L1
TTP	50	192	4	B	0	L1
TTP	51	0	1	E	0	L1
TTP	51	0	7	B	0	L1
TTP	51	192	0	B	0	L1
TTP	51	192	7	E	0	L1
THO	52	0	0	384	C	1	L1
TAP	54	0	1
TAP	54	48	1
TAP	54	96	1
TAP	54	192	0
TAP	54	192	7
TAP	54	288	1
TAP	54	288	6
TAP	55	0	7
TAP	55	48	7
TAP	55	96	7
XTP	55	192	1
XTP	55	192	6
TAP	56	0	5
TAP	56	48	5
TAP	56	96	5
TAP	56	192	3
TAP	56	192	4
TAP	56	288	2
TAP	56	288	5
TAP	57	0	3
TAP	57	48	3
TAP	57	96	3
XTP	57	192	2
XTP	57	192	5
TAP	58	0	1
TAP	58	48	1
TAP	58	96	1
TAP	58	192	0
TAP	58	192	7
TAP	58	288	1
TAP	58	288	6
TAP	59	0	5
TAP	59	48	5
TAP	59	96	5
XTP	59	192	4
XTP	59	192	6
TAP	60	0	3
TAP	60	96	2
TAP	60	192	1
TAP	60	288	0
TAP	61	0	6
TAP	61	0	7
TAP	61	96	6
TAP	61	96	7
BRK	61	192	0
BRK	61	192	5
STR	62	0	6
SI_	62	0	6	96	192	3
STR	63	0	2
SCL	63	0	2	96	480	5
HLD	65	0	5	384
HLD	66	0	4	384
HLD	67	0	3	384
HLD	68	0	2	192
TAP	68	192	3
HLD	69	0	1	384
HLD	70	0	0	384
HLD	71	0	7	384
HLD	72	0	6	192
TAP	72	192	7
STR	73	0	7
SI_	73	0	7	96	192	4
STR	74	0	3
SI_	74	0	3	96	192	0
STR	75	0	0
SI_	75	0	0	96	192	3
STR	75	0	7
SI_	75	0	7	96	192	4
TAP	76	0	5
TAP	76	48	5
TAP	76	96	5
TAP	76	192	3
TAP	76	192	4
TAP	76	288	2
TAP	76	288	5
TAP	77	0	3
TAP	77	48	3
TAP	77	96	3
XTP	77	192	2
XTP	77	192	5
TAP	78	0	1
TAP	78	48	1
TAP	78	96	1
TAP	78	192	0
TAP	78	192	7
TAP	78	288	1
TAP	78	288	6
TAP	79	0	7
TAP	79	48	7
TAP	79	96	7
XTP	79	192	1
XTP	79	192	6
TAP	80	0	5
TAP	80	48	5
TAP	80	96	5
TAP	80	192	3
TAP	80	192	4
TAP	80	288	2
TAP	80	288	5
TAP	81	0	1
TAP	81	48	1
TAP	81	96	1
XTP	81	192	0
XTP	81	192	2
TAP	82	0	7
TAP	82	96	6
TAP	82	192	5
TAP	82	288	4
TAP	83	0	2
TAP	83	0	3
TAP	83	96	2
TAP	83	96	3
BRK	83	192	1
BRK	83	192	4
STR	84	0	1
SI_	84	0	1	96	192	4
STR	85	0	5
SCR	85	0	5	96	480	2
TTP	87	0	4	B	0	L1
TTP	87	0	5	E	0	L1
TTP	87	192	3	E	0	L1
TTP	87	192	3	B	0	L1
TTP	88	0	2	B	0	L1
TTP	88	0	5	B	0	L1
TTP	88	192	1	B	0	L1
TTP	88	192	6	B	0	L1
THO	89	0	0	384	C	1	L1

T_REC_TAP	186
T_REC_BRK	8
T_REC_XTP	16
T_REC_HLD	18
T_REC_XHO	0
T_REC_STR	14
T_REC_BST	0
T_REC_XST	0
T_REC_TTP	38
T_REC_THO	3
T_REC_SLD	14
T_REC_ALL	297
T_NUM_TAP	254
T_NUM_BRK	8
T_NUM_HLD	21
T_NUM_SLD	14
T_NUM_ALL	297
T_JUDGE_TAP	262
T_JUDGE_HLD	124
T_JUDGE_SLD	14
T_JUDGE_ALL	400
TTM_EACHPAIRS	52
TTM_SCR_TAP	127000
TTM_SCR_BRK	20800
TTM_SCR_HLD	21000
TTM_SCR_SLD	21000
TTM_SCR_ALL	189800
TTM_SCR_S	183350
TTM_SCR_SS	189000
TTM_RAT_ACV	10042

