VERSION	0.00.00	1.03.00
FES_MODE	0
BPM_DEF	145.000	145.000	145.000	145.000
MET_DEF	4	4
RESOLUTION	384
CLK_DEF	384
COMPATIBLE_CODE	MA2

BPM	0	0	145.000
MET	0	0	4	4

TAP	5	0	0
TAP	5	192	0
XTP	6	0	0
TAP	7	0	1
TAP	7	192	1
XTP	8	0	1
TAP	9	0	2
TAP	9	192	2
XTP	10	0	2
TAP	11	0	3
TAP	11	192	3
TAP	12	0	3
TAP	13	0	3
TAP	13	0	4
TAP	13	192	3
TAP	13	192	4
XHO	14	0	3	384
XHO	14	0	4	384
TAP	16	0	3
TAP	16	192	3
TAP	17	0	4
TAP	17	192	4
HLD	18	0	3	384
HLD	20	0	4	384
TTP	22	0	3	B	0	L1
TTP	23	0	4	B	0	L1
TTP	24	0	2	B	0	L1
TTP	25	0	5	B	0	L1
THO	26	0	0	1152	C	1	L1
TAP	30	0	0
TAP	30	192	0
TAP	31	0	1
TAP	31	192	1
TAP	32	0	2
TAP	32	192	2
TAP	33	0	3
TAP	33	0	4
TAP	34	0	5
TAP	34	192	5
TAP	35	0	6
TAP	35	192	6
HLD	36	0	0	384
HLD	36	0	7	384
TAP	38	0	6
TAP	38	96	6
TAP	38	192	6
TAP	39	0	5
TAP	39	96	5
BRK	39	192	5
TAP	40	0	4
TAP	40	96	4
TAP	40	192	4
TAP	41	0	3
TAP	41	96	3
BRK	41	192	3
TAP	42	0	2
TAP	42	96	2
TAP	42	192	2
TAP	43	0	1
TAP	43	96	1
TAP	43	192	1
STR	44	0	0
SI_	44	0	0	96	288	4
HLD	46	0	7	384
HLD	48	0	0	384
TAP	50	0	7
TAP	50	192	7
TAP	51	0	6
STR	51	192	6
SI_	51	192	6	96	288	2
TAP	54	0	1
TAP	54	192	1
TAP	55	0	2
TAP	55	96	2
TAP	55	192	2
TAP	56	0	3
TAP	56	192	3
TAP	57	0	4
TAP	57	96	4
TAP	57	192	4
TAP	58	0	5
TAP	58	192	5
TAP	59	0	6
TAP	59	96	6
TAP	59	192	6
TAP	60	0	7
TAP	60	192	7
TAP	61	0	0
TAP	61	192	0
TAP	62	0	0
TAP	62	0	7
TAP	62	192	0
TAP	62	192	7
STR	63	0	0
SI_	63	0	0	96	288	3
STR	63	0	7
SI_	63	0	7	96	288	4
TTP	65	0	2	B	0	L1
TTP	66	0	1	B	0	L1
TTP	67	0	0	B	0	L1
TTP	68	0	7	B	0	L1
TTP	69	0	6	B	0	L1
TTP	70	0	5	B	0	L1
TTP	71	0	4	B	0	L1
TTP	72	0	3	B	0	L1
TTP	73	0	3	B	0	L1
TTP	73	0	4	B	0	L1
TTP	74	0	2	B	0	L1
TTP	74	0	5	B	0	L1
TTP	75	0	0	C	1	L1
TAP	76	0	0
TAP	76	96	0
TAP	76	192	0
TAP	77	0	1
TAP	77	96	1
TAP	77	192	1
TAP	78	0	2
TAP	78	96	2
TAP	78	192	2
XTP	79	0	3
XTP	79	96	4
XTP	79	192	3
TAP	80	0	5
TAP	80	96	5
TAP	80	192	5
TAP	81	0	6
TAP	81	96	6
TAP	81	192	6
HLD	82	0	7	384
TAP	84	0	0
TAP	84	0	7
TAP	84	192	0
TAP	84	192	7
STR	85	0	0
SI_	85	0	0	96	288	3
STR	85	0	7
SI_	85	0	7	96	288	4
TTP	87	0	3	B	0	L1
TTP	87	0	4	B	0	L1
TTP	88	0	2	B	0	L1
TTP	88	0	5	B	0	L1
TTP	89	0	0	C	1	L1

T_REC_TAP	90
T_REC_BRK	2
T_REC_XTP	6
T_REC_HLD	7
T_REC_XHO	2
T_REC_STR	6
T_REC_BST	0
T_REC_XST	0
T_REC_TTP	22
T_REC_THO	1
T_REC_SLD	6
T_REC_ALL	142
T_NUM_TAP	124
T_NUM_BRK	2
T_NUM_HLD	10
T_NUM_SLD	6
T_NUM_ALL	142
T_JUDGE_TAP	126
T_JUDGE_HLD	96
T_JUDGE_SLD	6
T_JUDGE_ALL	228
TTM_EACHPAIRS	11
TTM_SCR_TAP	62000
TTM_SCR_BRK	5200
TTM_SCR_HLD	10000
TTM_SCR_SLD	9000
TTM_SCR_ALL	86200
TTM_SCR_S	83450
TTM_SCR_SS	86000
TTM_RAT_ACV	10023

