VERSION	0.00.00	1.05.00
FES_MODE	0
BPM_DEF	133.000	133.000	133.000	133.000
MET_DEF	4	4
RESOLUTION	384
CLK_DEF	384
COMPATIBLE_CODE	MA2

BPM	0	0	133.000

NMSTR	1	0	3
NMSCR	1	0	3	96	96	5
NMTTP	1	96	7	A	0	M1
CNSUR	1	192	5	0	96	2
NMTTP	1	288	1	A	0	M1
CNSUR	1	288	2	0	192	6
NMTTP	2	96	7	A	1	M1
NMSTR	3	0	4
NMSCL	3	0	4	96	96	2
NMTTP	3	96	0	A	0	M1
CNSUL	3	192	2	0	96	5
CNSUL	3	288	5	0	192	1
NMTTP	3	288	6	A	0	M1
NMTTP	4	96	0	A	1	M1
BXTAP	4	288	7
EXTAP	5	0	1
NMTAP	5	96	5
NMTAP	5	96	7
NMTAP	5	192	0
NMTAP	5	192	6
NMTAP	5	288	1
NMTAP	5	288	7
NMTAP	6	0	0
NMSTR	6	0	2
BRSCL	6	0	2	96	192	5
BRSUL	6	0	2	96	192	5
EXSTR	7	0	3
NMSUR	7	0	3	96	48	7
EXSTR	7	0	5
NMSCL	7	0	5	96	48	2
EXSTR	7	192	2
NMSV_	7	192	2	96	48	5
EXSTR	7	192	7
NMSUR	7	192	7	96	48	3
EXSTR	8	0	2
NMSCR	8	0	2	96	48	5
EXSTR	8	0	4
NMSUL	8	0	4	96	48	0
EXSTR	8	192	0
NMSUL	8	192	0	96	48	4
EXSTR	8	192	5
NMSUL	8	192	5	96	48	0
EXTAP	9	0	6
NMTAP	9	96	0
NMTAP	9	96	2
NMTAP	9	192	1
NMTAP	9	192	7
NMTAP	9	288	0
NMTAP	9	288	6
NMSTR	10	0	5
BRSCR	10	0	5	96	192	2
BRSUR	10	0	5	96	192	2
NMTAP	10	0	7
EXSTR	11	0	2
NMSCR	11	0	2	96	48	5
EXSTR	11	0	4
NMSUL	11	0	4	96	48	0
EXSTR	11	192	0
NMSUL	11	192	0	96	48	4
EXSTR	11	192	5
NMSV_	11	192	5	96	48	2
EXSTR	12	0	3
NMSUR	12	0	3	96	48	7
EXSTR	12	0	5
NMSCL	12	0	5	96	48	2
EXTAP	12	192	2
EXTAP	12	192	7
NMTTP	12	288	0	C	1	M1
NMHLD	13	0	5	96
NMTAP	13	96	7
NMHLD	13	144	7	96
NMTAP	13	240	0
NMHLD	13	288	0	96
NMTAP	14	0	2
NMHLD	14	48	2	96
NMTAP	14	144	3
NMSTR	14	192	3
NMSI_	14	192	3	96	48	6
NMHLD	15	0	2	96
NMTAP	15	96	0
NMHLD	15	144	0	96
NMTAP	15	240	7
NMHLD	15	288	7	96
NMTAP	16	0	5
NMHLD	16	48	5	96
NMTAP	16	144	4
NMSTR	16	192	4
NMSI_	16	192	4	96	48	0
EXSTR	17	0	6
NMSI_	17	0	6	96	96	3
NMTAP	17	96	0
NMSTR	17	144	0
NMSI_	17	144	0	96	96	5
NMTAP	17	240	7
NMSTR	17	288	7
NMSI_	17	288	7	96	96	2
NMTAP	18	0	1
NMSTR	18	48	1
NMSI_	18	48	1	96	96	4
NMTAP	18	144	6
NMTAP	18	192	6
NMSTR	18	288	7
NMSCR	18	288	7	96	192	6
EXSTR	19	288	0
NMSCL	19	288	0	96	192	1
NMTHO	21	0	0	48	C	0	M1
NMHLD	21	0	1	48
NMTHO	21	72	0	48	C	0	M1
NMHLD	21	72	5	48
NMTHO	21	144	0	144	C	1	M1
NMHLD	21	144	1	144
NMTTP	22	144	0	E	0	M1
NMTTP	22	144	4	E	0	M1
NMTTP	22	240	2	E	0	M1
NMTTP	22	240	6	E	0	M1
NMTTP	22	312	0	E	0	M1
NMTTP	22	312	4	E	0	M1
NMTHO	23	0	0	48	C	0	M1
NMHLD	23	0	6	48
NMTHO	23	72	0	48	C	0	M1
NMHLD	23	72	2	48
NMTHO	23	144	0	144	C	1	M1
NMHLD	23	144	6	144
NMTTP	24	144	0	E	0	M1
NMTTP	24	144	4	E	0	M1
NMTTP	24	240	2	E	0	M1
NMTTP	24	240	6	E	0	M1
NMTTP	24	312	0	E	0	M1
NMTTP	24	312	4	E	0	M1
NMSTR	25	0	2
NMSI_	25	0	2	96	96	4
NMTTP	25	96	5	A	0	M1
NMTTP	25	192	0	A	0	M1
CNSI_	25	192	4	0	96	1
CNSI_	25	288	1	0	96	4
NMTTP	25	288	5	A	0	M1
NMSTR	26	0	5
NMSI_	26	0	5	96	96	3
NMTTP	26	96	2	A	0	M1
CNSI_	26	192	3	0	96	6
NMTTP	26	192	7	A	0	M1
NMSTR	26	288	2
NMSCR	26	288	2	96	144	6
NMSUR	26	288	2	96	144	7
NMSTR	27	336	5
NMSCL	27	336	5	96	144	0
NMSUL	27	336	5	96	144	0
NMTAP	28	0	5
NMTHO	29	0	0	288	C	0	M1
NMTAP	29	0	1
NMTAP	29	96	0
NMTAP	29	192	7
NMSTR	29	288	6
NMSCR	29	288	6	96	96	5
NMTTP	30	192	6	A	0	M1
NMTTP	30	204	7	A	0	M1
NMTTP	30	216	0	A	0	M1
NMTTP	30	228	1	A	0	M1
NMTTP	30	240	2	A	0	M1
NMTTP	30	252	3	A	0	M1
NMTTP	30	264	4	A	0	M1
NMTTP	30	276	5	A	0	M1
NMTHO	31	0	0	288	C	0	M1
NMTAP	31	0	6
NMTAP	31	96	7
NMTAP	31	192	0
NMSTR	31	288	1
NMSCL	31	288	1	96	96	2
NMTTP	32	192	1	A	0	M1
NMTTP	32	204	0	A	0	M1
NMTTP	32	216	7	A	0	M1
NMTTP	32	228	6	A	0	M1
NMTTP	32	240	5	A	0	M1
NMTTP	32	252	4	A	0	M1
NMTTP	32	264	3	A	0	M1
NMTTP	32	276	2	A	0	M1
EXSTR	33	0	4
NMSF_	33	0	4	96	48	0
NMTTP	33	108	4	B	0	M1
NMTTP	33	120	0	C	0	M1
NMTTP	33	132	0	B	0	M1
NMTTP	33	132	1	B	0	M1
NMTTP	33	132	7	B	0	M1
NMTTP	33	144	0	A	0	M1
NMTTP	33	144	0	D	0	M1
NMTTP	33	144	1	A	0	M1
NMTTP	33	144	1	D	0	M1
NMTTP	33	144	7	A	0	M1
EXSTR	33	192	3
NMSF_	33	192	3	96	48	7
NMTTP	33	300	3	B	0	M1
NMTTP	33	312	0	C	0	M1
NMTTP	33	324	0	B	0	M1
NMTTP	33	324	6	B	0	M1
NMTTP	33	324	7	B	0	M1
NMTTP	33	336	0	A	0	M1
NMTTP	33	336	0	D	0	M1
NMTTP	33	336	6	A	0	M1
NMTTP	33	336	7	A	0	M1
NMTTP	33	336	7	D	0	M1
EXSTR	34	0	4
NMSF_	34	0	4	96	48	0
NMTTP	34	108	4	B	0	M1
NMTTP	34	120	0	C	0	M1
NMTTP	34	132	0	B	0	M1
NMTTP	34	132	1	B	0	M1
NMTTP	34	132	7	B	0	M1
NMTTP	34	144	0	A	0	M1
NMTTP	34	144	0	D	0	M1
NMTTP	34	144	1	A	0	M1
NMTTP	34	144	1	D	0	M1
NMTTP	34	144	7	A	0	M1
EXSTR	34	192	3
NMSF_	34	192	3	96	48	7
NMTTP	34	300	3	B	0	M1
NMTTP	34	312	0	C	0	M1
NMTTP	34	324	0	B	0	M1
NMTTP	34	324	6	B	0	M1
NMTTP	34	324	7	B	0	M1
NMTTP	34	336	0	A	0	M1
NMTTP	34	336	0	D	0	M1
NMTTP	34	336	6	A	0	M1
NMTTP	34	336	7	A	0	M1
NMTTP	34	336	7	D	0	M1
NMTTP	35	0	1	B	0	M1
NMTTP	35	0	1	A	0	M1
NMTTP	35	0	2	B	0	M1
NMTTP	35	0	2	E	1	M1
NMTTP	35	0	2	A	0	M1
NMTTP	35	144	5	B	0	M1
NMTTP	35	144	5	A	0	M1
NMTTP	35	144	6	B	0	M1
NMTTP	35	144	6	E	1	M1
NMTTP	35	144	6	A	0	M1
NMTAP	35	288	1
NMTAP	35	288	3
NMTAP	35	336	1
NMTAP	35	336	2
NMTAP	36	0	2
NMTAP	36	0	3
NMTAP	36	48	3
NMTAP	36	48	4
NMTAP	36	96	4
NMSTR	36	96	5
BRSCR	36	96	5	96	48	2
NMSUR	36	96	5	96	48	2
NMTTP	36	192	6	B	0	M1
NMTTP	36	204	7	B	0	M1
NMTTP	36	216	0	B	0	M1
NMTTP	36	228	1	B	0	M1
NMSTR	37	0	0
NMSI_	37	0	0	96	48	5
NMTAP	37	48	0
NMSTR	37	96	0
NMSI_	37	96	0	96	48	4
NMSTR	37	192	0
NMSI_	37	192	0	96	48	3
NMTAP	38	0	0
NMSTR	38	0	4
NMSI_	38	0	4	96	48	0
NMTAP	38	48	1
NMTAP	38	96	2
NMTAP	38	144	3
NMSTR	38	192	0
NMSCR	38	192	0	96	48	3
NMTAP	38	192	4
NMTAP	38	240	5
NMTAP	38	288	6
NMTAP	38	336	7
NMSTR	39	0	7
NMSCL	39	0	7	96	72	4
NMTAP	39	48	1
NMSTR	39	96	3
NMSCR	39	96	3	96	72	6
NMTAP	39	144	1
NMSTR	39	192	7
NMSCL	39	192	7	96	72	4
NMTAP	39	240	1
NMTAP	39	288	3
NMSTR	40	0	3
NMSUR	40	0	3	96	48	7
NMSTR	40	0	7
NMSUR	40	0	7	96	48	3
NMSTR	40	96	3
NMSCL	40	96	3	96	48	0
NMSTR	40	96	7
NMSCL	40	96	7	96	48	4
NMSTR	40	192	3
NMSUR	40	192	3	96	48	7
NMSTR	40	192	7
NMSUR	40	192	7	96	48	3
NMSTR	41	0	2
NMSCR	41	0	2	96	48	5
NMSTR	41	48	5
NMSI_	41	48	5	96	48	2
NMSTR	41	96	2
NMSI_	41	96	2	96	48	7
NMSTR	41	144	7
NMSCR	41	144	7	96	48	2
NMSTR	41	192	6
NMSI_	41	192	6	96	48	3
NMTAP	41	240	6
NMSTR	41	288	6
NMSUR	41	288	6	96	144	0
NMTAP	42	192	2
NMSTR	42	288	0
NMSCR	42	288	0	96	48	3
NMTAP	42	288	7
NMTAP	42	336	1
NMTAP	43	0	0
NMSTR	43	0	7
NMSCL	43	0	7	96	48	4
NMTAP	43	48	6
NMSTR	43	96	0
NMSCR	43	96	0	96	48	3
NMTAP	43	96	7
NMTAP	43	144	1
NMTAP	43	192	0
NMSTR	43	192	7
NMSCL	43	192	7	96	48	4
NMTAP	43	240	6
NMTAP	43	288	0
NMTAP	43	288	7
BRSTR	44	0	0
NMSCL	44	0	0	96	48	5
NMSCR	44	0	0	96	48	3
BRTAP	44	96	0
BRSTR	44	192	0
NMSF_	44	192	0	96	48	4
BRTAP	44	288	0
NMSTR	45	0	0
NMSI_	45	0	0	96	24	3
NMTAP	45	0	7
NMSTR	45	96	0
NMSI_	45	96	0	96	24	4
NMHLD	45	96	5	48
NMSTR	45	192	0
NMSCR	45	192	0	96	24	2
NMHLD	45	192	5	48
NMTAP	45	288	0
NMHLD	45	288	5	48
BRSTR	46	0	0
NMSI_	46	0	0	96	48	2
BRSTR	46	0	4
NMSI_	46	0	4	96	48	6
BRSTR	46	96	0
NMSI_	46	96	0	96	48	4
BRSTR	46	96	4
NMSI_	46	96	4	96	48	0
BRSTR	46	192	0
NMSCR	46	192	0	96	48	3
BRSTR	46	192	4
NMSCR	46	192	4	96	48	7
BRTAP	46	288	0
BRTAP	46	288	4
NMSTR	47	0	5
NMSI_	47	0	5	96	48	2
NMSTR	47	0	7
NMSLR	47	0	7	96	48	6
NMSTR	47	192	1
NMSI_	47	192	1	96	48	6
NMSTR	47	192	3
NMSLR	47	192	3	96	48	2
NMSTR	48	0	3
NMSI_	48	0	3	96	48	0
NMSTR	48	0	5
NMSCL	48	0	5	96	48	2
NMTAP	48	96	3
NMSTR	48	96	5
NMSI_	48	96	5	96	48	7
NMSTR	48	192	4
NMSI_	48	192	4	96	48	0
NMTAP	48	192	5
NMTAP	48	288	4
NMSTR	48	288	7
NMSI_	48	288	7	96	48	2
NMSTR	49	0	1
NMSI_	49	0	1	96	48	5
NMTAP	49	0	7
NMTAP	49	96	1
NMSTR	49	96	3
NMSCL	49	96	3	96	48	0
NMSCR	49	96	3	96	48	6
NMTAP	49	192	3
NMSTR	49	336	5
NMSCL	49	336	5	96	96	2
NMSTR	50	0	1
NMSCL	50	0	1	96	192	6
NMSTR	51	0	0
NMSCR	51	0	0	96	96	3
NMSCR	51	0	0	96	192	6
NMTAP	51	48	7
NMTTP	52	0	0	C	1	M1
NMSTR	52	192	3
NMSI_	52	192	3	96	48	7
BRSTR	52	288	3
NMSCL	52	288	3	96	192	5
NMSTR	53	288	0
NMSCR	53	288	0	96	96	3
NMSTR	54	0	3
NMSCR	54	0	3	96	96	6
NMSTR	54	96	6
NMSCR	54	96	6	96	96	1
NMSTR	54	192	1
NMSCR	54	192	1	96	96	4
NMSTR	54	288	4
NMSCR	54	288	4	96	96	7
NMSTR	55	0	7
NMSCR	55	0	7	96	96	3
NMSTR	55	96	3
NMSCR	55	96	3	96	96	7
NMSTR	55	192	7
NMSCR	55	192	7	96	96	3
NMSTR	55	288	3
NMSCR	55	288	3	96	144	3
EXTAP	56	192	7
EXTAP	56	240	7
EXTAP	56	288	7
EXTAP	56	336	6
EXTAP	57	0	5
EXTAP	57	48	4
EXTAP	57	96	3
EXTAP	57	144	2
EXTAP	57	192	1
EXTAP	57	240	0
EXTAP	57	288	7
EXTAP	57	336	6
EXTAP	58	0	5
EXTAP	58	32	4
EXTAP	58	64	3
EXTAP	58	96	2
EXTAP	58	128	1
EXTAP	58	160	0
EXTAP	58	192	7
EXTAP	58	216	6
EXTAP	58	240	5
EXTAP	58	264	4
EXTAP	58	288	3
EXTAP	58	312	2
EXTAP	58	336	1
EXTAP	58	360	0
EXTAP	59	0	7
EXTAP	59	16	6
EXTAP	59	32	5
EXTAP	59	48	4
EXTAP	59	64	3
EXTAP	59	80	2
EXTAP	59	96	1
EXTAP	59	112	0
EXTAP	59	128	7
EXTAP	59	144	6
EXTAP	59	160	5
EXTAP	59	176	4
EXTAP	59	192	3
EXTAP	59	204	2
EXTAP	59	216	1
EXTAP	59	228	0
EXTAP	59	240	7
EXTAP	59	252	6
EXTAP	59	264	5
EXTAP	59	276	4
EXTAP	59	288	3
EXTAP	59	296	2
EXTAP	59	304	1
EXTAP	59	312	0
EXTAP	59	320	7
EXTAP	59	328	6
EXTAP	59	336	5
EXTAP	59	344	4
EXTAP	59	352	3
EXTAP	59	360	2
EXTAP	59	368	1
EXTAP	59	376	0
BXSTR	60	0	7
NMSI_	60	0	7	3456	48	3
BRTAP	68	192	6
BRTAP	68	192	7
BRTAP	68	288	0
BRTAP	68	288	1
BRTAP	69	0	0
BRTAP	69	0	7
BXTAP	69	288	3
BXTAP	69	288	7
NMTAP	70	0	1
NMSTR	70	0	6
NMSI_	70	0	6	96	48	4
NMTAP	70	48	1
NMTAP	70	96	1
NMTAP	70	96	6
NMTAP	70	144	1
NMTAP	70	192	1
NMSTR	70	192	7
NMSI_	70	192	7	96	48	3
NMTAP	70	240	1
NMTAP	70	288	1
NMTAP	70	288	7
NMTTP	70	292	0	C	0	M1
EXSTR	71	0	3
NMSCL	71	0	3	96	48	0
NMSTR	71	0	4
NMSI_	71	0	4	96	48	0
NMSTR	71	96	3
NMSI_	71	96	3	96	48	7
EXSTR	71	96	4
NMSCR	71	96	4	96	48	7
EXTAP	71	192	3
NMTAP	71	192	4
BRTAP	71	288	1
BRTAP	71	288	5
BRSTR	72	0	1
NMSI_	72	0	1	96	48	4
BRTAP	72	0	7
NMSTR	72	96	1
NMSI_	72	96	1	96	48	7
NMSTR	72	96	6
NMSI_	72	96	6	96	48	2
NMTAP	72	144	7
NMTAP	72	192	1
NMSTR	72	192	6
NMSI_	72	192	6	96	48	3
NMTAP	72	288	1
NMTAP	72	288	6
BRSTR	73	0	4
NMSUL	73	0	4	96	48	0
NMSUR	73	0	4	96	48	0
CNSV_	73	144	0	0	48	3
CNSV_	73	144	0	0	48	5
CNSCL	73	192	3	0	48	1
CNSCR	73	192	5	0	48	7
EXTAP	73	288	1
EXTAP	73	288	7
NMTAP	74	0	2
NMTAP	74	0	5
NMTAP	74	48	1
NMTAP	74	48	6
BRHLD	74	96	0	864
BRSTR	74	96	7
NMSCL	74	96	7	96	48	7
CNSCL	74	240	7	0	48	7
CNSCL	74	288	7	0	48	6
CNSI_	74	336	6	0	48	4
CNSCL	75	0	4	0	48	3
CNSI_	75	48	3	0	48	1
CNSCL	75	96	1	0	48	0
CNSI_	75	144	0	0	48	6
CNSCL	75	192	6	0	48	5
CNSI_	75	240	5	0	48	3
CNSCL	75	288	3	0	24	2
CNSI_	75	312	2	0	24	0
CNSCL	75	336	0	0	24	7
CNSI_	75	360	7	0	216	4
NMSTR	76	288	7
NMSI_	76	288	7	96	48	1
CNSI_	77	48	1	0	48	6
CNSI_	77	96	6	0	96	2
CNSI_	77	192	2	0	48	5
CNSI_	77	240	5	0	96	3
NMSTR	77	288	7
NMSF_	77	288	7	96	384	3
CNSI_	77	336	3	0	48	7

T_REC_TAP	95
T_REC_BRK	13
T_REC_XTP	65
T_REC_BXX	3
T_REC_HLD	17
T_REC_XHO	0
T_REC_BHO	1
T_REC_BXH	0
T_REC_STR	77
T_REC_BST	12
T_REC_XST	22
T_REC_XBS	1
T_REC_TTP	96
T_REC_THO	8
T_REC_SLD	116
T_REC_BSL	5
T_REC_ALL	531
T_NUM_TAP	355
T_NUM_BRK	35
T_NUM_HLD	25
T_NUM_SLD	116
T_NUM_ALL	531
T_JUDGE_TAP	384
T_JUDGE_HLD	69
T_JUDGE_SLD	121
T_JUDGE_ALL	574
TTM_EACHPAIRS	67
TTM_SCR_TAP	177500
TTM_SCR_BRK	91000
TTM_SCR_HLD	25000
TTM_SCR_SLD	174000
TTM_SCR_ALL	467500
TTM_SCR_S	450100
TTM_SCR_SS	464000
TTM_RAT_ACV	10075

