VERSION	0.00.00	1.04.00
FES_MODE	0
BPM_DEF	133.000	133.000	133.000	133.000
MET_DEF	4	4
RESOLUTION	384
CLK_DEF	380
COMPATIBLE_CODE	MA2

BPM	0	0	133.000

NMSTR	1	0	3
NMSI_	1	0	3	96	480	0
NMSTR	3	0	4
NMSI_	3	0	4	96	480	7
NMTTP	4	288	0	C	1	M1
NMTTP	4	288	1	B	0	M1
NMTTP	4	288	2	E	0	M1
NMTTP	4	288	5	B	0	M1
NMTTP	4	288	6	E	0	M1
NMHLD	5	0	7	96
NMHLD	5	96	0	96
NMHLD	5	192	1	96
NMHLD	5	288	2	96
NMSTR	6	0	3
NMSUR	6	0	3	96	192	4
CNSCR	6	288	4	0	288	2
NMTAP	7	288	1
NMTAP	7	288	3
NMTAP	8	0	2
NMTAP	8	0	4
NMTAP	8	96	3
NMTAP	8	96	5
NMTAP	8	192	4
NMTAP	8	192	6
EXTAP	8	240	7
EXTAP	8	288	7
NMHLD	9	0	0	96
NMHLD	9	96	7	96
NMHLD	9	192	6	96
NMHLD	9	288	5	96
NMSTR	10	0	4
NMSUL	10	0	4	96	192	3
CNSCL	10	288	3	0	288	5
NMTAP	11	288	4
NMTAP	11	288	6
NMTAP	12	0	3
NMTAP	12	0	5
NMTAP	12	96	2
NMTAP	12	96	4
NMTAP	12	192	1
NMTAP	12	192	3
BXTAP	12	240	0
BXTAP	12	288	0
NMHLD	13	0	5	480
NMTTP	13	96	4	B	0	M1
NMTTP	13	288	5	E	0	M1
NMTTP	14	96	4	E	0	M1
NMTAP	14	192	5
NMTAP	14	288	3
NMTAP	14	288	4
NMHLD	15	0	2	480
NMTTP	15	96	3	B	0	M1
NMTTP	15	288	3	E	0	M1
NMTTP	16	96	4	E	0	M1
NMSTR	16	192	2
NMSCR	16	192	2	96	96	5
NMHLD	17	0	6	480
NMTTP	17	96	5	E	0	M1
NMTTP	17	288	4	E	0	M1
NMSTR	18	96	4
NMSI_	18	96	4	96	72	2
NMSI_	18	96	4	96	72	6
CNSCL	18	264	2	0	24	1
CNSCR	18	264	6	0	24	7
NMSTR	19	0	0
NMSXL	19	0	0	96	192	7
NMSTR	20	0	4
NMSXL	20	0	4	96	192	3
EXHLD	21	0	2	72
EXHLD	21	0	3	72
NMTTP	21	144	2	B	0	M1
NMTTP	21	144	2	E	0	M1
NMTTP	21	144	3	B	0	M1
NMTTP	21	144	4	E	0	M1
NMSTR	21	288	5
BRSCR	21	288	5	96	144	2
NMTAP	22	192	3
NMTAP	22	240	3
NMTAP	22	288	4
EXHLD	23	0	4	72
EXHLD	23	0	5	72
NMTTP	23	144	4	B	0	M1
NMTTP	23	144	4	E	0	M1
NMTTP	23	144	5	B	0	M1
NMTTP	23	144	6	E	0	M1
NMSTR	23	288	0
NMSSL	23	288	0	96	144	4
NMTAP	24	192	7
NMTAP	24	240	7
EXTAP	24	288	0
EXTAP	24	288	6
NMTAP	25	0	2
NMTAP	25	96	1
NMTAP	25	96	3
NMTAP	25	192	5
NMTAP	25	288	4
NMTAP	25	288	6
NMHLD	26	0	1	96
NMHLD	26	96	3	96
NMHLD	26	192	4	96
NMHLD	26	288	6	96
NMSTR	27	0	5
NMSCL	27	0	5	96	96	2
NMSCR	27	0	5	96	96	0
NMTAP	27	288	3
NMTAP	27	288	7
NMSTR	28	0	2
NMSCL	28	0	2	96	96	7
NMSCR	28	0	2	96	96	5
NMTAP	28	288	0
NMTAP	28	288	4
NMHLD	29	0	2	144
NMTAP	29	144	3
NMTAP	29	192	2
NMTAP	29	192	3
NMTTP	29	288	1	A	0	M1
NMTTP	29	288	2	E	0	M1
NMTTP	29	288	4	E	0	M1
NMTTP	29	288	4	A	0	M1
NMHLD	30	0	5	144
NMTAP	30	144	4
NMTAP	30	192	4
NMTAP	30	192	5
NMTTP	30	288	3	A	0	M1
NMTTP	30	288	4	E	0	M1
NMTTP	30	288	6	E	0	M1
NMTTP	30	288	6	A	0	M1
NMHLD	31	0	1	144
NMTAP	31	144	0
NMTAP	31	192	0
NMTAP	31	192	1
NMTTP	31	288	0	E	0	M1
NMTTP	31	288	2	E	0	M1
NMTTP	31	288	2	A	0	M1
NMTTP	31	288	7	A	0	M1
NMHLD	32	0	6	144
NMTAP	32	144	7
NMTAP	32	192	6
NMTAP	32	192	7
NMTTP	32	288	0	E	0	M1
NMTTP	32	288	0	A	0	M1
NMTTP	32	288	5	A	0	M1
NMTTP	32	288	6	E	0	M1
NMTAP	33	0	2
NMTAP	33	0	4
NMHLD	33	96	5	96
NMHLD	33	192	6	96
NMHLD	33	288	7	96
NMHLD	34	0	0	96
NMHLD	34	96	1	96
NMHLD	34	192	2	96
NMTAP	34	288	3
NMHLD	35	0	0	96
BRHLD	35	0	6	96
BRHLD	35	144	2	96
NMHLD	35	144	3	96
BRHLD	35	288	4	96
NMHLD	35	288	5	96
NMHLD	36	48	1	96
BRHLD	36	48	7	96
EXTAP	36	192	0
EXTAP	36	192	6
EXTAP	36	240	0
EXTAP	36	240	6
BXTAP	36	288	1
BXTAP	36	288	5
NMTAP	37	0	7
NMTAP	37	48	6
NMTAP	37	96	0
NMTAP	37	96	5
NMTAP	37	192	2
NMTAP	37	240	3
NMTAP	37	288	1
NMTAP	37	288	4
NMTAP	38	0	6
NMTAP	38	48	6
NMTAP	38	96	0
NMTAP	38	144	0
NMSTR	38	192	7
NMSI_	38	192	7	96	48	3
EXTAP	38	288	1
NMTAP	39	0	0
NMTAP	39	48	1
NMTAP	39	96	2
NMTAP	39	96	7
NMTAP	39	192	5
NMTAP	39	240	4
NMTAP	39	288	3
NMTAP	39	288	6
NMSTR	40	0	1
NMSI_	40	0	1	96	48	4
NMTAP	40	96	7
NMSTR	40	192	5
NMSI_	40	192	5	96	48	0
NMTAP	40	288	3
EXSTR	41	0	3
NMSUR	41	0	3	96	96	0
EXSTR	41	0	7
NMSCL	41	0	7	96	96	4
NMTTP	41	288	1	B	0	M1
NMTTP	41	288	2	B	0	M1
NMTTP	41	288	2	E	0	M1
EXSTR	42	0	0
NMSCR	42	0	0	96	96	3
EXSTR	42	0	4
NMSUL	42	0	4	96	96	7
NMTTP	42	288	5	B	0	M1
NMTTP	42	288	6	B	0	M1
NMTTP	42	288	6	E	0	M1
NMHLD	43	0	1	48
NMHLD	43	0	3	48
NMHLD	43	96	4	48
NMHLD	43	96	6	48
EXTAP	43	192	3
EXSTR	43	240	3
BRSXL	43	240	3	96	240	3
BRSXR	43	240	3	96	240	3
NMTTP	44	288	0	E	0	M1
NMTTP	44	288	7	B	1	M1
NMTTP	44	288	7	E	0	M1
NMTTP	44	288	7	A	0	M1
NMTAP	45	0	2
NMTAP	45	48	3
NMTAP	45	96	1
NMTAP	45	96	4
NMTAP	45	192	7
NMTAP	45	240	6
NMTAP	45	288	0
NMTAP	45	288	5
NMTAP	46	0	1
NMTAP	46	48	1
NMTAP	46	96	7
NMTAP	46	144	7
NMSTR	46	192	0
NMSI_	46	192	0	96	48	4
EXTAP	46	288	6
NMTAP	47	0	5
NMTAP	47	48	4
NMTAP	47	96	3
NMTAP	47	96	6
NMTAP	47	192	0
NMTAP	47	240	1
NMTAP	47	288	2
NMTAP	47	288	7
NMSTR	48	0	6
NMSI_	48	0	6	96	48	4
NMSTR	48	96	0
NMSI_	48	96	0	96	48	2
NMSTR	48	192	7
NMSI_	48	192	7	96	48	3
EXSTR	49	0	1
NMSCR	49	0	1	96	96	4
EXSTR	49	0	5
NMSUL	49	0	5	96	96	0
NMTTP	49	288	0	E	0	M1
NMTTP	49	288	7	B	0	M1
NMTTP	49	288	7	A	0	M1
EXSTR	50	0	2
NMSUR	50	0	2	96	96	7
EXSTR	50	0	6
NMSCL	50	0	6	96	96	3
NMTTP	50	288	0	B	0	M1
NMTTP	50	288	0	E	0	M1
NMTTP	50	288	0	A	0	M1
EXSTR	51	0	1
NMSXL	51	0	1	96	192	0
EXSTR	51	0	5
NMSXL	51	0	5	96	192	4
NMTHO	52	0	0	288	C	1	M1
NMTAP	54	0	5
NMTAP	54	96	4
NMTAP	54	96	5
NMTAP	54	192	6
NMTAP	54	240	6
NMTAP	54	288	0
NMTAP	55	0	2
NMTAP	55	96	2
NMTAP	55	96	3
NMTAP	55	192	1
NMTAP	55	240	1
NMTAP	55	288	7
NMSTR	56	0	5
NMSUL	56	0	5	96	192	3
EXHLD	57	0	1	72
EXHLD	57	72	2	72
BXHLD	57	144	3	144
NMTAP	57	240	7
NMTAP	57	288	7
EXHLD	58	0	6	72
EXHLD	58	72	5	72
BXHLD	58	144	4	144
NMTAP	58	240	0
NMTAP	58	288	0
NMHLD	59	0	2	72
NMHLD	59	0	7	72
NMHLD	59	144	0	72
NMHLD	59	144	5	72
BXSTR	59	288	3
NMSCL	59	288	3	96	672	4
BXTAP	59	288	4
NMHLD	66	0	3	384
NMTTP	66	96	2	E	0	M1
NMTTP	66	192	0	E	0	M1
NMTTP	66	288	6	E	0	M1
NMHLD	67	0	4	384
NMTTP	67	96	6	E	0	M1
NMTTP	67	192	0	E	0	M1
NMTTP	67	288	2	E	0	M1
NMTAP	68	0	3
NMTAP	68	96	4
NMTAP	68	96	6
NMTAP	68	192	1
NMTAP	68	192	3
NMSTR	68	240	3
NMSV_	68	240	3	96	144	0
NMSV_	68	240	3	96	144	6
CNSCR	69	96	0	0	48	1
CNSCL	69	96	6	0	48	5
CNSI_	69	144	1	0	48	3
CNSI_	69	144	5	0	48	3
NMTTP	69	288	0	E	0	M1
NMTTP	69	288	7	B	1	M1
NMTTP	69	288	7	E	0	M1
NMTTP	69	288	7	A	0	M1
NMTAP	70	0	2
NMTAP	70	0	3
NMTAP	70	48	1
NMTAP	70	96	0
NMTAP	70	96	4
NMTAP	70	192	4
NMTAP	70	192	5
NMTAP	70	240	6
NMTAP	70	288	3
NMTAP	70	288	7
NMTAP	71	0	1
NMTAP	71	48	2
NMTAP	71	96	3
NMTAP	71	144	4
NMTAP	71	192	5
NMTAP	71	240	6
BRTAP	71	288	0
BRTAP	71	288	7
NMTAP	72	0	4
NMTAP	72	0	5
NMTAP	72	48	6
NMTAP	72	96	3
NMTAP	72	96	7
NMTAP	72	192	2
NMTAP	72	192	3
NMTAP	72	240	1
NMTAP	72	288	0
NMTAP	72	288	4
NMTAP	73	0	0
NMTAP	73	0	7
NMTAP	73	48	0
NMTAP	73	48	7
NMTAP	73	96	1
NMTAP	73	96	6
NMTAP	73	144	2
NMTAP	73	144	5
BRSTR	73	192	3
BRSI_	73	192	3	96	48	0
BRSTR	73	192	4
BRSI_	73	192	4	96	48	7
EXTAP	74	0	1
EXTAP	74	0	6
NMTAP	74	48	2
NMTAP	74	96	3
NMSTR	74	144	4
NMSF_	74	144	4	96	72	0
NMTAP	75	0	2
NMTAP	75	0	6
NMTAP	75	48	5
NMTAP	75	96	4
NMSTR	75	144	3
NMSF_	75	144	3	96	72	7
NMTAP	76	0	1
NMTAP	76	0	5
NMTAP	76	48	6
NMTAP	76	96	7
NMSTR	76	144	0
NMSF_	76	144	0	96	72	4
NMTAP	77	0	1
NMTAP	77	0	7
NMTAP	77	48	1
NMTAP	77	48	7
NMTAP	77	96	2
NMTAP	77	96	6
NMTAP	77	144	3
NMTAP	77	144	5
NMTAP	77	240	0
NMSTR	77	240	4
NMSCR	77	240	4	96	720	3
NMTTP	77	336	0	C	1	M1

T_REC_TAP	165
T_REC_BRK	2
T_REC_XTP	13
T_REC_BXX	5
T_REC_HLD	39
T_REC_XHO	8
T_REC_BHO	4
T_REC_BXH	2
T_REC_STR	25
T_REC_BST	2
T_REC_XST	11
T_REC_XBS	1
T_REC_TTP	64
T_REC_THO	1
T_REC_SLD	39
T_REC_BSL	5
T_REC_ALL	386
T_NUM_TAP	278
T_NUM_BRK	21
T_NUM_HLD	48
T_NUM_SLD	39
T_NUM_ALL	386
T_JUDGE_TAP	288
T_JUDGE_HLD	150
T_JUDGE_SLD	44
T_JUDGE_ALL	482
TTM_EACHPAIRS	72
TTM_SCR_TAP	139000
TTM_SCR_BRK	54600
TTM_SCR_HLD	48000
TTM_SCR_SLD	58500
TTM_SCR_ALL	300100
TTM_SCR_S	289100
TTM_SCR_SS	298000
TTM_RAT_ACV	10070

