VERSION	0.00.00	1.05.00
FES_MODE	0
BPM_DEF	133.000	133.000	133.000	133.000
MET_DEF	4	4
RESOLUTION	384
CLK_DEF	384
COMPATIBLE_CODE	MA2

BPM	0	0	133.000

NMTAP	5	0	2
NMTAP	5	96	2
NMTAP	5	192	2
NMTAP	6	0	1
NMTAP	6	96	1
NMTAP	6	192	1
NMTAP	7	0	0
NMTAP	7	96	0
NMTAP	7	192	0
NMTAP	8	0	6
NMTAP	8	0	7
NMTAP	8	192	6
NMTAP	8	192	7
NMTAP	9	0	5
NMTAP	9	96	5
NMTAP	9	192	5
NMTAP	10	0	6
NMTAP	10	96	6
NMTAP	10	192	6
NMTAP	11	0	7
NMTAP	11	96	7
NMTAP	11	192	7
NMTAP	12	0	0
NMTAP	12	0	1
NMTAP	12	192	0
NMTAP	12	192	1
NMSTR	13	0	1
NMSI_	13	0	1	96	192	4
NMSTR	14	0	6
NMSI_	14	0	6	96	192	3
NMSTR	15	0	2
NMSI_	15	0	2	96	192	7
NMSTR	16	0	6
NMSI_	16	0	6	96	192	2
NMSTR	17	0	0
NMSI_	17	0	0	96	192	4
NMSTR	18	0	5
NMSI_	18	0	5	96	192	0
NMSTR	19	0	1
NMSI_	19	0	1	96	192	5
NMTAP	20	0	6
NMTAP	20	192	0
NMTAP	20	192	7
NMTAP	21	0	6
NMTAP	21	96	6
NMTAP	21	192	6
NMTAP	21	192	7
NMTAP	22	0	5
NMTAP	22	96	5
NMTAP	22	192	4
NMTAP	22	192	5
NMTAP	23	0	3
NMTAP	23	96	3
NMTAP	23	192	2
NMTAP	23	192	3
NMTAP	24	0	0
NMTAP	24	0	1
NMTAP	24	96	0
NMTAP	24	96	1
NMTAP	24	192	0
NMTAP	24	192	1
NMTAP	25	0	1
NMTAP	25	96	1
NMTAP	25	192	0
NMTAP	25	192	1
NMTAP	26	0	2
NMTAP	26	96	2
NMTAP	26	192	2
NMTAP	26	192	3
NMTAP	27	0	4
NMTAP	27	96	4
NMTAP	27	192	4
NMTAP	27	192	5
NMTAP	28	0	6
NMTAP	28	0	7
NMTAP	28	96	6
NMTAP	28	96	7
NMTAP	28	192	6
NMTAP	28	192	7
NMHLD	29	0	5	192
NMHLD	29	192	4	192
NMHLD	30	0	3	192
NMTAP	30	192	2
NMHLD	31	0	2	192
NMHLD	31	192	3	192
NMHLD	32	0	4	192
NMTAP	32	192	5
NMHLD	33	0	6	192
NMHLD	33	192	5	192
NMHLD	34	0	4	192
NMTAP	34	192	3
NMHLD	35	0	1	192
NMHLD	35	192	2	192
NMHLD	36	0	3	192
NMTAP	36	192	4
EXTAP	37	0	2
EXTAP	37	96	2
NMTAP	37	192	1
NMTAP	37	288	1
NMTAP	38	0	0
NMTAP	38	96	0
NMTAP	38	192	6
NMTAP	38	192	7
NMTAP	39	0	5
NMTAP	39	96	5
NMTAP	39	192	6
NMTAP	39	288	6
NMTAP	40	0	7
NMTAP	40	96	7
NMTAP	40	192	0
NMTAP	40	192	1
NMTAP	41	0	1
NMTAP	41	96	1
NMTAP	41	192	2
NMTAP	41	288	2
NMTAP	42	0	3
NMTAP	42	96	3
NMTAP	42	192	4
NMTAP	42	192	5
NMTAP	43	0	6
NMTAP	43	96	6
NMTAP	43	192	5
NMTAP	43	288	5
NMTAP	44	0	4
NMTAP	44	96	4
NMTAP	44	192	2
NMTAP	44	192	3
NMTAP	45	0	2
NMTAP	45	96	2
NMTAP	45	192	0
NMTAP	45	192	1
NMTAP	45	288	0
NMTAP	45	288	1
NMTAP	46	0	7
NMTAP	46	96	7
NMTAP	46	192	6
NMTAP	46	192	7
NMTAP	47	0	5
NMTAP	47	96	5
NMTAP	47	192	6
NMTAP	47	192	7
NMTAP	47	288	6
NMTAP	47	288	7
NMTAP	48	0	0
NMTAP	48	96	0
BRTAP	48	192	0
BRTAP	48	192	1
NMTAP	49	0	1
NMTAP	49	96	1
NMTAP	49	192	2
NMTAP	49	192	3
NMTAP	49	288	2
NMTAP	49	288	3
NMTAP	50	0	4
NMTAP	50	96	4
NMTAP	50	192	4
NMTAP	50	192	5
NMTAP	51	0	6
NMTAP	51	96	6
NMTAP	51	192	4
NMTAP	51	192	5
NMTAP	51	288	4
NMTAP	51	288	5
NMTAP	52	0	3
NMTAP	52	96	3
NMTAP	52	192	2
NMTAP	52	192	3
NMTTP	53	0	1	B	0	L1
NMTTP	53	96	2	B	0	L1
NMTTP	53	192	3	B	0	L1
NMTTP	54	0	6	B	0	L1
NMTTP	54	96	5	B	0	L1
NMTTP	54	192	4	B	0	L1
NMTTP	55	0	1	B	0	L1
NMTTP	55	96	2	B	0	L1
NMTTP	55	192	3	B	0	L1
NMTTP	55	288	4	B	0	L1
NMTTP	56	0	5	B	0	L1
NMTTP	56	96	6	B	0	L1
NMTTP	56	192	0	C	0	L1
NMTTP	57	0	7	B	0	L1
NMTTP	57	96	6	B	0	L1
NMTTP	57	192	4	B	0	L1
NMTTP	57	192	5	B	0	L1
NMTTP	58	0	0	B	0	L1
NMTTP	58	96	1	B	0	L1
NMTTP	58	192	2	B	0	L1
NMTTP	58	192	3	B	0	L1
NMTTP	59	0	6	B	0	L1
NMTTP	59	96	5	B	0	L1
NMTTP	59	192	4	B	0	L1
NMTTP	59	288	3	B	0	L1
NMTTP	60	0	0	C	1	L1
NMHLD	66	0	2	192
NMHLD	66	192	3	192
NMHLD	67	0	4	192
NMTAP	67	192	5
NMTAP	68	0	3
NMTAP	68	96	3
NMTAP	68	192	4
NMHLD	68	288	3	288
NMHLD	68	288	4	288
NMTAP	70	0	4
NMTAP	70	0	5
NMTAP	70	96	4
NMTAP	70	96	5
NMTAP	70	192	6
NMTAP	70	288	6
NMTAP	71	0	0
NMTAP	71	0	7
NMTAP	71	96	0
NMTAP	71	96	7
NMTAP	71	192	1
NMTAP	71	288	1
NMTAP	72	0	2
NMTAP	72	0	3
NMTAP	72	96	2
NMTAP	72	96	3
NMTAP	72	192	1
NMTAP	72	288	1
NMTAP	73	0	0
NMTAP	73	0	7
NMTAP	73	96	0
NMTAP	73	96	7
BXTAP	73	192	1
BXTAP	73	192	6
NMTAP	74	0	0
NMTAP	74	0	1
NMTAP	74	96	0
NMTAP	74	96	1
NMTAP	74	192	2
NMTAP	74	288	2
NMTAP	75	0	3
NMTAP	75	0	4
NMTAP	75	96	3
NMTAP	75	96	4
NMTAP	75	192	5
NMTAP	75	288	5
NMTAP	76	0	6
NMTAP	76	0	7
NMTAP	76	96	6
NMTAP	76	96	7
NMTAP	76	192	5
NMTAP	76	288	5
NMTAP	77	0	3
NMTAP	77	0	4
NMTAP	77	96	3
NMTAP	77	96	4
NMTAP	77	192	2
NMTAP	77	192	5
NMSTR	77	288	2
NMSLL	77	288	2	96	576	3
NMSTR	77	288	5
NMSLR	77	288	5	96	576	4

T_REC_TAP	187
T_REC_BRK	2
T_REC_XTP	2
T_REC_BXX	2
T_REC_HLD	17
T_REC_XHO	0
T_REC_BHO	0
T_REC_BXH	0
T_REC_STR	9
T_REC_BST	0
T_REC_XST	0
T_REC_XBS	0
T_REC_TTP	26
T_REC_THO	0
T_REC_SLD	9
T_REC_BSL	0
T_REC_ALL	254
T_NUM_TAP	224
T_NUM_BRK	4
T_NUM_HLD	17
T_NUM_SLD	9
T_NUM_ALL	254
T_JUDGE_TAP	228
T_JUDGE_HLD	72
T_JUDGE_SLD	9
T_JUDGE_ALL	309
TTM_EACHPAIRS	53
TTM_SCR_TAP	112000
TTM_SCR_BRK	10400
TTM_SCR_HLD	17000
TTM_SCR_SLD	13500
TTM_SCR_ALL	152900
TTM_SCR_S	147950
TTM_SCR_SS	152500
TTM_RAT_ACV	10026

