VERSION	0.00.00	1.04.00
FES_MODE	0
BPM_DEF	133.000	133.000	133.000	133.000
MET_DEF	4	4
RESOLUTION	384
CLK_DEF	384
COMPATIBLE_CODE	MA2

BPM	0	0	133.000

NMTAP	5	0	7
NMTAP	5	192	7
NMTAP	6	0	6
NMTAP	7	0	5
NMTAP	7	192	5
NMTAP	8	0	4
NMTAP	9	0	3
NMTAP	9	192	3
NMTAP	10	0	2
NMTAP	11	0	1
NMTAP	11	192	1
NMTAP	12	0	0
NMTAP	12	0	7
NMTAP	13	0	0
NMTAP	13	192	0
NMTAP	14	0	1
NMTAP	14	192	1
NMTAP	15	0	2
NMTAP	15	192	2
NMTAP	16	0	2
NMTAP	16	0	3
NMTAP	17	0	4
NMTAP	17	192	4
NMTAP	18	0	5
NMTAP	18	192	5
NMTAP	19	0	6
NMTAP	19	192	6
NMTAP	20	0	6
NMTAP	20	0	7
NMTAP	21	0	7
NMTAP	21	96	7
NMTAP	21	192	7
NMTAP	22	0	6
NMTAP	22	192	6
NMTAP	23	0	5
NMTAP	23	96	5
NMTAP	23	192	5
NMTAP	24	0	3
NMTAP	24	0	4
NMTAP	25	0	3
NMTAP	25	96	3
NMTAP	25	192	3
NMTAP	26	0	2
NMTAP	26	192	2
NMTAP	27	0	1
NMTAP	27	96	1
NMTAP	27	192	1
NMTAP	28	0	0
NMTAP	28	0	7
NMTTP	29	0	0	B	0	L1
NMTTP	30	0	7	B	0	L1
NMTTP	31	0	1	B	0	L1
NMTTP	32	0	6	B	0	L1
NMTTP	33	0	2	B	0	L1
NMTTP	34	0	5	B	0	L1
NMTHO	35	0	0	384	C	1	L1
NMTAP	37	0	0
NMTAP	37	96	0
NMTAP	37	192	0
NMTAP	38	0	1
NMTAP	38	96	1
NMTAP	38	192	1
NMTAP	39	0	2
NMTAP	39	96	2
NMTAP	39	192	2
NMTAP	40	0	2
NMTAP	40	0	3
NMTAP	40	192	2
NMTAP	40	192	3
NMTAP	41	0	4
NMTAP	41	96	4
NMTAP	41	192	4
NMTAP	42	0	5
NMTAP	42	96	5
NMTAP	42	192	5
NMTAP	43	0	6
NMTAP	43	96	6
NMTAP	43	192	6
EXTAP	44	0	6
EXTAP	44	0	7
NMTAP	45	0	7
NMTAP	45	96	7
NMTAP	45	192	7
NMTAP	46	0	6
NMTAP	46	96	6
NMTAP	46	192	6
NMTAP	47	0	5
NMTAP	47	96	5
NMTAP	47	192	5
NMTAP	48	0	4
NMTAP	48	96	4
NMTAP	48	192	3
NMTAP	48	192	4
NMTAP	49	0	3
NMTAP	49	96	3
NMTAP	49	192	3
NMTAP	50	0	2
NMTAP	50	96	2
NMTAP	50	192	2
NMTAP	51	0	1
NMTAP	51	96	1
NMTAP	51	192	1
BXTAP	52	0	0
BXTAP	52	0	7
NMHLD	53	0	0	192
NMHLD	53	0	1	192
NMTAP	54	0	0
NMTAP	54	0	1
NMTAP	54	192	0
NMTAP	54	192	1
NMHLD	55	0	2	192
NMHLD	55	0	3	192
NMTAP	56	0	2
NMTAP	56	0	3
NMTAP	56	192	2
NMTAP	56	192	3
NMHLD	57	0	4	192
NMHLD	57	0	5	192
NMTAP	58	0	4
NMTAP	58	0	5
NMTAP	58	192	4
NMTAP	58	192	5
NMHLD	59	0	6	192
NMHLD	59	0	7	192
NMTAP	60	0	6
NMTAP	60	0	7
NMSTR	66	0	0
NMSI_	66	0	0	96	288	3
NMSTR	66	0	7
NMSI_	66	0	7	96	288	4
NMSTR	68	0	3
NMSI_	68	0	3	96	288	0
NMSTR	68	0	4
NMSI_	68	0	4	96	288	7
BRTAP	70	0	7
NMTAP	70	96	7
NMTAP	70	192	7
NMTAP	70	288	7
NMTAP	71	0	6
NMTAP	71	96	6
NMTAP	71	192	6
NMTAP	71	192	7
NMTAP	72	0	5
NMTAP	72	96	5
NMTAP	72	192	5
NMTAP	72	288	5
NMTAP	73	0	4
NMTAP	73	96	4
NMTAP	73	192	3
NMTAP	73	192	4
NMTAP	74	0	3
NMTAP	74	96	3
NMTAP	74	192	3
NMTAP	74	288	3
NMTAP	75	0	2
NMTAP	75	96	2
NMTAP	75	192	2
NMTAP	75	192	3
NMTAP	76	0	1
NMTAP	76	96	1
NMTAP	76	192	1
NMTAP	76	288	1
NMTAP	77	0	0
NMTAP	77	96	0
NMTAP	77	192	0
NMTAP	77	192	7
EXHLD	78	0	1	576
EXHLD	78	0	6	576

T_REC_TAP	138
T_REC_BRK	1
T_REC_XTP	2
T_REC_BXX	2
T_REC_HLD	8
T_REC_XHO	2
T_REC_BHO	0
T_REC_BXH	0
T_REC_STR	4
T_REC_BST	0
T_REC_XST	0
T_REC_XBS	0
T_REC_TTP	6
T_REC_THO	1
T_REC_SLD	4
T_REC_BSL	0
T_REC_ALL	168
T_NUM_TAP	150
T_NUM_BRK	3
T_NUM_HLD	11
T_NUM_SLD	4
T_NUM_ALL	168
T_JUDGE_TAP	153
T_JUDGE_HLD	64
T_JUDGE_SLD	4
T_JUDGE_ALL	221
TTM_EACHPAIRS	28
TTM_SCR_TAP	75000
TTM_SCR_BRK	7800
TTM_SCR_HLD	11000
TTM_SCR_SLD	6000
TTM_SCR_ALL	99800
TTM_SCR_S	96550
TTM_SCR_SS	99500
TTM_RAT_ACV	10030

