VERSION	0.00.00	1.03.00
FES_MODE	0
BPM_DEF	160.000	160.000	160.000	160.000
MET_DEF	4	4
RESOLUTION	384
CLK_DEF	384
COMPATIBLE_CODE	MA2

BPM	0	0	160.000

STR	1	0	2
SCL	1	0	2	96	192	4
STR	1	0	5
SCR	1	0	5	96	192	3
XHO	2	0	2	288
XST	2	0	7
SCR	2	0	7	96	192	6
XTP	2	336	3
XTP	2	336	7
XST	3	0	2
SCL	3	0	2	96	144	4
XHO	3	0	6	240
XTP	3	288	3
XTP	3	288	7
XTP	3	336	2
XTP	3	336	6
XHO	4	0	1	288
XST	4	0	5
SCL	4	0	5	96	144	7
XTP	4	336	1
XTP	4	336	6
XST	5	0	0
SSL	5	0	0	96	96	4
XTP	5	0	7
HLD	5	192	7	96
TTP	5	288	0	C	1	M1
TTP	5	288	3	B	0	M1
TTP	5	288	4	B	0	M1
HLD	6	0	6	72
HLD	6	72	5	72
TAP	6	144	4
HLD	6	192	1	72
HLD	6	264	2	72
TAP	6	336	3
HLD	7	0	7	72
HLD	7	72	6	72
TAP	7	144	5
HLD	7	192	0	72
HLD	7	264	1	72
TAP	7	336	2
XTP	8	0	3
TAP	8	24	4
TAP	8	48	3
TAP	8	72	4
XTP	8	96	2
TAP	8	120	5
TAP	8	144	2
TAP	8	168	5
XTP	8	192	1
TAP	8	216	6
TAP	8	240	1
TAP	8	264	6
XTP	8	288	0
TAP	8	312	7
TAP	8	336	0
TAP	8	360	7
THO	9	0	0	96	C	1	M1
BST	9	192	0
SF_	9	192	0	96	48	4
BRK	9	288	0
BRK	10	0	2
BRK	10	0	6
TTP	10	96	0	B	0	M1
TTP	10	120	6	B	0	M1
TTP	10	144	2	B	0	M1
TTP	10	168	4	B	0	M1
TTP	10	192	1	B	0	M1
TTP	10	216	7	B	0	M1
TTP	10	240	3	B	0	M1
TTP	10	264	5	B	0	M1
TAP	10	288	0
XTP	11	0	2
XTP	11	0	6
TTP	11	96	7	B	0	M1
TTP	11	120	1	B	0	M1
TTP	11	144	5	B	0	M1
TTP	11	168	3	B	0	M1
TTP	11	192	6	B	0	M1
TTP	11	216	0	B	0	M1
TTP	11	240	4	B	0	M1
TTP	11	264	2	B	0	M1
TAP	11	288	7
XTP	12	0	1
XTP	12	0	5
TTP	12	96	0	B	0	M1
TTP	12	120	7	B	0	M1
TTP	12	144	3	B	0	M1
TTP	12	168	4	B	0	M1
TTP	12	192	1	B	0	M1
TTP	12	216	6	B	0	M1
TTP	12	240	2	B	0	M1
TTP	12	264	5	B	0	M1
TAP	12	288	0
BRK	13	0	1
BRK	13	0	6
TAP	13	96	7
TAP	13	120	0
TAP	13	144	6
TAP	13	168	1
BST	13	192	7
SF_	13	192	7	96	48	3
BRK	13	288	7
BRK	14	0	1
BRK	14	0	5
TTP	14	96	1	E	0	M1
TTP	14	120	7	B	0	M1
TTP	14	144	3	E	0	M1
TTP	14	168	4	B	0	M1
TTP	14	192	0	B	0	M1
TTP	14	216	7	E	0	M1
TTP	14	240	3	B	0	M1
TTP	14	264	5	E	0	M1
TAP	14	288	1
XTP	15	0	2
XTP	15	0	6
TTP	15	96	7	E	0	M1
TTP	15	120	0	B	0	M1
TTP	15	144	5	E	0	M1
TTP	15	168	3	B	0	M1
TTP	15	192	7	B	0	M1
TTP	15	216	1	E	0	M1
TTP	15	240	4	B	0	M1
TTP	15	264	3	E	0	M1
TAP	15	288	6
XTP	16	0	1
XTP	16	0	5
TTP	16	96	1	E	0	M1
TTP	16	120	7	B	0	M1
TTP	16	144	3	B	0	M1
TTP	16	168	5	E	0	M1
TTP	16	192	0	B	0	M1
TTP	16	216	7	E	0	M1
TTP	16	240	3	E	0	M1
TTP	16	264	4	B	0	M1
TAP	16	288	1
BRK	17	0	2
BRK	17	0	7
TAP	17	96	3
TAP	17	120	4
TAP	17	144	3
XST	17	192	0
SI_	17	192	0	96	48	4
XST	17	192	7
SI_	17	192	7	96	48	3
XTP	17	240	1
XTP	17	240	6
BRK	17	288	0
BRK	17	288	7
XTP	18	0	2
XTP	18	0	5
TAP	18	48	1
TAP	18	72	3
TAP	18	96	2
TAP	18	120	4
TAP	18	168	3
TAP	18	168	5
TAP	18	216	4
TAP	18	216	6
TAP	18	264	5
TAP	18	288	4
TAP	18	336	3
TAP	18	336	6
TAP	19	0	4
TAP	19	0	5
TAP	19	48	6
TAP	19	72	4
TAP	19	96	5
TAP	19	120	3
TAP	19	168	2
TAP	19	168	4
TAP	19	216	1
TAP	19	216	3
TAP	19	264	2
TAP	19	288	3
TAP	19	336	3
TAP	19	336	4
XTP	20	0	2
XTP	20	0	5
TAP	20	48	6
TAP	20	72	4
TAP	20	96	5
TAP	20	120	3
TAP	20	168	2
TAP	20	168	4
TAP	20	216	1
TAP	20	216	3
TAP	20	264	2
TAP	20	288	3
TAP	20	336	1
TAP	20	336	4
TAP	21	0	2
TAP	21	0	3
TAP	21	48	1
TAP	21	72	3
TAP	21	96	2
TAP	21	120	4
TAP	21	168	3
TAP	21	168	5
TAP	21	216	4
TAP	21	216	6
XTP	21	264	0
XTP	21	264	7
BRK	21	288	0
BRK	21	288	7
XTP	22	0	2
XTP	22	0	5
TAP	22	48	1
TAP	22	72	3
TAP	22	96	2
TAP	22	120	4
TAP	22	168	3
TAP	22	168	5
TAP	22	216	4
TAP	22	216	6
TAP	22	264	5
TAP	22	288	4
TAP	22	336	3
TAP	22	336	6
TAP	23	0	4
TAP	23	0	5
TAP	23	48	6
TAP	23	72	4
TAP	23	96	5
TAP	23	120	3
TAP	23	168	2
TAP	23	168	4
TAP	23	216	1
TAP	23	216	3
TAP	23	264	2
TAP	23	288	3
TAP	23	336	3
TAP	23	336	4
XST	24	0	2
SXR	24	0	2	96	144	7
XST	24	0	6
SXR	24	0	6	96	144	3
BRK	24	288	1
BRK	24	288	5
TTP	25	0	4	B	0	M1
TTP	25	0	5	E	0	M1
TTP	25	0	5	B	0	M1
TTP	25	96	0	B	0	M1
TTP	25	96	0	E	0	M1
TTP	25	96	7	B	0	M1
TTP	25	192	2	B	0	M1
TTP	25	192	3	B	0	M1
TTP	25	192	3	E	0	M1
TTP	25	288	2	E	0	M1
TTP	25	300	0	C	1	M1
TTP	25	312	6	E	0	M1
HLD	26	0	6	72
HLD	26	0	7	72
TAP	26	144	2
TAP	26	144	3
HLD	26	192	2	72
HLD	26	192	3	72
TAP	26	336	4
TAP	26	336	5
HLD	27	0	4	72
HLD	27	0	5	72
TAP	27	144	1
TAP	27	144	3
HLD	27	192	1	72
HLD	27	192	3	72
TAP	27	336	0
TAP	27	336	7
HLD	28	0	0	72
HLD	28	0	7	72
TAP	28	144	2
TAP	28	144	3
HLD	28	192	2	72
HLD	28	192	3	72
TAP	28	336	3
TAP	28	336	6
XTP	29	0	3
XTP	29	0	6
XTP	29	72	1
XTP	29	72	4
XTP	29	144	2
XTP	29	144	7
XTP	29	216	0
XTP	29	216	5
XTP	29	288	1
XTP	29	288	6
XTP	29	336	2
XTP	29	336	5
XHO	30	0	3	72
XHO	30	0	4	72
TAP	30	144	0
TAP	30	144	2
HLD	30	192	0	72
HLD	30	192	2	72
TAP	30	336	5
TAP	30	336	7
HLD	31	0	5	72
HLD	31	0	7	72
TAP	31	144	0
TAP	31	144	7
HLD	31	192	0	72
HLD	31	192	7	72
TAP	31	336	3
TAP	31	336	4
XTP	32	0	5
TAP	32	24	2
TAP	32	48	5
TAP	32	72	2
XTP	32	96	6
TAP	32	120	1
TAP	32	144	6
TAP	32	168	1
XTP	32	192	7
XTP	32	204	6
XTP	32	216	5
XTP	32	228	4
XTP	32	240	3
XTP	32	252	2
XTP	32	264	1
XTP	32	276	0
XTP	32	288	7
XTP	32	300	6
XTP	32	312	5
XTP	32	324	4
XTP	32	336	3
XTP	32	348	2
XTP	32	360	1
XTP	32	372	0
XHO	33	0	7	192
TAP	33	72	2
TAP	33	144	4
BRK	33	192	0
XTP	33	264	4
XTP	33	264	5
XTP	33	324	2
XTP	33	324	3
XTP	34	0	5
TAP	34	48	5
TAP	34	96	4
TAP	34	96	6
TAP	34	144	5
TTP	34	192	3	E	0	M1
TTP	34	216	3	B	0	M1
TTP	34	240	4	B	0	M1
TAP	34	288	6
TAP	35	0	2
TAP	35	48	2
TAP	35	96	1
TAP	35	96	3
TAP	35	144	2
TTP	35	192	5	E	0	M1
TTP	35	216	4	B	0	M1
TTP	35	240	3	B	0	M1
TAP	35	288	1
TTP	36	0	7	E	0	M1
TTP	36	24	7	B	0	M1
TTP	36	48	0	B	0	M1
TTP	36	96	3	E	0	M1
TTP	36	120	3	B	0	M1
TTP	36	144	4	B	0	M1
TTP	36	192	6	B	0	M1
TTP	36	216	5	B	0	M1
TTP	36	240	5	E	0	M1
TTP	36	288	2	B	0	M1
TTP	36	312	1	B	0	M1
TTP	36	336	1	E	0	M1
XST	37	0	0
SSL	37	0	0	96	72	4
XTP	37	0	7
XTP	37	168	5
XTP	37	228	0
XTP	37	228	1
XTP	37	288	2
XTP	37	288	3
XTP	37	336	3
XTP	37	336	4
BRK	38	0	4
BRK	38	0	5
TAP	38	48	5
TAP	38	96	6
TAP	38	96	7
TAP	38	144	5
TTP	38	192	3	E	0	M1
TTP	38	216	3	B	0	M1
TTP	38	240	4	B	0	M1
XTP	38	288	5
XTP	38	288	6
TAP	39	0	2
TAP	39	48	2
TAP	39	96	0
TAP	39	96	1
TAP	39	144	2
TTP	39	192	5	E	0	M1
TTP	39	216	4	B	0	M1
TTP	39	240	3	B	0	M1
XTP	39	288	1
XTP	39	288	2
TTP	40	0	6	E	0	M1
TTP	40	24	5	B	0	M1
TTP	40	48	4	B	0	M1
TTP	40	96	2	E	0	M1
TTP	40	120	2	B	0	M1
TTP	40	144	3	B	0	M1
TAP	40	192	7
TAP	40	216	0
TAP	40	240	7
TAP	40	264	0
TAP	40	288	7
TAP	40	312	0
TAP	40	336	7
TTP	41	0	0	B	0	M1
TTP	41	0	0	C	1	M1
TTP	41	0	1	B	0	M1
TTP	41	72	0	C	1	M1
TTP	41	72	4	B	0	M1
TTP	41	72	5	B	0	M1
TTP	41	144	0	C	1	M1
TTP	41	144	2	B	0	M1
TTP	41	144	3	B	0	M1
TTP	41	216	0	C	1	M1
TTP	41	216	6	B	0	M1
TTP	41	216	7	B	0	M1
TTP	41	288	0	E	0	M1
TTP	41	288	0	C	1	M1
TTP	41	288	4	E	0	M1
XST	42	0	2
SXL	42	0	2	96	288	5
XTP	42	0	5
STR	43	0	2
SXL	43	0	2	96	288	5
STR	44	0	2
SXL	44	0	2	96	288	5
STR	45	0	2
SCR	45	0	2	96	96	5
TAP	45	192	2
TAP	45	288	2
TAP	45	288	5
STR	46	0	1
SXL	46	0	1	96	288	4
TAP	46	0	4
STR	47	0	2
SXL	47	0	2	96	288	5
STR	48	0	3
SXL	48	0	3	96	288	6
STR	49	0	4
SCR	49	0	4	96	96	7
STR	49	192	0
SSL	49	192	0	96	72	4
TAP	50	0	5
TAP	50	48	5
HLD	50	96	5	168
TAP	50	168	4
TAP	50	216	4
TAP	50	264	4
TAP	50	288	5
TAP	51	0	1
TAP	51	48	1
HLD	51	96	1	168
TAP	51	168	2
TAP	51	216	2
TAP	51	264	2
TAP	51	288	1
TAP	52	0	6
TAP	52	48	6
HLD	52	96	6	168
TAP	52	168	5
TAP	52	216	5
TAP	52	264	5
TAP	52	288	6
TAP	53	0	2
TAP	53	48	2
HLD	53	96	2	72
TAP	53	168	4
TAP	53	216	4
TAP	53	264	3
TAP	53	264	4
BRK	53	288	2
BRK	53	288	5
STR	54	0	0
SCR	54	0	0	96	96	2
STR	54	96	2
SCR	54	96	2	96	96	4
STR	54	192	4
SCR	54	192	4	96	96	6
STR	54	288	6
SCR	54	288	6	96	96	0
STR	55	0	0
SCR	55	0	0	96	96	3
STR	55	96	3
SCR	55	96	3	96	96	6
STR	55	192	6
SCR	55	192	6	96	96	1
STR	55	288	1
SCR	55	288	1	96	96	4
STR	56	0	4
SCR	56	0	4	96	72	0
TAP	56	96	0
XTP	56	192	1
XTP	56	204	2
XTP	56	216	3
XTP	56	228	4
XTP	56	240	5
XTP	56	252	6
XTP	56	264	7
XTP	56	276	0
BRK	56	288	1
BRK	56	288	5
TTP	57	0	5	B	0	M1
TTP	57	0	6	B	0	M1
TTP	57	0	6	E	0	M1
TTP	57	0	7	B	0	M1
TTP	57	0	7	E	0	M1
TTP	57	96	0	B	0	M1
TTP	57	96	0	C	0	M1
TTP	57	96	1	E	0	M1
TTP	57	96	4	B	0	M1
TTP	57	96	5	E	0	M1
TTP	57	192	2	B	0	M1
TTP	57	192	2	E	0	M1
TTP	57	192	3	B	0	M1
TTP	57	192	3	E	0	M1
TTP	57	192	4	E	0	M1
BRK	57	288	0
BRK	57	288	7
XTP	58	0	0
XTP	58	0	1
TAP	58	48	2
TAP	58	48	3
TAP	58	96	5
TAP	58	120	4
TAP	58	168	6
TAP	58	192	7
TAP	58	216	6
TAP	58	264	0
TAP	58	288	1
TAP	58	288	7
TAP	58	336	2
TAP	59	0	2
TAP	59	0	3
TAP	59	48	4
TAP	59	48	5
TAP	59	96	6
TAP	59	120	7
TAP	59	168	1
TAP	59	192	0
TAP	59	216	1
TAP	59	264	2
TAP	59	264	3
XTP	59	288	1
XTP	59	288	4
TAP	59	336	0
XTP	60	0	6
XTP	60	0	7
TAP	60	48	4
TAP	60	48	5
TAP	60	96	2
TAP	60	120	3
TAP	60	168	1
TAP	60	192	0
TAP	60	216	1
TAP	60	264	7
TAP	60	288	0
TAP	60	288	6
TAP	60	336	5
TAP	61	0	4
TAP	61	0	5
TAP	61	48	2
TAP	61	48	3
TAP	61	96	1
TAP	61	120	0
TAP	61	168	6
TAP	61	192	7
TAP	61	216	6
TAP	61	264	4
TAP	61	264	5
BRK	61	288	3
BRK	61	288	6
XTP	62	0	0
XTP	62	0	1
TAP	62	48	2
TAP	62	48	3
TAP	62	96	5
TAP	62	120	4
TAP	62	168	6
TAP	62	192	7
TAP	62	216	6
TAP	62	264	1
TAP	62	288	0
TAP	62	288	2
TAP	62	336	3
TAP	63	0	4
TAP	63	0	5
TAP	63	48	6
TAP	63	48	7
TAP	63	96	1
TAP	63	120	0
TAP	63	168	2
TAP	63	192	3
TAP	63	216	2
TAP	63	264	4
TAP	63	264	5
XTP	63	288	3
XTP	63	288	6
TAP	63	336	2
XST	64	0	1
SI_	64	0	1	96	48	4
XTP	64	0	4
TAP	64	72	0
TAP	64	96	1
TAP	64	144	7
XTP	64	192	3
XST	64	192	6
SI_	64	192	6	96	48	3
TAP	64	264	7
TAP	64	288	6
TAP	64	336	0
XST	65	0	1
SI_	65	0	1	96	48	4
XTP	65	0	4
TAP	65	72	0
TAP	65	96	1
TAP	65	144	7
XTP	65	192	0
XTP	65	192	5
XTP	65	240	2
XTP	65	240	3
TTP	65	288	0	C	1	M1
TTP	65	288	2	E	0	M1
TTP	65	288	6	E	0	M1
XTP	66	0	6
XTP	66	0	7
TAP	66	48	0
TAP	66	48	1
TAP	66	96	2
TAP	66	120	3
TAP	66	168	5
TAP	66	192	4
TAP	66	216	5
TAP	66	264	7
TAP	66	288	0
TAP	66	288	6
TAP	66	336	1
TAP	67	0	2
TAP	67	24	2
TAP	67	48	3
TAP	67	72	3
TAP	67	96	4
TAP	67	120	4
TAP	67	144	5
TAP	67	168	5
XTP	67	192	0
XTP	67	204	1
XTP	67	216	2
XTP	67	228	3
XTP	67	240	4
XTP	67	252	5
XTP	67	264	6
XTP	67	276	7
BRK	67	288	0
TTP	67	288	0	C	1	M1
XTP	68	0	0
XTP	68	0	1
TAP	68	48	6
TAP	68	48	7
TAP	68	96	5
TAP	68	120	4
TAP	68	168	2
TAP	68	192	3
TAP	68	216	2
TAP	68	264	0
TAP	68	288	1
TAP	68	288	7
TAP	68	336	6
TAP	69	0	5
TAP	69	24	5
TAP	69	48	4
TAP	69	72	4
TAP	69	96	3
TAP	69	120	3
TAP	69	144	2
TAP	69	168	2
XTP	69	192	7
XTP	69	204	6
XTP	69	216	5
XTP	69	228	4
XTP	69	240	3
XTP	69	252	2
XTP	69	264	1
XTP	69	276	0
TTP	69	288	0	C	1	M1
BRK	69	288	7
XTP	70	0	6
XTP	70	0	7
TAP	70	48	0
TAP	70	48	1
TAP	70	96	2
TAP	70	120	3
TAP	70	168	5
TAP	70	192	4
TAP	70	216	6
TAP	70	264	0
TAP	70	264	7
TAP	70	288	1
TAP	70	288	6
TAP	70	336	2
TAP	71	0	5
TAP	71	24	5
TAP	71	48	7
TAP	71	72	7
TAP	71	96	0
TAP	71	120	0
TAP	71	144	2
TAP	71	168	2
XTP	71	192	4
XTP	71	204	5
XTP	71	216	6
XTP	71	228	7
XTP	71	240	0
XTP	71	252	1
XTP	71	264	2
XTP	71	276	3
TTP	71	288	0	C	1	M1
BRK	71	288	4
XHO	72	0	1	48
XHO	72	0	4	48
XHO	72	96	3	48
XHO	72	96	7	48
XHO	72	192	0	48
XHO	72	192	5	48
XTP	72	288	3
XTP	72	288	4
TTP	73	0	0	C	0	M1
TTP	73	0	0	B	0	M1
TTP	73	0	3	B	0	M1
TTP	73	0	4	B	0	M1
TTP	73	0	5	B	0	M1
TTP	73	0	6	B	0	M1
TTP	73	0	7	B	0	M1
TTP	73	96	0	C	0	M1
TTP	73	96	0	E	0	M1
TTP	73	96	3	B	0	M1
TTP	73	96	4	E	0	M1
TTP	73	96	7	B	0	M1
TTP	73	192	0	B	0	M1
TTP	73	192	0	C	1	M1
TTP	73	192	1	B	0	M1
TTP	73	192	2	B	0	M1
TTP	73	192	5	B	0	M1
TTP	73	192	6	B	0	M1
TTP	73	192	7	B	0	M1
BRK	73	288	0
BRK	73	288	7
XTP	74	0	3
XTP	74	0	4
TTP	74	96	5	B	0	M1
TTP	74	120	0	B	0	M1
TTP	74	144	4	E	0	M1
TTP	74	168	2	E	0	M1
TTP	74	192	6	E	0	M1
TTP	74	216	0	E	0	M1
TTP	74	240	4	B	0	M1
TTP	74	264	1	B	0	M1
TAP	74	288	7
XTP	75	0	4
XTP	75	0	6
TTP	75	96	2	B	0	M1
TTP	75	120	7	B	0	M1
TTP	75	144	4	E	0	M1
TTP	75	168	6	E	0	M1
TTP	75	192	2	E	0	M1
TTP	75	216	0	E	0	M1
TTP	75	240	3	B	0	M1
TTP	75	264	6	B	0	M1
TAP	75	288	0
XTP	76	0	1
XTP	76	0	3
TTP	76	96	6	E	0	M1
TTP	76	120	2	E	0	M1
TTP	76	144	4	E	0	M1
TTP	76	168	0	E	0	M1
TTP	76	192	7	E	0	M1
TTP	76	216	3	E	0	M1
TTP	76	240	5	E	0	M1
TTP	76	264	1	E	0	M1
TTP	76	288	0	C	1	M1
BRK	77	0	1
BRK	77	0	6
TAP	77	96	0
TAP	77	120	7
TAP	77	144	1
TAP	77	168	6
BST	77	192	0
SF_	77	192	0	96	48	4
BRK	77	288	0
BRK	78	0	2
BRK	78	0	6
TTP	78	96	6	B	0	M1
TTP	78	96	7	E	0	M1
TTP	78	120	1	E	0	M1
TTP	78	144	0	E	0	M1
TTP	78	144	7	B	0	M1
TTP	78	168	3	E	0	M1
TTP	78	192	5	B	0	M1
TTP	78	192	5	E	0	M1
TTP	78	216	2	E	0	M1
TTP	78	240	4	E	0	M1
TTP	78	240	4	B	0	M1
TTP	78	264	0	C	0	M1
TAP	78	288	7
XTP	79	0	1
XTP	79	0	5
TTP	79	96	1	E	0	M1
TTP	79	96	1	B	0	M1
TTP	79	120	7	E	0	M1
TTP	79	144	0	E	0	M1
TTP	79	144	0	B	0	M1
TTP	79	168	5	E	0	M1
TTP	79	192	2	B	0	M1
TTP	79	192	3	E	0	M1
TTP	79	216	6	E	0	M1
TTP	79	240	3	B	0	M1
TTP	79	240	4	E	0	M1
TTP	79	264	0	C	0	M1
TAP	79	288	0
XTP	80	0	2
XTP	80	0	6
TTP	80	96	7	B	0	M1
TTP	80	96	7	E	0	M1
TTP	80	120	0	B	0	M1
TTP	80	120	1	E	0	M1
TTP	80	144	4	B	0	M1
TTP	80	168	3	B	0	M1
TTP	80	192	6	B	0	M1
TTP	80	192	6	E	0	M1
TTP	80	216	1	B	0	M1
TTP	80	216	2	E	0	M1
TTP	80	240	5	E	0	M1
TTP	80	264	3	E	0	M1
TTP	80	288	0	C	1	M1
BRK	81	0	2
BRK	81	0	7
TAP	81	96	4
TAP	81	120	3
TAP	81	144	4
XST	81	192	0
SI_	81	192	0	96	48	4
XST	81	192	7
SI_	81	192	7	96	48	3
XTP	81	240	1
XTP	81	240	6
BRK	81	288	0
BRK	81	288	7
BRK	82	0	1
BRK	82	0	6
XTP	82	96	0
XST	82	96	7
SI_	82	96	7	96	24	4
XST	82	192	7
SI_	82	192	7	96	24	2
XST	82	264	7
SF_	82	264	7	96	24	3
TTP	82	336	0	C	1	M1

T_REC_TAP	333
T_REC_BRK	43
T_REC_XTP	149
T_REC_HLD	31
T_REC_XHO	12
T_REC_STR	19
T_REC_BST	3
T_REC_XST	18
T_REC_TTP	211
T_REC_THO	1
T_REC_SLD	40
T_REC_ALL	860
T_NUM_TAP	730
T_NUM_BRK	46
T_NUM_HLD	44
T_NUM_SLD	40
T_NUM_ALL	860
T_JUDGE_TAP	776
T_JUDGE_HLD	101
T_JUDGE_SLD	40
T_JUDGE_ALL	917
TTM_EACHPAIRS	147
TTM_SCR_TAP	365000
TTM_SCR_BRK	119600
TTM_SCR_HLD	44000
TTM_SCR_SLD	60000
TTM_SCR_ALL	588600
TTM_SCR_S	566500
TTM_SCR_SS	584000
TTM_RAT_ACV	10078

