VERSION	0.00.00	1.03.00
FES_MODE	0
BPM_DEF	160.000	160.000	160.000	160.000
MET_DEF	4	4
RESOLUTION	384
CLK_DEF	384
COMPATIBLE_CODE	MA2

BPM	0	0	160.000

TAP	2	0	3
HLD	2	0	5	336
TAP	2	336	4
HLD	3	0	4	288
TAP	3	288	3
TAP	3	336	3
HLD	4	0	3	144
TAP	4	144	2
HLD	4	192	2	192
XTP	4	264	3
XTP	4	336	3
XTP	5	0	3
STR	5	96	1
SI_	5	96	1	96	48	3
XTP	5	192	4
HLD	6	0	5	192
TAP	6	96	4
HLD	6	192	4	192
TAP	6	288	3
HLD	7	0	3	192
TAP	7	96	2
HLD	7	192	2	192
TAP	7	288	1
HLD	8	0	1	192
TAP	8	96	0
HLD	8	192	0	192
TAP	8	288	7
TAP	9	0	6
TAP	9	48	6
HLD	9	96	6	192
TTP	9	192	0	E	0	M1
TTP	9	288	4	E	0	M1
BRK	10	0	1
BRK	10	0	6
TAP	10	96	2
TAP	10	144	2
TAP	10	192	4
TAP	10	240	4
HLD	10	288	1	96
TTP	11	0	2	B	0	M1
TTP	11	0	2	E	0	M1
TAP	11	96	5
TAP	11	144	5
TAP	11	192	3
TAP	11	240	3
HLD	11	288	6	96
TTP	12	0	5	B	0	M1
TTP	12	0	6	E	0	M1
TAP	12	96	2
TAP	12	144	2
TAP	12	192	4
TAP	12	240	4
XHO	12	288	1	384
TTP	13	0	2	E	0	M1
TTP	13	0	2	B	0	M1
TTP	13	192	0	E	0	M1
TTP	13	288	4	E	0	M1
BRK	14	0	1
BRK	14	0	6
TAP	14	96	5
TAP	14	144	5
TAP	14	192	3
TAP	14	240	3
HLD	14	288	7	96
TTP	15	0	5	B	0	M1
TTP	15	0	6	E	0	M1
TAP	15	96	2
TAP	15	144	2
TAP	15	192	4
TAP	15	240	4
HLD	15	288	0	96
TTP	16	0	2	B	0	M1
TTP	16	0	2	E	0	M1
TAP	16	96	5
TAP	16	144	5
TAP	16	192	3
TAP	16	240	3
HLD	16	288	7	96
TTP	17	0	5	B	0	M1
TTP	17	0	6	E	0	M1
TAP	17	192	0
TAP	17	192	7
TAP	17	240	1
TAP	17	240	6
BRK	17	288	2
BRK	17	288	5
TAP	18	0	6
TAP	18	0	7
TAP	18	48	0
TAP	18	96	1
TAP	18	144	2
TAP	18	192	3
STR	18	192	6
SI_	18	192	6	96	48	3
XTP	18	288	2
TAP	19	0	0
TAP	19	0	1
TAP	19	48	7
TAP	19	96	6
TAP	19	144	5
STR	19	192	1
SI_	19	192	1	96	48	4
TAP	19	192	4
XTP	19	288	5
TAP	20	0	6
TAP	20	0	7
TAP	20	48	0
TAP	20	96	1
TAP	20	144	2
TAP	20	192	3
STR	20	192	6
SI_	20	192	6	96	48	3
XTP	20	288	2
TAP	21	0	0
TAP	21	0	1
TAP	21	48	7
STR	21	96	6
SCR	21	96	6	96	96	3
XTP	21	192	0
TAP	22	0	0
TAP	22	0	7
TAP	22	48	1
TAP	22	96	2
TAP	22	144	3
STR	22	192	4
SI_	22	192	4	96	48	1
TAP	22	192	7
XTP	22	288	0
TAP	23	0	0
TAP	23	0	7
TAP	23	48	6
TAP	23	96	5
TAP	23	144	4
TAP	23	192	0
STR	23	192	3
SI_	23	192	3	96	48	6
XTP	23	288	7
XST	24	0	1
SCL	24	0	1	96	192	3
XTP	24	0	5
TTP	25	0	5	E	0	M1
TTP	25	0	5	B	0	M1
TTP	25	0	6	E	0	M1
TTP	25	96	0	B	0	M1
TTP	25	96	0	E	0	M1
TTP	25	96	7	B	0	M1
TTP	25	192	2	B	0	M1
TTP	25	192	2	E	0	M1
TTP	25	192	3	E	0	M1
TTP	25	288	0	C	1	M1
TTP	26	0	0	E	0	M1
TTP	26	0	0	B	0	M1
TTP	26	96	2	E	0	M1
TTP	26	96	2	B	0	M1
TTP	26	192	4	B	0	M1
TTP	26	192	4	E	0	M1
TAP	26	288	6
TAP	26	336	6
TAP	27	48	0
XTP	27	96	0
XTP	27	96	7
TTP	27	192	2	E	0	M1
TTP	27	192	2	B	0	M1
TAP	27	288	5
TAP	27	336	5
XTP	28	0	4
XTP	28	0	5
TTP	28	96	6	B	0	M1
TTP	28	96	6	E	0	M1
TTP	28	192	0	B	0	M1
TTP	28	192	0	E	0	M1
TTP	28	288	2	E	0	M1
TTP	28	288	2	B	0	M1
XTP	29	0	5
XTP	29	72	4
XTP	29	72	5
XTP	29	144	6
XTP	29	216	6
XTP	29	216	7
BRK	29	288	0
BRK	29	288	5
TTP	30	0	0	E	0	M1
TTP	30	0	7	B	0	M1
TTP	30	96	5	B	0	M1
TTP	30	96	6	E	0	M1
TTP	30	192	3	B	0	M1
TTP	30	192	4	E	0	M1
TAP	30	288	1
TAP	30	336	1
XTP	31	0	0
XTP	31	0	1
TTP	31	96	5	B	0	M1
TTP	31	96	6	E	0	M1
TTP	31	192	3	B	0	M1
TTP	31	192	4	E	0	M1
TAP	31	288	1
TAP	31	336	1
XTP	32	0	0
XTP	32	0	1
TAP	32	96	6
TAP	32	144	6
XTP	32	192	6
XTP	32	192	7
TTP	32	288	3	E	0	M1
TTP	32	288	4	E	0	M1
TTP	32	288	5	E	0	M1
THO	33	0	0	192	C	1	M1
TTP	33	0	2	E	0	M1
TTP	33	0	6	E	0	M1
XTP	34	0	0
XTP	34	0	7
TAP	34	96	0
TAP	34	144	0
TAP	34	192	1
TAP	34	192	7
TAP	34	240	1
TAP	34	240	7
TAP	34	288	2
TAP	34	336	2
TAP	35	0	1
TAP	35	0	3
TAP	35	48	1
TAP	35	48	3
TAP	35	96	4
TAP	35	144	4
TAP	35	192	3
TAP	35	192	5
TAP	35	240	3
TAP	35	240	5
BRK	35	288	2
BRK	35	288	6
TAP	36	0	7
TAP	36	48	7
TAP	36	96	0
TAP	36	96	6
TAP	36	144	0
TAP	36	144	6
TAP	36	192	5
TAP	36	240	5
XTP	36	288	4
XTP	36	288	6
BRK	37	0	3
BRK	37	0	7
XTP	37	168	0
XTP	37	168	1
XTP	37	240	2
XTP	37	240	3
XTP	37	288	1
XTP	37	288	4
BRK	37	336	0
BRK	37	336	5
BRK	38	0	0
BRK	38	0	5
TAP	38	96	7
TAP	38	144	7
TAP	38	192	0
TAP	38	192	6
TAP	38	240	0
TAP	38	240	6
TAP	38	288	5
TAP	38	336	5
TAP	39	0	4
TAP	39	0	6
TAP	39	48	4
TAP	39	48	6
TAP	39	96	3
TAP	39	144	3
TAP	39	192	2
TAP	39	192	4
TAP	39	240	2
TAP	39	240	4
BRK	39	288	1
BRK	39	288	5
TAP	40	0	0
TAP	40	48	0
TAP	40	96	1
TAP	40	96	7
TAP	40	144	1
TAP	40	144	7
TAP	40	192	2
TAP	40	240	1
TAP	40	240	3
BRK	40	288	0
BRK	40	288	4
XTP	41	0	6
XTP	41	72	4
XTP	41	72	5
XTP	41	144	0
XTP	41	216	1
XTP	41	216	3
BRK	41	288	2
BRK	41	288	6
TAP	42	0	0
STR	42	0	1
SCR	42	0	1	96	192	4
TTP	42	192	0	C	0	M1
STR	43	0	6
SCL	43	0	6	96	192	3
TTP	43	192	0	C	0	M1
STR	44	0	1
SCR	44	0	1	96	192	4
TTP	44	192	0	C	0	M1
TTP	45	0	0	E	0	M1
TTP	45	96	4	E	0	M1
TTP	45	192	0	C	0	M1
TTP	45	192	1	B	0	M1
TTP	45	192	5	B	0	M1
TAP	46	0	6
STR	46	0	7
SCR	46	0	7	96	192	2
TTP	46	192	0	C	0	M1
STR	47	0	0
SCL	47	0	0	96	192	5
TTP	47	192	0	C	0	M1
STR	48	0	7
SCR	48	0	7	96	192	2
TTP	48	192	0	C	0	M1
TTP	49	0	0	E	0	M1
TTP	49	96	4	E	0	M1
BRK	49	192	1
BRK	49	192	6
TAP	50	0	1
TAP	50	48	2
HLD	50	96	3	192
TAP	50	192	4
TAP	50	240	5
HLD	50	288	6	96
HLD	51	0	5	96
HLD	51	96	4	96
TAP	51	192	3
XTP	51	288	3
XTP	51	288	5
TAP	52	0	6
TAP	52	48	5
HLD	52	96	4	192
TAP	52	192	3
TAP	52	240	2
HLD	52	288	1	96
HLD	53	0	2	96
HLD	53	96	3	96
TAP	53	192	4
XTP	53	288	2
XTP	53	288	4
TAP	54	0	1
TAP	54	48	2
HLD	54	96	3	192
TAP	54	192	4
TAP	54	240	5
HLD	54	288	6	96
HLD	55	0	4	96
HLD	55	96	3	96
TAP	55	192	1
XTP	55	288	0
XTP	55	288	7
TAP	56	0	6
TAP	56	48	6
TAP	56	96	0
TAP	56	144	0
TAP	56	192	7
TAP	56	240	7
XTP	56	288	1
XTP	56	288	6
TTP	57	0	2	E	0	M1
TTP	57	0	2	B	0	M1
TTP	57	0	3	E	0	M1
TTP	57	96	0	B	0	M1
TTP	57	96	0	E	0	M1
TTP	57	96	7	B	0	M1
TTP	57	192	5	B	0	M1
TTP	57	192	5	E	0	M1
TTP	57	192	6	E	0	M1
TTP	57	288	0	C	1	M1
XST	58	0	0
SI_	58	0	0	96	48	4
XTP	58	0	7
STR	58	96	6
SI_	58	96	6	96	48	3
TAP	58	144	6
STR	58	192	2
SI_	58	192	2	96	48	7
TAP	58	240	2
BRK	58	288	5
TAP	59	0	0
TAP	59	0	6
TAP	59	48	7
TAP	59	96	0
TAP	59	144	1
TAP	59	192	2
TAP	59	192	3
TAP	59	240	4
TAP	59	288	2
TAP	59	288	3
TAP	59	336	1
XTP	60	0	0
XST	60	0	7
SI_	60	0	7	96	48	3
STR	60	96	1
SI_	60	96	1	96	48	4
TAP	60	144	1
STR	60	192	5
SI_	60	192	5	96	48	0
TAP	60	240	5
BRK	60	288	2
TAP	61	0	1
TAP	61	0	7
TAP	61	48	0
TAP	61	96	7
TAP	61	144	6
XTP	61	192	4
XTP	61	192	5
XTP	61	240	3
XTP	61	240	6
BRK	61	288	2
BRK	61	288	7
XST	62	0	0
SI_	62	0	0	96	48	4
XTP	62	0	7
STR	62	96	6
SI_	62	96	6	96	48	3
TAP	62	144	6
STR	62	192	2
SI_	62	192	2	96	48	7
TAP	62	240	2
BRK	62	288	5
TAP	63	0	0
TAP	63	0	6
TAP	63	48	7
TAP	63	96	0
TAP	63	144	1
TAP	63	192	2
TAP	63	192	3
TAP	63	240	4
TAP	63	288	2
TAP	63	288	3
TAP	63	336	1
XST	64	0	0
SI_	64	0	0	96	48	4
XST	64	0	7
SI_	64	0	7	96	48	2
XST	64	192	0
SI_	64	192	0	96	48	5
XST	64	192	6
SI_	64	192	6	96	48	2
XST	65	0	0
SI_	65	0	0	96	48	3
XST	65	0	4
SI_	65	0	4	96	48	7
XTP	65	192	2
XTP	65	192	6
XTP	65	240	1
XTP	65	240	5
BRK	65	288	0
BRK	65	288	4
XTP	66	0	0
XST	66	0	7
SI_	66	0	7	96	48	3
STR	66	96	1
SCR	66	96	1	96	48	4
TAP	66	144	1
STR	66	192	5
SV_	66	192	5	96	48	0
TAP	66	240	5
BRK	66	288	2
TAP	67	0	1
TAP	67	0	7
TAP	67	48	0
TAP	67	96	7
TAP	67	144	6
TAP	67	192	4
TAP	67	192	5
TAP	67	240	3
TAP	67	288	2
TAP	67	288	4
TAP	67	336	1
XST	68	0	0
SI_	68	0	0	96	48	4
XTP	68	0	7
STR	68	96	6
SCL	68	96	6	96	48	3
TAP	68	144	6
STR	68	192	2
SV_	68	192	2	96	48	7
TAP	68	240	2
BRK	68	288	5
TAP	69	0	0
TAP	69	0	6
TAP	69	48	7
TAP	69	96	0
TAP	69	144	1
XTP	69	192	2
XTP	69	192	3
XTP	69	240	1
XTP	69	240	4
BRK	69	288	0
BRK	69	288	5
XTP	70	0	0
XST	70	0	7
SI_	70	0	7	96	48	3
STR	70	96	1
SCR	70	96	1	96	48	4
TAP	70	144	1
STR	70	192	5
SV_	70	192	5	96	48	0
TAP	70	240	5
BRK	70	288	2
TAP	71	0	1
TAP	71	0	7
TAP	71	48	0
TAP	71	96	7
TAP	71	144	6
TAP	71	192	4
TAP	71	192	5
TAP	71	240	3
TAP	71	288	2
TAP	71	288	4
TAP	71	336	1
BRK	72	0	0
BRK	72	0	7
BRK	72	96	3
BRK	72	96	4
BRK	72	192	5
BRK	72	192	6
BRK	72	288	1
BRK	72	288	2
TTP	73	0	5	E	0	M1
TTP	73	0	5	B	0	M1
TTP	73	0	6	E	0	M1
TTP	73	96	2	B	0	M1
TTP	73	96	2	E	0	M1
TTP	73	96	3	E	0	M1
TTP	73	192	0	E	0	M1
TTP	73	192	0	B	0	M1
TTP	73	192	7	B	0	M1
TTP	73	288	0	C	1	M1
XTP	74	0	2
XTP	74	0	5
TAP	74	96	2
TAP	74	144	2
TAP	74	192	4
TAP	74	240	4
HLD	74	288	1	96
TTP	75	0	1	B	0	M1
TTP	75	0	2	B	0	M1
TTP	75	0	2	E	0	M1
TAP	75	96	5
TAP	75	144	5
TAP	75	192	3
TAP	75	240	3
HLD	75	288	6	96
TTP	76	0	5	B	0	M1
TTP	76	0	6	B	0	M1
TTP	76	0	6	E	0	M1
TAP	76	96	2
TAP	76	144	2
TAP	76	192	4
TAP	76	240	4
XHO	76	288	1	384
TTP	77	0	0	C	1	M1
TTP	77	0	1	B	0	M1
TTP	77	0	2	B	0	M1
TTP	77	192	0	B	0	M1
TTP	77	192	0	E	0	M1
TTP	77	192	7	B	0	M1
TTP	77	288	3	B	0	M1
TTP	77	288	4	E	0	M1
TTP	77	288	4	B	0	M1
BRK	78	0	1
BRK	78	0	6
TAP	78	96	5
TAP	78	144	5
TAP	78	192	3
TAP	78	240	3
HLD	78	288	7	96
TTP	79	0	5	B	0	M1
TTP	79	0	6	B	0	M1
TTP	79	0	6	E	0	M1
TAP	79	96	2
TAP	79	144	2
TAP	79	192	4
TAP	79	240	4
HLD	79	288	0	96
TTP	80	0	1	B	0	M1
TTP	80	0	2	E	0	M1
TTP	80	0	2	B	0	M1
TAP	80	96	5
TAP	80	144	5
TAP	80	192	3
TAP	80	240	3
HLD	80	288	7	96
TTP	81	0	0	C	1	M1
TTP	81	0	5	B	0	M1
TTP	81	0	6	B	0	M1
TAP	81	192	0
TAP	81	192	7
TAP	81	240	1
TAP	81	240	6
BRK	81	288	2
BRK	81	288	5
BST	82	0	1
SI_	82	0	1	96	48	4
BST	82	0	6
SI_	82	0	6	96	48	3
TTP	82	192	0	E	0	M1
TTP	82	192	0	B	0	M1
TTP	82	192	7	B	0	M1
TTP	82	264	3	B	0	M1
TTP	82	264	4	B	0	M1
TTP	82	264	4	E	0	M1
TTP	82	336	0	C	1	M1
TTP	82	336	2	E	0	M1
TTP	82	336	6	E	0	M1

T_REC_TAP	255
T_REC_BRK	48
T_REC_XTP	71
T_REC_HLD	33
T_REC_XHO	2
T_REC_STR	25
T_REC_BST	2
T_REC_XST	13
T_REC_TTP	121
T_REC_THO	1
T_REC_SLD	40
T_REC_ALL	611
T_NUM_TAP	485
T_NUM_BRK	50
T_NUM_HLD	36
T_NUM_SLD	40
T_NUM_ALL	611
T_JUDGE_TAP	535
T_JUDGE_HLD	118
T_JUDGE_SLD	40
T_JUDGE_ALL	693
TTM_EACHPAIRS	106
TTM_SCR_TAP	242500
TTM_SCR_BRK	130000
TTM_SCR_HLD	36000
TTM_SCR_SLD	60000
TTM_SCR_ALL	468500
TTM_SCR_S	449600
TTM_SCR_SS	463500
TTM_RAT_ACV	10107

