VERSION	0.00.00	1.03.00
FES_MODE	0
BPM_DEF	160.000	160.000	160.000	160.000
MET_DEF	4	4
RESOLUTION	384
CLK_DEF	384
COMPATIBLE_CODE	MA2

BPM	0	0	160.000

XST	2	0	5
SCL	2	0	5	96	192	2
XST	3	0	1
SUR	3	0	1	96	192	6
XST	4	0	7
SSR	4	0	7	96	192	3
TAP	5	0	2
TAP	5	96	2
TAP	5	192	2
TAP	5	192	3
TAP	6	0	5
TAP	6	96	5
TAP	6	192	4
TAP	6	288	4
TAP	7	0	3
TAP	7	96	3
TAP	7	192	3
TAP	7	192	4
TAP	8	0	2
TAP	8	96	2
TAP	8	192	3
TAP	8	288	3
HLD	9	0	3	96
HLD	9	0	4	96
XTP	9	192	3
XTP	9	192	4
XTP	9	288	2
XTP	9	288	5
BRK	10	0	1
BRK	10	0	6
TAP	10	96	1
TAP	10	192	2
TAP	10	288	3
TAP	11	0	4
TAP	11	96	4
TAP	11	192	3
TAP	11	192	5
TAP	12	0	6
TAP	12	96	5
TAP	12	192	4
TAP	12	288	3
XTP	13	0	2
XTP	13	0	4
XTP	13	192	4
XTP	13	192	5
XTP	13	288	3
XTP	13	288	6
BRK	14	0	2
BRK	14	0	7
TAP	14	96	0
TAP	14	192	1
TAP	14	288	2
TAP	15	0	3
TAP	15	0	4
TAP	15	96	3
TAP	15	96	4
TAP	15	192	2
TAP	15	192	5
TAP	16	0	0
TAP	16	0	7
TAP	16	96	6
TAP	16	192	5
TAP	16	288	4
XTP	17	0	2
XTP	17	0	3
XTP	17	192	4
XTP	17	240	4
XTP	17	288	3
HLD	18	0	2	96
TAP	18	96	3
HLD	18	192	4	96
TAP	18	288	3
HLD	19	0	2	96
TAP	19	96	3
TAP	19	192	1
TAP	19	192	4
HLD	20	0	5	96
TAP	20	96	4
HLD	20	192	3	96
TAP	20	288	4
HLD	21	0	5	96
TAP	21	96	4
XTP	21	192	3
XTP	21	192	6
HLD	22	0	6	96
TAP	22	96	7
HLD	22	192	1	96
TAP	22	288	0
HLD	23	0	6	96
TAP	23	96	7
TAP	23	192	0
TAP	23	192	7
TAP	23	288	1
TAP	23	288	6
STR	24	0	2
SI_	24	0	2	96	192	5
XTP	25	0	6
XTP	25	96	0
XTP	25	96	7
BRK	25	192	1
BRK	25	192	6
TTP	26	0	3	E	0	L1
TTP	26	192	4	E	0	L1
TTP	27	0	5	E	0	L1
TTP	27	192	6	E	0	L1
TTP	28	0	1	E	0	L1
TTP	28	0	7	E	0	L1
TTP	28	192	1	B	0	L1
TTP	28	192	6	B	0	L1
THO	29	0	0	192	C	0	L1
TTP	30	0	6	E	0	L1
TTP	30	192	5	B	0	L1
TTP	31	0	4	B	0	L1
TTP	31	192	4	E	0	L1
TTP	32	0	3	E	0	L1
TTP	32	0	5	E	0	L1
TTP	32	192	2	B	0	L1
TTP	32	192	5	B	0	L1
THO	33	0	0	192	C	1	L1
XTP	34	0	7
TAP	34	96	7
TAP	34	192	0
TAP	34	192	6
TAP	35	0	5
TAP	35	96	5
TAP	35	192	4
TAP	35	192	6
TAP	36	0	3
TAP	36	96	3
TAP	36	192	2
TAP	36	192	4
XST	37	0	4
SLL	37	0	4	96	192	7
XTP	38	0	0
TAP	38	96	0
TAP	38	192	1
TAP	38	192	7
TAP	39	0	2
TAP	39	96	2
TAP	39	192	1
TAP	39	192	3
TAP	40	0	0
TAP	40	96	0
TAP	40	192	7
BST	40	288	7
SCL	40	288	7	96	240	4
HLD	42	0	3	192
TAP	42	192	4
HLD	43	0	4	192
TAP	43	192	3
HLD	44	0	2	192
TAP	44	192	3
HLD	45	0	5	192
TAP	45	192	4
HLD	46	0	2	192
TAP	46	0	3
TAP	46	192	3
TAP	47	0	3
HLD	47	0	4	192
TAP	47	192	3
HLD	48	0	4	192
TAP	48	0	5
TAP	48	192	5
HLD	49	0	6	192
HLD	49	0	7	192
TAP	50	0	0
TAP	50	96	0
TAP	50	192	1
TAP	50	288	1
TAP	51	0	2
TAP	51	96	2
TAP	51	192	3
TAP	51	192	4
TAP	52	0	4
TAP	52	96	4
TAP	52	192	5
TAP	52	288	5
TAP	53	0	6
TAP	53	96	6
TAP	53	192	0
TAP	53	192	7
TAP	54	0	1
TAP	54	96	1
TAP	54	192	2
TAP	54	288	3
TAP	54	288	4
TAP	55	0	5
TAP	55	96	5
TAP	55	192	6
TAP	55	192	7
TAP	56	0	5
TAP	56	96	4
TAP	56	192	3
TAP	56	288	2
XTP	57	0	2
XTP	57	0	3
XTP	57	96	4
XTP	57	96	5
BRK	57	192	1
BRK	57	192	6
XTP	58	0	2
XTP	58	0	3
TAP	58	96	1
TAP	58	192	2
TAP	58	192	3
TAP	58	288	1
TAP	59	0	4
TAP	59	0	5
TAP	59	96	6
TAP	59	192	4
TAP	59	192	5
TAP	59	288	6
TAP	60	0	2
TAP	60	0	3
TAP	60	96	1
TAP	60	192	4
TAP	60	192	5
TAP	60	288	6
TAP	61	0	3
TAP	61	0	4
TAP	61	96	2
TAP	61	96	5
XTP	61	192	1
XTP	61	192	6
XTP	62	0	3
XTP	62	0	5
TAP	62	96	6
TAP	62	192	3
TAP	62	192	5
TAP	62	288	7
TAP	63	0	2
TAP	63	0	4
TAP	63	96	1
TAP	63	192	2
TAP	63	192	4
TAP	63	288	0
XHO	64	0	1	96
XHO	64	0	3	96
XHO	64	192	3	96
XHO	64	192	4	96
XHO	65	0	4	96
XHO	65	0	6	96
BRK	65	192	0
BRK	65	192	7
XTP	66	0	4
XTP	66	0	5
TAP	66	96	1
TAP	66	96	6
TAP	66	192	2
TAP	66	192	3
TAP	66	288	1
TAP	66	288	6
XTP	67	0	4
XTP	67	0	5
TAP	67	96	3
TAP	67	96	4
TAP	67	192	2
TAP	67	192	3
TAP	67	288	1
TAP	67	288	4
XTP	68	0	6
XTP	68	0	7
TAP	68	96	2
TAP	68	96	5
TAP	68	192	0
TAP	68	192	1
TAP	68	288	2
TAP	68	288	5
TAP	69	0	6
TAP	69	0	7
TAP	69	96	0
TAP	69	96	5
XTP	69	192	1
XTP	69	192	4
XTP	70	0	4
XTP	70	0	5
TAP	70	96	1
TAP	70	96	6
TAP	70	192	2
TAP	70	192	3
TAP	70	288	1
TAP	70	288	6
XTP	71	0	4
XTP	71	0	5
TAP	71	96	0
TAP	71	96	7
TAP	71	192	2
TAP	71	192	3
TAP	71	288	0
TAP	71	288	7
XTP	72	0	4
XTP	72	0	5
TAP	72	96	6
XTP	72	192	0
XTP	72	192	7
TAP	72	288	1
XTP	73	0	2
XTP	73	0	3
XTP	73	96	4
XTP	73	96	5
BRK	73	192	3
BRK	73	192	6
TAP	74	0	5
TAP	74	96	4
TAP	74	192	2
TAP	74	192	3
TAP	74	288	2
TAP	74	288	3
TAP	75	0	4
TAP	75	96	5
TAP	75	192	3
TAP	75	192	6
TAP	76	0	1
TAP	76	96	0
TAP	76	192	6
TAP	76	192	7
TAP	76	288	6
TAP	76	288	7
BRK	77	0	0
BRK	77	0	5
BRK	77	192	3
BRK	77	192	4
BRK	77	288	2
BRK	77	288	5
BRK	78	0	0
BRK	78	0	7
TAP	78	96	1
TAP	78	192	2
TAP	78	192	3
TAP	78	288	2
TAP	78	288	3
TAP	79	0	4
TAP	79	96	5
TAP	79	192	6
TAP	79	192	7
TAP	80	0	2
TAP	80	96	0
TAP	80	96	1
TAP	80	192	5
TAP	80	288	6
TAP	80	288	7
BRK	81	0	0
BRK	81	0	5
XTP	81	192	3
XTP	81	192	4
XTP	81	240	3
XTP	81	240	4
BRK	81	288	3
BRK	81	288	4
XTP	82	0	2
XTP	82	0	5
XTP	82	96	1
XTP	82	96	6
XST	82	192	0
SI_	82	192	0	96	96	4
XST	82	192	7
SI_	82	192	7	96	96	3

T_REC_TAP	213
T_REC_BRK	24
T_REC_XTP	60
T_REC_HLD	20
T_REC_XHO	6
T_REC_STR	1
T_REC_BST	1
T_REC_XST	6
T_REC_TTP	16
T_REC_THO	2
T_REC_SLD	8
T_REC_ALL	357
T_NUM_TAP	296
T_NUM_BRK	25
T_NUM_HLD	28
T_NUM_SLD	8
T_NUM_ALL	357
T_JUDGE_TAP	321
T_JUDGE_HLD	78
T_JUDGE_SLD	8
T_JUDGE_ALL	407
TTM_EACHPAIRS	104
TTM_SCR_TAP	148000
TTM_SCR_BRK	65000
TTM_SCR_HLD	28000
TTM_SCR_SLD	12000
TTM_SCR_ALL	253000
TTM_SCR_S	243000
TTM_SCR_SS	250500
TTM_RAT_ACV	10099

