VERSION	0.00.00	1.03.00
FES_MODE	0
BPM_DEF	160.000	160.000	160.000	160.000
MET_DEF	4	4
RESOLUTION	384
CLK_DEF	384
COMPATIBLE_CODE	MA2

BPM	0	0	160.000

TAP	2	0	3
TAP	3	0	3
TAP	4	0	4
TAP	5	0	3
TAP	5	0	4
TTP	6	0	3	B	0	L1
TTP	6	0	4	B	0	L1
TTP	7	0	2	B	0	L1
TTP	7	0	5	B	0	L1
THO	8	0	0	384	C	1	L1
TAP	10	0	0
TAP	11	0	1
TAP	12	0	2
XTP	13	0	3
XTP	13	0	4
XTP	13	192	3
XTP	13	192	4
XTP	14	0	3
XTP	14	0	4
TAP	15	0	5
TAP	16	0	6
XTP	17	0	0
XTP	17	0	7
BRK	17	192	0
BRK	17	192	7
TAP	18	0	0
TAP	18	96	0
TAP	18	192	0
TAP	19	0	1
TAP	19	96	1
TAP	19	192	1
TAP	20	0	2
TAP	20	96	2
TAP	20	192	2
TAP	21	0	3
TAP	21	96	4
TAP	21	192	3
TAP	22	0	4
TAP	22	96	4
TAP	22	192	4
TAP	23	0	5
TAP	23	96	5
TAP	23	192	5
HLD	24	0	6	192
XTP	25	0	7
XTP	25	96	0
XTP	25	192	7
STR	26	0	7
SI_	26	0	7	96	288	3
TAP	28	0	2
TAP	28	192	2
HLD	29	0	0	192
HLD	29	0	1	192
STR	30	0	0
SI_	30	0	0	96	288	4
TAP	32	0	5
TAP	32	192	5
XTP	33	0	4
XTP	33	0	5
TTP	34	0	6	B	0	L1
TTP	35	0	5	B	0	L1
TTP	36	0	4	B	0	L1
TTP	37	0	3	B	0	L1
TTP	38	0	2	B	0	L1
TTP	39	0	1	B	0	L1
THO	40	0	0	384	C	1	L1
HLD	42	0	0	384
HLD	42	0	1	384
HLD	44	0	2	384
HLD	44	0	3	384
HLD	46	0	4	384
HLD	46	0	5	384
HLD	48	0	6	384
HLD	48	0	7	384
TAP	50	0	7
TAP	50	192	7
TAP	51	0	6
TAP	51	192	6
TAP	52	0	5
TAP	52	192	5
TAP	53	0	3
TAP	53	0	4
THO	54	0	0	1152	C	1	L1
TAP	58	0	0
TAP	58	96	0
TAP	58	192	1
TAP	58	288	1
TAP	59	0	2
TAP	59	96	2
TAP	59	192	3
TAP	59	192	4
TAP	60	0	4
TAP	60	96	4
TAP	60	192	5
TAP	60	288	5
TAP	61	0	6
TAP	61	96	6
TAP	61	192	0
TAP	61	192	7
TAP	62	0	7
TAP	62	96	7
TAP	62	192	6
TAP	62	288	6
TAP	63	0	5
TAP	63	96	5
TAP	63	192	3
TAP	63	192	4
XTP	64	0	2
XTP	64	0	3
XTP	64	192	4
XTP	64	192	5
XTP	65	0	2
XTP	65	0	3
XTP	65	192	1
BRK	65	288	1
TAP	66	0	0
TAP	66	96	0
TAP	66	192	7
TAP	66	288	7
TAP	67	0	6
TAP	67	96	6
TAP	67	192	5
TAP	67	288	5
TAP	68	0	4
TAP	68	96	4
TAP	68	192	3
TAP	68	288	3
TAP	69	0	2
TAP	69	96	2
TAP	69	192	2
TAP	69	192	3
TAP	70	0	4
TAP	70	96	4
TAP	70	192	5
TAP	70	288	5
TAP	71	0	6
TAP	71	96	6
TAP	71	192	7
TAP	71	288	7
TAP	72	0	0
TAP	72	0	6
TAP	72	96	0
TAP	72	96	6
TAP	72	192	0
TAP	72	192	6
XTP	73	0	1
XTP	73	0	7
XTP	73	96	1
XTP	73	96	7
BRK	73	192	1
BRK	73	192	7
TTP	74	0	1	B	0	L1
TTP	75	0	2	B	0	L1
TTP	76	0	3	B	0	L1
HLD	77	0	3	192
HLD	77	0	4	192
TTP	78	0	5	B	0	L1
TTP	79	0	6	B	0	L1
TTP	80	0	7	B	0	L1
XTP	81	0	0
XTP	81	0	7
XTP	81	192	0
XTP	81	192	7
THO	82	0	0	336	C	1	L1

T_REC_TAP	94
T_REC_BRK	5
T_REC_XTP	28
T_REC_HLD	13
T_REC_XHO	0
T_REC_STR	2
T_REC_BST	0
T_REC_XST	0
T_REC_TTP	16
T_REC_THO	4
T_REC_SLD	2
T_REC_ALL	164
T_NUM_TAP	140
T_NUM_BRK	5
T_NUM_HLD	17
T_NUM_SLD	2
T_NUM_ALL	164
T_JUDGE_TAP	145
T_JUDGE_HLD	131
T_JUDGE_SLD	2
T_JUDGE_ALL	278
TTM_EACHPAIRS	29
TTM_SCR_TAP	70000
TTM_SCR_BRK	13000
TTM_SCR_HLD	17000
TTM_SCR_SLD	3000
TTM_SCR_ALL	103000
TTM_SCR_S	99450
TTM_SCR_SS	102500
TTM_RAT_ACV	10048

