VERSION	0.00.00	1.03.00
FES_MODE	0
BPM_DEF	145.000	145.000	145.000	145.000
MET_DEF	4	4
RESOLUTION	384
CLK_DEF	384
COMPATIBLE_CODE	MA2

BPM	0	0	145.000
MET	0	0	4	4

STR	2	0	3
SI_	2	0	3	96	480	7
STR	4	0	4
SI_	4	0	4	96	480	0
HLD	6	0	3	1056
HLD	7	0	4	768
TAP	9	0	3
TAP	9	96	4
TTP	9	192	0	C	1	M1
TTP	9	192	1	B	0	M1
TTP	9	192	6	B	0	M1
TAP	10	0	5
TAP	10	24	4
TAP	10	72	4
TAP	10	96	5
TAP	10	144	7
TAP	10	168	0
TAP	10	216	2
TAP	10	240	3
XTP	10	288	1
XTP	10	288	4
TAP	11	0	2
TAP	11	24	3
TAP	11	72	3
TAP	11	96	2
TAP	11	144	0
TAP	11	168	7
TAP	11	216	5
TAP	11	240	4
TAP	11	288	3
TAP	11	288	4
TAP	12	0	2
TAP	12	24	3
TAP	12	72	3
TAP	12	96	2
TAP	12	144	0
TAP	12	168	7
TAP	12	216	5
TAP	12	240	4
XTP	12	288	3
XTP	12	288	6
TAP	13	0	5
TAP	13	24	4
TAP	13	72	4
TAP	13	96	5
TAP	13	144	7
TAP	13	168	0
TAP	13	216	2
TAP	13	240	3
TAP	13	288	3
TAP	13	288	4
TAP	14	0	5
TAP	14	24	4
TAP	14	72	7
TAP	14	96	0
TAP	14	144	2
TAP	14	168	3
TAP	14	216	3
TAP	14	240	1
XTP	14	288	0
XTP	14	288	4
TAP	15	0	2
TAP	15	24	3
TAP	15	72	0
TAP	15	96	7
TAP	15	144	5
TAP	15	168	4
TAP	15	216	4
TAP	15	240	6
TAP	15	288	3
TAP	15	288	5
TAP	16	0	2
TAP	16	24	3
TAP	16	72	0
TAP	16	96	7
TAP	16	144	5
TAP	16	168	4
TAP	16	216	4
TAP	16	240	6
XTP	16	288	3
XTP	16	288	7
TAP	17	0	5
TAP	17	24	4
TAP	17	72	7
TAP	17	96	0
TAP	17	144	2
TAP	17	168	3
TAP	17	216	3
TAP	17	240	1
TAP	17	288	2
TAP	17	288	4
STR	18	0	6
SCL	18	0	6	96	48	3
TAP	18	48	6
TAP	18	96	0
STR	18	192	1
SCR	18	192	1	96	48	4
TAP	18	240	1
TAP	18	288	7
TAP	18	336	7
TAP	19	0	0
TAP	19	48	0
TAP	19	96	6
TTP	19	192	0	E	0	M1
TTP	19	240	0	C	0	M1
TTP	19	288	4	E	0	M1
STR	20	0	7
SCL	20	0	7	96	48	4
TAP	20	48	7
TAP	20	96	2
TAP	20	144	1
STR	20	192	0
SCR	20	192	0	96	48	3
TAP	20	240	0
TAP	20	288	5
TAP	20	336	6
STR	21	0	7
SF_	21	0	7	96	96	3
TAP	21	288	2
TAP	21	288	4
TAP	22	0	4
TAP	22	48	5
STR	22	96	6
SI_	22	96	6	96	48	2
TAP	22	144	6
STR	22	192	3
SI_	22	192	3	96	48	0
TAP	22	240	3
TAP	22	288	7
TAP	22	336	6
HLD	23	0	5	96
TAP	23	96	4
TAP	23	144	3
TAP	23	144	6
TAP	23	240	0
STR	23	288	0
SCR	23	288	0	96	192	7
TAP	23	336	7
TAP	24	0	7
TAP	24	288	3
TAP	24	288	4
TAP	25	0	2
TAP	25	0	4
TAP	25	96	3
TAP	25	96	5
TAP	25	144	6
TAP	25	192	6
STR	25	288	0
SUR	25	288	0	96	192	2
TTP	26	0	0	C	1	M1
XTP	26	192	7
TAP	26	288	0
TAP	26	288	7
TAP	26	336	6
HLD	27	0	6	96
HLD	27	96	4	96
HLD	27	192	3	96
TAP	27	288	2
STR	28	0	1
SI_	28	0	1	96	48	3
TAP	28	48	1
STR	28	96	5
SI_	28	96	5	96	48	7
TAP	28	144	5
TAP	28	192	0
TAP	28	240	0
TAP	28	288	0
TAP	28	288	7
TTP	29	0	5	B	0	M1
TTP	29	0	5	E	0	M1
TTP	29	0	6	B	0	M1
TTP	29	96	1	B	0	M1
TTP	29	96	2	B	0	M1
TTP	29	96	3	E	0	M1
TTP	29	192	0	E	0	M1
TTP	29	192	0	C	1	M1
TTP	29	192	4	E	0	M1
STR	30	0	0
SCR	30	0	0	96	96	5
TAP	30	192	7
TAP	30	288	0
TAP	30	288	7
TAP	30	336	1
HLD	31	0	1	96
HLD	31	96	3	96
HLD	31	192	4	96
TAP	31	288	5
TAP	32	0	7
TAP	32	48	6
TAP	32	96	5
TAP	32	144	4
TAP	32	192	3
TAP	32	240	2
TAP	32	288	1
TAP	32	336	0
TAP	33	0	0
TAP	33	0	7
TTP	33	192	0	C	0	M1
STR	34	0	0
SI_	34	0	0	96	48	4
STR	34	0	1
SI_	34	0	1	96	48	3
XTP	34	96	0
XTP	34	96	1
STR	34	192	6
SI_	34	192	6	96	48	4
STR	34	192	7
SI_	34	192	7	96	48	3
XTP	34	288	6
XTP	34	288	7
TAP	35	0	2
TAP	35	48	3
STR	35	96	4
SCR	35	96	4	96	96	2
SV_	35	96	4	96	96	2
TAP	35	144	5
TAP	36	0	1
TAP	36	0	3
TAP	36	48	4
STR	36	96	3
SI_	36	96	3	96	48	0
STR	36	96	5
SI_	36	96	5	96	48	2
TAP	36	288	0
TAP	36	288	7
TAP	37	0	5
TAP	37	0	6
TTP	37	96	5	B	0	M1
TTP	37	96	6	B	0	M1
TTP	37	96	7	E	0	M1
TTP	37	192	0	E	0	M1
TTP	37	192	0	C	0	M1
TTP	37	192	4	E	0	M1
TTP	37	288	1	B	0	M1
TTP	37	288	1	E	0	M1
TTP	37	288	2	B	0	M1
BRK	38	0	7
TAP	38	96	4
TAP	38	144	3
TAP	38	192	2
TAP	38	192	4
TAP	38	288	7
TAP	38	336	0
STR	39	0	1
SI_	39	0	1	96	48	5
TAP	39	0	7
STR	39	96	6
SI_	39	96	6	96	48	2
TAP	39	192	3
TAP	39	288	2
TAP	39	288	4
TAP	40	0	3
TAP	40	0	5
TAP	40	48	6
TAP	40	96	7
TAP	40	144	3
TAP	40	192	2
TAP	40	192	4
TAP	40	240	1
TAP	40	288	0
TAP	40	336	4
STR	41	0	3
SLL	41	0	3	96	96	5
TAP	41	0	5
STR	41	96	5
SCR	41	96	5	96	96	3
TAP	41	192	4
TAP	41	288	4
STR	42	0	6
SI_	42	0	6	96	48	4
STR	42	0	7
SI_	42	0	7	96	48	3
XTP	42	96	6
XTP	42	96	7
STR	42	192	0
SI_	42	192	0	96	48	4
STR	42	192	1
SI_	42	192	1	96	48	3
XTP	42	288	0
XTP	42	288	1
TAP	43	0	5
TAP	43	48	4
STR	43	96	3
SCL	43	96	3	96	96	5
SV_	43	96	3	96	96	5
TAP	43	144	2
TAP	44	0	4
TAP	44	0	6
TAP	44	48	3
STR	44	96	3
SI_	44	96	3	96	48	0
STR	44	96	5
SI_	44	96	5	96	48	2
TAP	44	288	0
TAP	44	288	7
TAP	45	0	5
TAP	45	0	6
TTP	45	96	5	B	0	M1
TTP	45	96	6	B	0	M1
TTP	45	96	7	E	0	M1
TTP	45	192	0	E	0	M1
TTP	45	192	0	C	0	M1
TTP	45	192	4	E	0	M1
TTP	45	288	1	E	0	M1
TTP	45	288	1	B	0	M1
TTP	45	288	2	B	0	M1
BRK	46	0	7
TAP	46	96	1
TAP	46	144	2
TAP	46	192	1
TAP	46	192	3
TAP	46	288	6
TAP	46	336	5
STR	47	0	4
SI_	47	0	4	96	48	0
TAP	47	0	6
STR	47	96	3
SI_	47	96	3	96	48	7
TAP	47	192	0
TAP	47	288	3
TAP	47	288	5
TAP	48	0	2
TAP	48	0	4
TAP	48	48	1
TAP	48	96	0
TAP	48	144	4
TAP	48	192	3
TAP	48	192	5
TAP	48	240	6
STR	48	288	7
SCL	48	288	7	96	48	4
SCR	48	288	7	96	48	2
TAP	48	336	7
BRK	49	96	0
XTP	49	192	1
XTP	49	192	6
XTP	49	224	1
XTP	49	224	6
XTP	49	256	1
XTP	49	256	6
XTP	49	288	1
XTP	49	288	6
STR	50	0	4
SCR	50	0	4	96	480	7
TTP	50	192	0	E	0	M1
TTP	51	0	0	C	0	M1
TTP	51	192	2	E	0	M1
TTP	51	288	1	E	0	M1
STR	52	0	3
SCL	52	0	3	96	480	0
TTP	52	192	0	E	0	M1
TTP	53	0	0	C	0	M1
TTP	53	192	6	E	0	M1
TTP	53	288	7	E	0	M1
TAP	54	0	6
TAP	54	96	4
TAP	54	96	6
TAP	54	192	6
TAP	54	288	4
TAP	54	288	6
TAP	55	0	6
TTP	55	0	6	E	0	M1
TTP	55	96	0	C	0	M1
TAP	55	96	6
TTP	55	192	2	E	0	M1
TAP	55	192	6
TTP	55	288	0	E	0	M1
TAP	55	288	6
THO	56	0	0	192	C	0	M1
TAP	56	0	6
TAP	56	96	6
TAP	56	192	6
TAP	56	288	6
TTP	57	0	0	E	0	M1
TAP	57	0	6
TTP	57	96	0	C	0	M1
TAP	57	96	6
TTP	57	192	4	E	0	M1
TAP	57	192	6
TAP	57	288	6
TAP	58	0	1
TAP	58	96	1
TAP	58	96	3
TAP	58	192	1
TAP	58	288	1
TAP	58	288	3
TAP	59	0	1
TTP	59	0	2	E	0	M1
TTP	59	96	0	C	0	M1
TAP	59	96	1
TAP	59	192	1
TTP	59	192	6	E	0	M1
TTP	59	288	0	E	0	M1
TAP	59	288	1
THO	60	0	0	192	C	0	M1
TAP	60	0	1
TAP	60	96	1
TAP	60	192	1
TAP	60	288	1
TTP	61	0	0	E	0	M1
TAP	61	0	1
TTP	61	96	0	C	0	M1
TAP	61	96	1
TAP	61	192	1
TTP	61	192	4	E	0	M1
TAP	61	288	1
TAP	62	0	6
TAP	62	96	6
TAP	62	192	4
TAP	62	192	5
TAP	62	288	5
TAP	63	0	1
TAP	63	96	1
TAP	63	192	2
TAP	63	192	3
TAP	63	288	4
HLD	64	0	3	384
HLD	64	0	4	192
TTP	65	192	5	E	0	M1
TTP	65	240	4	E	0	M1
TTP	65	288	3	E	0	M1
BRK	66	0	7
TAP	68	288	2
TAP	68	288	5
STR	69	0	1
SI_	69	0	1	96	48	4
STR	69	0	6
SI_	69	0	6	96	48	3
XTP	69	96	1
XTP	69	96	6
STR	69	192	0
SI_	69	192	0	96	48	4
STR	69	192	7
SI_	69	192	7	96	48	3
XTP	69	288	0
XTP	69	288	7
XTP	70	0	1
XTP	70	0	6
TAP	70	96	4
TAP	70	144	2
TAP	70	192	1
TAP	70	192	3
TAP	70	288	3
TAP	70	336	5
TAP	71	0	4
STR	71	0	6
SI_	71	0	6	96	48	2
STR	71	96	1
SI_	71	96	1	96	48	5
TAP	71	192	4
TAP	71	288	7
TAP	72	0	3
TAP	72	0	4
TTP	72	96	4	E	0	M1
TTP	72	192	3	E	0	M1
TTP	72	192	5	E	0	M1
TTP	72	288	0	C	0	M1
TTP	72	288	2	E	0	M1
TTP	72	288	6	E	0	M1
TTP	73	0	0	B	0	M1
TTP	73	0	1	E	0	M1
TTP	73	0	7	B	0	M1
TTP	73	0	7	E	0	M1
STR	73	96	3
SI_	73	96	3	96	48	7
STR	73	96	4
SI_	73	96	4	96	48	0
BRK	73	288	1
BRK	73	288	6
STR	74	0	0
SI_	74	0	0	96	48	4
STR	74	0	1
SI_	74	0	1	96	48	3
XTP	74	96	0
XTP	74	96	1
STR	74	192	6
SI_	74	192	6	96	48	4
STR	74	192	7
SI_	74	192	7	96	48	3
XTP	74	288	6
XTP	74	288	7
STR	75	0	0
SI_	75	0	0	96	48	4
STR	75	0	1
SI_	75	0	1	96	48	3
XTP	75	96	0
XTP	75	96	1
STR	75	192	7
SCL	75	192	7	96	768	0
XTP	75	288	0
TTP	76	0	1	E	0	M1
TTP	76	96	0	E	0	M1
TTP	76	192	7	E	0	M1
TTP	76	288	6	E	0	M1
TTP	77	0	5	E	0	M1
TTP	77	96	4	E	0	M1
TTP	77	192	3	E	0	M1
TTP	77	288	2	E	0	M1
STR	78	0	1
SI_	78	0	1	96	48	4
TAP	78	96	7
TAP	78	144	7
STR	78	192	6
SI_	78	192	6	96	48	3
TAP	78	288	0
TAP	78	336	0
STR	79	0	1
SI_	79	0	1	96	48	5
TAP	79	48	1
STR	79	96	4
SCR	79	96	4	96	96	3
TAP	79	144	4
TAP	79	192	3
STR	80	0	5
SCL	80	0	5	96	48	2
TAP	80	48	5
TTP	80	192	2	B	0	M1
TTP	80	192	3	B	0	M1
TTP	80	192	4	B	0	M1
TTP	80	192	5	B	0	M1
TAP	80	288	1
TAP	80	288	6
HLD	81	0	0	96
HLD	81	0	7	192

T_REC_TAP	266
T_REC_BRK	6
T_REC_XTP	38
T_REC_HLD	13
T_REC_XHO	0
T_REC_STR	57
T_REC_BST	0
T_REC_XST	0
T_REC_TTP	82
T_REC_THO	2
T_REC_SLD	60
T_REC_ALL	524
T_NUM_TAP	443
T_NUM_BRK	6
T_NUM_HLD	15
T_NUM_SLD	60
T_NUM_ALL	524
T_JUDGE_TAP	449
T_JUDGE_HLD	78
T_JUDGE_SLD	60
T_JUDGE_ALL	587
TTM_EACHPAIRS	74
TTM_SCR_TAP	221500
TTM_SCR_BRK	15600
TTM_SCR_HLD	15000
TTM_SCR_SLD	90000
TTM_SCR_ALL	342100
TTM_SCR_S	331300
TTM_SCR_SS	341500
TTM_RAT_ACV	10017

