VERSION	0.00.00	1.02.00
FES_MODE	0
BPM_DEF	145.000	145.000	145.000	145.000
MET_DEF	4	4
RESOLUTION	384
CLK_DEF	0
COMPATIBLE_CODE	MA2

BPM	0	0	145.000
MET	0	0	4	4
CLK	0	0
CLK	0	96
CLK	0	192
CLK	0	288

HLD	2	0	4	384
HLD	3	0	3	384
HLD	4	0	5	384
HLD	5	0	4	384
HLD	6	0	3	384
HLD	7	0	2	672
HLD	8	0	5	288
TAP	9	0	3
TAP	9	0	4
TAP	9	96	3
TAP	9	96	4
TTP	9	192	0	C	0
TAP	10	0	5
TAP	10	96	4
TAP	10	96	6
TAP	10	192	6
TAP	10	192	7
TAP	10	288	1
TAP	10	288	4
TAP	11	0	2
TAP	11	96	1
TAP	11	96	3
TAP	11	192	0
TAP	11	192	1
TAP	11	288	3
TAP	11	288	6
TAP	12	0	5
TAP	12	96	4
TAP	12	96	6
TAP	12	192	6
TAP	12	192	7
TAP	12	288	1
TAP	12	288	4
TAP	13	0	2
TAP	13	96	1
TAP	13	96	3
TAP	13	192	0
TAP	13	192	1
TAP	13	288	3
TAP	13	288	4
HLD	14	0	6	96
TAP	14	96	4
TAP	14	192	6
TAP	14	192	7
TAP	14	288	0
TAP	14	288	4
HLD	15	0	1	96
TAP	15	96	3
TAP	15	192	0
TAP	15	192	1
TAP	15	288	3
TAP	15	288	7
HLD	16	0	6	96
TAP	16	96	4
TAP	16	192	6
TAP	16	192	7
TAP	16	288	0
TAP	16	288	4
HLD	17	0	1	96
TAP	17	96	3
TAP	17	192	0
TAP	17	192	1
BRK	17	288	1
BRK	17	288	6
HLD	18	0	5	96
TAP	18	96	4
HLD	18	192	2	96
TAP	18	288	3
TAP	19	0	5
TAP	19	96	4
TAP	19	96	6
TTP	19	192	7	B	0
TTP	19	288	0	B	0
HLD	20	0	2	96
TAP	20	96	3
HLD	20	192	5	96
TAP	20	288	4
TAP	21	0	0
TAP	21	0	7
STR	21	96	0
SI_	21	96	0	96	48	3
STR	21	96	7
SI_	21	96	7	96	48	4
TAP	21	288	2
TAP	21	288	5
TAP	22	0	1
TAP	22	48	1
TAP	22	96	0
TAP	22	192	2
TAP	22	192	7
TAP	22	288	4
TAP	22	288	5
STR	23	0	6
SCL	23	0	6	96	96	3
STR	23	0	7
SCR	23	0	7	96	96	2
TAP	23	288	1
TAP	23	288	4
HLD	24	0	5	96
TAP	24	96	4
HLD	24	192	2	96
TAP	24	288	3
TTP	25	0	0	B	0
TTP	25	96	7	B	0
TAP	25	192	0
TAP	25	192	7
TAP	25	288	3
TAP	25	288	4
TTP	26	0	0	C	0
TAP	26	192	1
TAP	26	192	6
TAP	26	288	3
TAP	26	288	4
TAP	27	0	4
HLD	27	0	6	96
TAP	27	96	2
HLD	27	192	1	96
TAP	27	192	3
TAP	27	288	5
TTP	28	0	5	E	0
TTP	28	96	7	E	0
TTP	28	192	1	E	0
TTP	28	288	3	E	0
TAP	29	0	0
TAP	29	0	7
TAP	29	96	4
TAP	29	96	5
TAP	29	192	3
TAP	29	192	6
STR	29	288	2
SCL	29	288	2	96	144	5
TAP	30	192	0
TAP	30	192	7
TAP	30	288	3
TAP	30	288	4
HLD	31	0	1	96
TAP	31	0	3
TAP	31	96	5
TAP	31	192	4
HLD	31	192	6	96
TAP	31	288	2
TTP	32	0	3	E	0
TTP	32	96	1	E	0
TTP	32	192	7	E	0
TTP	32	288	5	E	0
TAP	33	0	3
TAP	33	0	4
TTP	33	192	0	C	0
TAP	34	0	4
HLD	34	0	5	96
TAP	34	96	7
HLD	34	192	2	96
TAP	34	192	3
TAP	34	288	0
STR	35	0	4
SI_	35	0	4	96	48	7
STR	35	192	3
SI_	35	192	3	96	48	0
HLD	36	0	6	96
HLD	36	96	4	96
HLD	36	192	3	96
TAP	36	288	1
TAP	37	0	0
TAP	37	0	1
TAP	37	96	3
TAP	37	96	6
TAP	37	192	6
TAP	37	192	7
TAP	37	288	1
TAP	37	288	4
BRK	38	0	3
BRK	38	0	6
TAP	38	144	2
TAP	38	192	1
TAP	38	192	3
TAP	38	336	5
TAP	39	0	4
TAP	39	0	6
TAP	39	96	3
TAP	39	96	4
TAP	39	192	2
TAP	39	192	5
HLD	40	0	2	96
HLD	40	96	0	96
HLD	40	192	7	96
TAP	40	288	5
TAP	41	0	4
TAP	41	0	6
TAP	41	96	3
TAP	41	96	4
TAP	41	192	1
TAP	41	192	3
TTP	41	288	0	C	0
HLD	42	0	2	96
TAP	42	0	3
TAP	42	96	0
TAP	42	192	4
HLD	42	192	5	96
TAP	42	288	7
STR	43	0	3
SCL	43	0	3	96	96	0
STR	43	192	4
SCR	43	192	4	96	96	7
HLD	44	0	1	96
HLD	44	96	3	96
HLD	44	192	4	96
TAP	44	288	6
TAP	45	0	6
TAP	45	0	7
TAP	45	96	1
TAP	45	96	4
TAP	45	192	0
TAP	45	192	1
TAP	45	288	3
TAP	45	288	6
BRK	46	0	1
BRK	46	0	4
TAP	46	144	5
TAP	46	192	4
TAP	46	192	6
TAP	46	336	2
TAP	47	0	1
TAP	47	0	3
TAP	47	96	3
TAP	47	96	4
TAP	47	192	2
TAP	47	192	5
TAP	48	0	4
TAP	48	0	5
TAP	48	96	3
TAP	48	96	6
TAP	48	192	2
TAP	48	192	3
TAP	48	288	1
TAP	48	288	4
TTP	49	0	0	E	0
TTP	49	0	4	E	0
TTP	49	96	2	E	0
TTP	49	96	6	E	0
TTP	49	192	0	C	0
HLD	50	0	5	384
TAP	50	192	4
TAP	50	288	4
HLD	51	0	2	384
TAP	51	192	3
TAP	51	288	3
HLD	52	0	5	384
TAP	52	192	4
TAP	52	288	3
HLD	53	0	2	384
TAP	53	192	3
TAP	53	288	4
TAP	54	0	5
TAP	54	96	4
TAP	54	96	5
TAP	54	192	2
TAP	54	288	2
TAP	54	288	3
TTP	55	0	0	E	0
TTP	55	96	6	E	0
TTP	55	192	4	E	0
TAP	55	288	2
TAP	55	288	5
STR	56	0	7
SCL	56	0	7	96	96	4
HLD	56	192	0	192
TAP	57	0	3
TAP	57	96	5
TAP	57	192	0
TAP	57	192	7
TAP	58	0	2
TAP	58	96	2
TAP	58	96	3
TAP	58	192	5
TAP	58	288	4
TAP	58	288	5
TTP	59	0	0	E	0
TTP	59	96	2	E	0
TTP	59	192	4	E	0
TAP	59	288	2
TAP	59	288	5
STR	60	0	0
SCR	60	0	0	96	96	3
HLD	60	192	7	192
TAP	61	0	4
TAP	61	96	2
TAP	61	192	0
TAP	61	192	7
TAP	61	288	2
TAP	61	288	5
STR	62	0	3
SCL	62	0	3	96	96	0
TAP	62	0	7
TAP	62	192	4
TAP	63	0	0
TAP	63	0	4
TAP	63	96	1
TAP	63	96	5
TAP	63	192	2
TAP	63	192	6
TAP	63	288	3
HLD	63	288	7	96
HLD	64	0	0	384
TAP	65	192	3
TAP	65	192	4
HLD	66	0	5	384
TAP	66	192	4
HLD	67	0	2	384
TAP	67	192	3
HLD	68	0	5	384
TAP	68	192	4
TAP	69	0	2
TAP	69	96	1
TAP	69	96	6
TAP	69	192	3
TAP	69	192	4
TAP	69	288	0
TAP	69	288	7
BRK	70	0	1
BRK	70	0	6
TAP	70	144	1
TAP	70	192	0
TAP	70	192	2
TAP	70	336	6
TAP	71	0	5
TAP	71	0	7
TAP	71	96	3
TAP	71	96	4
TAP	71	192	2
TAP	71	192	5
HLD	72	0	5	96
HLD	72	96	7	96
HLD	72	192	0	96
TAP	72	288	2
TAP	73	0	1
TAP	73	0	3
TAP	73	96	3
TAP	73	96	4
TAP	73	192	4
TAP	73	192	6
TAP	73	288	0
TAP	73	288	7
TAP	74	0	3
HLD	74	0	5	96
TAP	74	96	7
HLD	74	192	2	96
TAP	74	192	4
TAP	74	288	0
TAP	75	0	6
TAP	75	0	7
TAP	75	96	1
TAP	75	96	4
TAP	75	192	0
TAP	75	192	1
TAP	75	288	3
TAP	75	288	6
STR	76	0	0
SCR	76	0	0	96	192	7
TAP	76	0	7
TAP	77	0	0
STR	77	0	7
SCL	77	0	7	96	192	0
TAP	78	0	5
TAP	78	96	4
TAP	78	96	6
TAP	78	192	2
TAP	78	288	1
TAP	78	288	3
TAP	79	0	3
TAP	79	0	4
TAP	79	96	1
TAP	79	96	6
TAP	79	192	0
TAP	79	192	7
TAP	79	288	2
TAP	79	288	5
TAP	80	0	2
TAP	80	0	3
TAP	80	96	1
TAP	80	96	4
TAP	80	192	4
TAP	80	192	5
TAP	80	288	3
TAP	80	288	6
TTP	81	0	0	C	0

T_REC_TAP	271
T_REC_BRK	8
T_REC_XTP	0
T_REC_HLD	50
T_REC_XHO	0
T_REC_STR	14
T_REC_BST	0
T_REC_XST	0
T_REC_TTP	28
T_REC_THO	0
T_REC_SLD	14
T_REC_ALL	385
T_NUM_TAP	313
T_NUM_BRK	8
T_NUM_HLD	50
T_NUM_SLD	14
T_NUM_ALL	385
T_JUDGE_TAP	321
T_JUDGE_HLD	198
T_JUDGE_SLD	14
T_JUDGE_ALL	533
TTM_EACHPAIRS	118
TTM_SCR_TAP	156500
TTM_SCR_BRK	20800
TTM_SCR_HLD	50000
TTM_SCR_SLD	21000
TTM_SCR_ALL	248300
TTM_SCR_S	240100
TTM_SCR_SS	247500
TTM_RAT_ACV	10032

