VERSION	0.00.00	1.03.00
FES_MODE	0
BPM_DEF	145.000	145.000	145.000	145.000
MET_DEF	4	4
RESOLUTION	384
CLK_DEF	0
COMPATIBLE_CODE	MA2

BPM	0	0	145.000
MET	0	0	4	4
CLK	0	0
CLK	0	96
CLK	0	192
CLK	0	288

TAP	6	0	3
TAP	7	0	3
TAP	8	0	4
TAP	9	0	4
XTP	9	192	4
TAP	10	0	5
TAP	10	192	5
TAP	11	0	5
TAP	12	0	4
TAP	12	192	4
TAP	13	0	4
TAP	14	0	3
TAP	14	192	3
TAP	15	0	3
TAP	16	0	2
TAP	16	192	2
TAP	17	0	2
TAP	18	0	3
TAP	18	96	3
TAP	19	0	2
TAP	19	96	2
TAP	20	0	1
TAP	20	96	1
TAP	21	0	0
TAP	21	0	7
TAP	22	0	7
TAP	22	96	7
TAP	23	0	6
TAP	23	96	6
TAP	24	0	5
TAP	24	96	5
TAP	25	0	3
TAP	25	0	4
STR	26	0	2
SI_	26	0	2	96	288	5
STR	28	0	6
SI_	28	0	6	96	288	1
TAP	30	0	0
TAP	30	192	1
TAP	31	0	2
TAP	31	192	3
TAP	31	192	4
TTP	32	0	4	E	0	L1
TTP	32	192	2	B	0	L1
TTP	32	192	5	B	0	L1
TTP	33	0	0	C	1	L1
TAP	34	0	7
TAP	34	96	7
TAP	34	192	7
TAP	35	0	6
TAP	35	96	6
TAP	35	192	6
HLD	36	0	5	192
TAP	37	0	4
TAP	37	96	4
TAP	37	192	4
TAP	38	0	3
TAP	38	0	4
TAP	38	192	4
TAP	38	192	5
TAP	39	0	3
TAP	39	0	4
TAP	39	192	2
TAP	39	192	3
TAP	40	0	1
TAP	40	192	1
XTP	41	0	0
XTP	41	0	7
TAP	42	0	0
TAP	42	96	0
TAP	42	192	0
TAP	43	0	1
TAP	43	96	1
TAP	43	192	1
HLD	44	0	2	192
TAP	45	0	3
TAP	45	96	3
TAP	45	192	3
TAP	46	0	3
TAP	46	0	4
TAP	46	192	2
TAP	46	192	3
TAP	47	0	3
TAP	47	0	4
TAP	47	192	4
TAP	47	192	5
TAP	48	0	6
TAP	48	192	6
XTP	49	0	0
XTP	49	0	7
BRK	49	192	0
BRK	49	192	7
STR	50	0	1
SI_	50	0	1	96	288	5
STR	52	0	6
SI_	52	0	6	96	288	2
TAP	54	0	3
TAP	54	192	3
TAP	55	0	4
TAP	55	192	4
TTP	56	0	5	E	0	L1
TTP	56	192	4	E	0	L1
TTP	57	0	3	E	0	L1
TAP	58	0	4
TAP	58	192	4
TAP	59	0	3
TAP	59	192	3
TTP	60	0	3	E	0	L1
TTP	60	192	4	E	0	L1
TTP	61	0	5	E	0	L1
TAP	62	0	3
TAP	62	192	3
TTP	63	0	4	E	0	L1
TTP	63	192	3	E	0	L1
TTP	64	0	2	E	0	L1
TTP	64	192	1	E	0	L1
TTP	65	0	0	E	0	L1
STR	66	0	7
SI_	66	0	7	96	288	4
TAP	68	0	3
TAP	68	0	4
TTP	68	192	3	E	0	L1
TTP	68	192	5	E	0	L1
TTP	69	0	0	C	1	L1
TAP	70	0	0
TAP	70	96	0
TAP	70	192	0
TAP	71	0	1
TAP	71	96	1
TAP	71	192	0
TAP	71	192	1
TAP	72	0	2
TAP	72	96	2
TAP	72	192	2
TAP	73	0	3
TAP	73	96	3
TAP	73	192	3
TAP	73	192	4
TAP	74	0	4
TAP	74	96	4
TAP	74	192	4
TAP	75	0	5
TAP	75	96	5
TAP	75	192	4
TAP	75	192	5
TAP	76	0	6
TAP	76	96	6
TAP	76	192	6
TAP	77	0	7
TAP	77	96	7
TAP	77	192	0
TAP	77	192	7
TAP	78	0	1
TAP	78	192	1
TAP	79	0	2
TAP	79	192	2
TAP	80	0	3
TAP	80	0	4
TTP	80	192	4	E	0	L1
TTP	81	0	3	E	0	L1
TTP	81	0	5	E	0	L1
TTP	81	192	0	C	1	L1

T_REC_TAP	121
T_REC_BRK	2
T_REC_XTP	5
T_REC_HLD	2
T_REC_XHO	0
T_REC_STR	5
T_REC_BST	0
T_REC_XST	0
T_REC_TTP	22
T_REC_THO	0
T_REC_SLD	5
T_REC_ALL	162
T_NUM_TAP	153
T_NUM_BRK	2
T_NUM_HLD	2
T_NUM_SLD	5
T_NUM_ALL	162
T_JUDGE_TAP	155
T_JUDGE_HLD	8
T_JUDGE_SLD	5
T_JUDGE_ALL	168
TTM_EACHPAIRS	20
TTM_SCR_TAP	76500
TTM_SCR_BRK	5200
TTM_SCR_HLD	2000
TTM_SCR_SLD	7500
TTM_SCR_ALL	91200
TTM_SCR_S	88300
TTM_SCR_SS	91000
TTM_RAT_ACV	10021

