VERSION	0.00.00	1.03.00
FES_MODE	0
BPM_DEF	172.000	172.000	172.000	172.000
MET_DEF	4	4
RESOLUTION	384
CLK_DEF	384
COMPATIBLE_CODE	MA2

BPM	0	0	172.000
MET	0	0	4	4

BRK	1	288	7
HLD	2	0	3	96
HLD	2	96	5	192
HLD	2	288	1	96
HLD	3	0	7	96
TAP	3	96	0
TAP	3	144	1
TAP	3	144	6
TAP	3	240	3
TAP	3	240	4
TAP	3	288	2
STR	3	288	5
SI_	3	288	5	96	48	2
XST	4	0	1
SI_	4	0	1	96	48	6
STR	4	96	4
SI_	4	96	4	96	48	7
STR	4	192	0
SI_	4	192	0	96	48	3
STR	4	288	5
SCR	4	288	5	96	192	3
TAP	5	192	0
TAP	5	288	3
TAP	5	336	4
TAP	6	0	2
TAP	6	48	4
TAP	6	96	5
TAP	6	144	1
TAP	6	192	3
TAP	6	240	4
STR	6	288	0
SCR	6	288	0	96	96	5
TAP	6	336	7
TAP	7	192	0
TAP	7	192	7
STR	7	288	2
SI_	7	288	2	96	48	5
TAP	7	288	5
STR	8	0	6
SI_	8	0	6	96	48	1
STR	8	96	3
SI_	8	96	3	96	48	0
STR	8	192	7
SI_	8	192	7	96	48	4
STR	8	288	2
SCL	8	288	2	96	192	4
TAP	9	192	7
TAP	9	288	4
TAP	9	336	3
TAP	10	0	5
TAP	10	48	3
TAP	10	96	2
TAP	10	192	1
TAP	10	192	3
STR	10	288	4
SCL	10	288	4	96	288	5
TAP	10	288	6
TAP	12	0	3
TAP	12	0	4
TAP	12	48	3
TAP	12	48	4
TAP	12	144	0
TAP	12	144	7
TAP	12	240	1
TAP	12	240	6
BRK	12	288	1
BRK	12	288	6
TAP	13	0	2
TAP	13	0	3
TTP	13	96	1	B	0	M1
TTP	13	96	4	B	0	M1
TAP	13	192	7
TAP	13	240	7
TAP	13	288	0
TAP	13	336	0
TAP	14	0	1
TAP	14	0	7
TAP	14	96	0
TAP	14	96	6
TAP	14	192	2
TAP	14	192	7
TAP	14	288	0
TAP	14	288	5
STR	15	0	6
SI_	15	0	6	96	48	1
TAP	15	96	3
STR	15	192	2
SI_	15	192	2	96	48	5
STR	15	288	7
SF_	15	288	7	96	96	3
TAP	16	192	1
TAP	16	192	6
TAP	16	288	1
TAP	16	288	6
TAP	17	0	4
TAP	17	0	5
TTP	17	96	3	B	0	M1
TTP	17	96	6	B	0	M1
TAP	17	192	0
TAP	17	240	0
TAP	17	288	7
TAP	17	336	7
TAP	18	0	1
TAP	18	0	3
TAP	18	96	4
TAP	18	96	6
TAP	18	192	1
TAP	18	192	4
TAP	18	288	3
TAP	18	288	6
TAP	19	0	2
STR	19	0	3
SCR	19	0	3	96	48	6
TAP	19	96	1
STR	19	192	4
SCL	19	192	4	96	48	1
TAP	19	192	5
TAP	19	288	6
TAP	20	0	3
TAP	20	0	4
TAP	20	96	0
TAP	20	96	7
STR	20	192	1
SI_	20	192	1	96	48	4
STR	20	192	6
SI_	20	192	6	96	48	3
TAP	21	0	2
TAP	21	0	3
TTP	21	96	1	E	0	M1
TTP	21	96	5	E	0	M1
TAP	21	192	7
TAP	21	240	7
TAP	21	288	0
TAP	21	336	0
TAP	22	0	5
TAP	22	48	5
TAP	22	96	2
TAP	22	144	2
TAP	22	192	3
TAP	22	192	4
TAP	22	288	1
TAP	22	288	6
STR	23	0	2
SCR	23	0	2	96	48	5
TAP	23	96	7
STR	23	192	6
SCR	23	192	6	96	48	1
TAP	23	288	3
STR	24	0	2
SCR	24	0	2	96	48	5
STR	24	96	7
SI_	24	96	7	96	48	3
STR	24	192	0
SI_	24	192	0	96	48	4
TAP	24	288	7
STR	25	0	2
SI_	25	0	2	96	48	5
STR	25	0	6
SI_	25	0	6	96	48	1
TAP	25	192	7
TAP	25	240	7
TAP	25	288	1
TAP	25	336	1
TAP	26	0	5
TAP	26	48	5
TAP	26	96	3
TAP	26	144	3
TAP	26	192	3
TAP	26	192	4
TAP	26	288	2
TAP	26	288	5
HLD	27	0	0	96
HLD	27	0	6	96
HLD	27	144	1	96
HLD	27	144	7	96
TAP	27	336	0
TAP	27	336	7
TAP	28	0	0
TAP	28	0	7
TTP	28	96	1	B	0	M1
TTP	28	96	6	B	0	M1
TTP	28	192	3	E	0	M1
TTP	28	192	3	B	0	M1
TTP	28	192	4	B	0	M1
TTP	28	192	5	E	0	M1
STR	29	0	4
SCR	29	0	4	96	192	1
TTP	29	192	1	B	0	M1
TTP	29	192	2	B	0	M1
STR	30	0	3
SCL	30	0	3	96	192	6
TTP	30	192	5	B	0	M1
TTP	30	192	6	B	0	M1
TAP	31	0	4
TAP	31	0	5
TAP	31	96	6
TAP	31	96	7
TAP	31	192	0
TAP	31	192	1
TAP	31	288	2
TAP	31	288	3
STR	32	0	4
SCL	32	0	4	96	96	1
STR	32	0	5
SCR	32	0	5	96	96	0
TAP	32	288	3
TAP	32	288	4
HLD	33	0	3	96
TAP	33	0	5
TAP	33	48	4
HLD	33	96	5	96
TAP	33	144	4
HLD	33	192	3	96
TAP	33	240	4
HLD	33	288	5	96
TAP	33	336	4
HLD	34	0	2	96
TAP	34	48	3
HLD	34	96	4	96
TAP	34	144	3
HLD	34	192	2	96
TAP	34	240	3
HLD	34	288	4	96
TAP	34	336	3
STR	35	0	2
SI_	35	0	2	96	48	7
STR	35	96	6
SI_	35	96	6	96	48	3
STR	35	192	1
SI_	35	192	1	96	48	4
TAP	35	288	7
TAP	36	0	5
TAP	36	0	6
TAP	36	96	4
TAP	36	96	7
TAP	36	192	0
TAP	36	192	3
TAP	36	288	1
TAP	36	288	2
TAP	37	0	2
STR	37	0	3
SI_	37	0	3	96	48	6
STR	37	192	4
SI_	37	192	4	96	48	1
TAP	37	192	5
TAP	38	0	2
STR	38	0	3
SI_	38	0	3	96	48	7
TAP	38	96	0
STR	38	192	4
SI_	38	192	4	96	48	0
TAP	38	192	5
TAP	38	288	7
STR	39	0	6
SI_	39	0	6	96	48	1
STR	39	96	2
SI_	39	96	2	96	48	5
STR	39	192	4
SI_	39	192	4	96	48	7
STR	39	288	2
SCL	39	288	2	96	192	5
TTP	40	0	0	C	1	M1
TAP	40	288	3
BST	40	288	5
SI_	40	288	5	96	48	0
XST	41	0	2
SI_	41	0	2	96	48	7
STR	41	96	4
SI_	41	96	4	96	48	0
STR	41	192	3
SI_	41	192	3	96	48	7
STR	41	288	5
SCR	41	288	5	96	144	2
TTP	42	192	3	B	0	M1
TTP	42	192	4	B	0	M1
TTP	42	192	5	B	0	M1
TAP	42	288	7
TAP	42	336	0
STR	43	0	1
SCR	43	0	1	96	48	4
TAP	43	96	6
STR	43	144	5
SCR	43	144	5	96	48	0
TAP	43	240	2
STR	43	288	1
SF_	43	288	1	96	96	5
TAP	44	192	3
TAP	44	192	6
TAP	44	240	5
STR	44	288	2
SI_	44	288	2	96	48	7
TAP	44	288	4
STR	45	0	5
SI_	45	0	5	96	48	0
STR	45	96	3
SI_	45	96	3	96	48	7
STR	45	192	4
SI_	45	192	4	96	48	0
STR	45	288	2
SCL	45	288	2	96	144	5
TTP	46	192	2	B	0	M1
TTP	46	192	3	B	0	M1
TTP	46	192	4	B	0	M1
TAP	46	288	0
TAP	46	336	7
STR	47	0	6
SCL	47	0	6	96	48	3
TAP	47	96	0
TAP	47	144	1
STR	47	192	2
SCL	47	192	2	96	48	7
STR	47	288	6
SF_	47	288	6	96	96	2
TAP	48	192	0
TAP	48	192	1
TAP	48	288	3
TAP	48	288	7
TAP	49	0	2
TAP	49	0	3
TAP	49	48	2
TAP	49	48	3
TAP	49	144	0
TAP	49	144	5
TAP	49	240	4
TAP	49	240	5
TAP	49	288	3
TAP	49	288	6
XST	50	0	7
SI_	50	0	7	96	48	3
TAP	50	96	2
XST	50	192	0
SI_	50	192	0	96	48	4
TAP	50	288	5
STR	51	0	7
SI_	51	0	7	96	48	3
TAP	51	96	2
STR	51	192	0
SI_	51	192	0	96	48	4
STR	51	288	5
SCR	51	288	5	96	96	2
TAP	52	0	3
TAP	52	192	0
TAP	52	192	7
TAP	52	288	1
STR	52	288	6
SI_	52	288	6	96	48	2
STR	53	0	7
SI_	53	0	7	96	48	3
STR	53	96	0
SI_	53	96	0	96	48	4
STR	53	192	1
SI_	53	192	1	96	48	5
STR	53	288	7
SCL	53	288	7	96	192	0
TAP	54	288	3
TAP	54	288	4
TTP	55	0	0	C	1	M1
TTP	55	0	2	B	0	M1
TTP	55	0	5	B	0	M1
TAP	56	0	2
TAP	56	0	6
TAP	56	48	1
TAP	56	48	5
TAP	56	96	2
TAP	56	96	6
TAP	56	144	1
TAP	56	144	5
BRK	56	192	2
BRK	56	192	6
TAP	56	288	3
TAP	56	288	4
TAP	57	0	4
TAP	57	0	6
TAP	57	72	3
TAP	57	72	4
TAP	57	144	1
TAP	57	144	3
XTP	57	192	0
XTP	57	192	7
TAP	57	288	2
STR	57	288	5
SCR	57	288	5	96	48	0
XST	58	0	1
SCR	58	0	1	96	48	4
STR	58	96	6
SI_	58	96	6	96	48	2
STR	58	192	0
SI_	58	192	0	96	48	4
STR	58	288	5
SCR	58	288	5	96	144	2
TTP	59	192	4	B	0	M1
TTP	59	192	5	B	0	M1
TTP	59	192	6	B	0	M1
TAP	59	288	3
TAP	59	336	4
STR	60	0	5
SCR	60	0	5	96	48	0
TAP	60	96	2
STR	60	144	1
SCR	60	144	1	96	48	4
TAP	60	240	6
STR	60	288	5
SF_	60	288	5	96	96	1
TAP	61	192	3
TAP	61	192	4
TAP	61	240	3
TAP	61	240	4
STR	61	288	2
SCL	61	288	2	96	48	7
TAP	61	288	5
STR	62	0	6
SCL	62	0	6	96	48	3
STR	62	96	1
SI_	62	96	1	96	48	5
STR	62	192	7
SI_	62	192	7	96	48	3
STR	62	288	2
SCL	62	288	2	96	144	5
TTP	63	192	1	B	0	M1
TTP	63	192	2	B	0	M1
TTP	63	192	3	B	0	M1
TAP	63	288	5
TAP	63	336	4
STR	64	0	3
SCL	64	0	3	96	48	0
TAP	64	96	5
TAP	64	144	6
STR	64	192	7
SCL	64	192	7	96	48	4
STR	64	288	2
SF_	64	288	2	96	96	6
TAP	65	192	6
TAP	65	192	7
TAP	65	288	3
TAP	65	288	4
TTP	66	0	2	E	0	M1
TTP	66	0	2	B	0	M1
TTP	66	0	3	B	0	M1
TTP	66	96	4	B	0	M1
TTP	66	96	5	B	0	M1
TTP	66	96	6	E	0	M1
TTP	66	192	1	B	0	M1
TTP	66	192	1	E	0	M1
TTP	66	192	2	B	0	M1
TTP	66	192	3	E	0	M1
TTP	66	288	5	E	0	M1
TTP	66	288	5	B	0	M1
TTP	66	288	6	B	0	M1
TTP	66	288	7	E	0	M1
XST	67	0	1
SI_	67	0	1	96	48	6
STR	67	96	5
SI_	67	96	5	96	48	0
STR	67	192	4
SI_	67	192	4	96	48	1
STR	67	288	5
SCR	67	288	5	96	144	2
TTP	68	192	0	B	0	M1
TTP	68	192	1	B	0	M1
TTP	68	192	6	B	0	M1
TTP	68	192	7	B	0	M1
TAP	68	288	4
TAP	68	336	5
STR	69	0	6
SCL	69	0	6	96	48	3
TAP	69	96	2
STR	69	144	1
SI_	69	144	1	96	48	5
TAP	69	240	7
STR	69	288	7
SF_	69	288	7	96	96	3
BRK	70	192	0
BRK	70	192	7
BST	70	288	4
SI_	70	288	4	96	48	7
BRK	70	288	5
STR	71	0	6
SI_	71	0	6	96	48	1
STR	71	96	2
SI_	71	96	2	96	48	7
STR	71	192	3
SI_	71	192	3	96	48	6
STR	71	288	2
SCL	71	288	2	96	144	5
TTP	72	192	0	B	0	M1
TTP	72	192	0	C	0	M1
TTP	72	192	1	B	0	M1
TTP	72	192	6	B	0	M1
TTP	72	192	7	B	0	M1
TAP	72	288	2
TAP	72	336	1
STR	73	0	0
SCR	73	0	0	96	48	3
TAP	73	96	6
TAP	73	144	5
STR	73	192	4
SI_	73	192	4	96	48	0
STR	73	288	1
SCR	73	288	1	96	192	6
TAP	74	288	3
TAP	74	288	4
TAP	75	0	0
TAP	75	0	7
TAP	75	48	0
STR	75	48	7
SSR	75	48	7	96	192	3
XTP	76	0	0
XTP	76	0	7
TTP	76	96	1	B	0	M1
TTP	76	96	6	B	0	M1
XTP	76	192	3
XTP	76	192	4
TTP	76	288	2	B	0	M1
TTP	76	288	5	B	0	M1
XTP	77	0	0
XTP	77	0	7
TTP	77	96	1	B	0	M1
TTP	77	96	6	B	0	M1
XTP	77	192	3
XTP	77	192	4
TTP	77	288	2	B	0	M1
TTP	77	288	5	B	0	M1
XTP	78	0	0
XTP	78	0	7
TTP	78	96	1	B	0	M1
TTP	78	96	6	B	0	M1
XTP	78	192	3
XTP	78	192	4
TTP	78	288	2	B	0	M1
TTP	78	288	5	B	0	M1
HLD	79	0	0	192
HLD	79	0	7	192
XTP	80	0	0
XTP	80	0	7
TTP	80	96	2	E	0	M1
TTP	80	96	6	E	0	M1
XTP	80	192	3
XTP	80	192	4
TTP	80	288	0	C	0	M1
XTP	81	0	0
XTP	81	0	7
TTP	81	96	2	E	0	M1
TTP	81	96	6	E	0	M1
XTP	81	192	3
XTP	81	192	4
TTP	81	288	0	C	0	M1
XTP	82	0	0
XTP	82	0	7
TTP	82	96	2	E	0	M1
TTP	82	96	6	E	0	M1
XTP	82	192	3
XTP	82	192	4
TTP	82	288	0	C	0	M1
TAP	83	0	0
TAP	83	0	7
TAP	83	48	1
TAP	83	48	6
TAP	83	96	2
TAP	83	96	5
TAP	83	192	2
TAP	83	192	5
TAP	83	288	0
TAP	83	288	7
XTP	84	0	3
XTP	84	0	4
TTP	84	96	0	B	0	M1
TTP	84	96	1	E	0	M1
TTP	84	96	7	B	0	M1
TTP	84	96	7	E	0	M1
XTP	84	192	3
XTP	84	192	4
TTP	84	288	1	B	0	M1
TTP	84	288	2	B	0	M1
TTP	84	288	5	B	0	M1
TTP	84	288	6	B	0	M1
XTP	85	0	3
XTP	85	0	4
TTP	85	96	6	E	0	M1
TTP	85	96	6	B	0	M1
TTP	85	96	7	B	0	M1
XTP	85	192	3
XTP	85	192	4
TTP	85	288	0	B	0	M1
TTP	85	288	1	B	0	M1
TTP	85	288	2	E	0	M1
XTP	86	0	3
XTP	86	0	4
TTP	86	96	5	B	0	M1
TTP	86	96	5	E	0	M1
TTP	86	96	6	B	0	M1
XTP	86	192	3
XTP	86	192	4
TTP	86	288	1	B	0	M1
TTP	86	288	2	B	0	M1
TTP	86	288	3	E	0	M1
XTP	87	0	0
XTP	87	0	7
XTP	87	48	0
XTP	87	48	7
XTP	87	96	0
XTP	87	96	7
XTP	87	192	3
XTP	87	192	4
BRK	87	288	1
BRK	87	288	6
XST	88	0	7
SI_	88	0	7	96	48	4
TAP	88	48	7
STR	88	96	3
SI_	88	96	3	96	48	0
TAP	88	144	3
STR	88	192	7
SI_	88	192	7	96	48	4
TAP	88	240	7
STR	88	288	3
SI_	88	288	3	96	48	0
TAP	88	336	3
STR	89	0	6
SI_	89	0	6	96	48	3
TAP	89	48	6
STR	89	96	2
SI_	89	96	2	96	48	7
TAP	89	144	2
STR	89	192	6
SI_	89	192	6	96	48	3
TAP	89	240	6
STR	89	288	2
SI_	89	288	2	96	48	7
TAP	89	336	2
STR	90	0	5
SI_	90	0	5	96	48	2
TAP	90	48	5
STR	90	96	1
SI_	90	96	1	96	48	6
TAP	90	144	1
STR	90	192	5
SI_	90	192	5	96	48	2
TAP	90	240	5
STR	90	288	1
SI_	90	288	1	96	48	6
TAP	90	336	1
STR	91	0	5
SI_	91	0	5	96	48	2
TAP	91	48	5
STR	91	96	0
SI_	91	96	0	96	48	4
TAP	91	144	0
TAP	91	192	7
BRK	91	288	1
BRK	91	288	5
XST	92	0	3
SI_	92	0	3	96	48	0
TAP	92	48	3
STR	92	96	7
SI_	92	96	7	96	48	4
TAP	92	144	7
STR	92	192	3
SI_	92	192	3	96	48	0
TAP	92	240	3
STR	92	288	7
SI_	92	288	7	96	48	4
TAP	92	336	7
STR	93	0	2
SI_	93	0	2	96	48	7
TAP	93	48	2
STR	93	96	6
SI_	93	96	6	96	48	3
TAP	93	144	6
STR	93	192	2
SI_	93	192	2	96	48	7
TAP	93	240	2
STR	93	288	6
SI_	93	288	6	96	48	3
TAP	93	336	6
STR	94	0	1
SI_	94	0	1	96	48	6
TAP	94	48	1
STR	94	96	5
SI_	94	96	5	96	48	2
TAP	94	144	5
STR	94	192	1
SI_	94	192	1	96	48	6
TAP	94	240	1
STR	94	288	5
SI_	94	288	5	96	48	2
TAP	94	336	5
STR	95	0	1
SCL	95	0	1	96	48	6
TAP	95	48	1
STR	95	96	5
SCL	95	96	5	96	48	2
TAP	95	144	5
STR	95	192	1
SCL	95	192	1	96	48	6
TAP	95	240	1
STR	95	288	5
SI_	95	288	5	96	48	0
TAP	95	336	5
STR	96	0	2
SI_	96	0	2	96	48	7
TAP	96	48	2
STR	96	96	4
SI_	96	96	4	96	48	0
TAP	96	144	4
STR	96	192	3
SI_	96	192	3	96	48	7
TAP	96	240	3
XTP	96	288	4
STR	97	0	6
SI_	97	0	6	96	48	2
STR	97	96	1
SI_	97	96	1	96	48	5
STR	97	192	7
SI_	97	192	7	96	48	3
STR	97	288	0
SCR	97	288	0	96	192	7
TAP	98	288	6
TAP	98	336	5
TAP	98	336	7
XHO	99	0	0	96
XHO	99	0	4	96
XHO	99	192	3	96
XHO	99	192	7	96
TAP	100	0	3
TAP	100	0	4
TTP	100	96	0	B	0	M1
TTP	100	96	1	E	0	M1
TTP	100	96	7	E	0	M1
TTP	100	96	7	B	0	M1
TTP	100	192	3	B	0	M1
TTP	100	192	3	E	0	M1
TTP	100	192	4	B	0	M1
TTP	100	192	5	E	0	M1
TAP	100	288	0
TAP	100	288	7
XTP	101	0	6
XTP	101	0	7
TAP	101	48	0
TAP	101	48	5
XTP	101	144	0
XTP	101	144	1
STR	101	192	2
SCR	101	192	2	96	48	5
TAP	101	192	7
TTP	101	288	0	C	1	M1

T_REC_TAP	281
T_REC_BRK	12
T_REC_XTP	51
T_REC_HLD	18
T_REC_XHO	4
T_REC_STR	127
T_REC_BST	2
T_REC_XST	8
T_REC_TTP	105
T_REC_THO	0
T_REC_SLD	137
T_REC_ALL	745
T_NUM_TAP	572
T_NUM_BRK	14
T_NUM_HLD	22
T_NUM_SLD	137
T_NUM_ALL	745
T_JUDGE_TAP	586
T_JUDGE_HLD	50
T_JUDGE_SLD	137
T_JUDGE_ALL	773
TTM_EACHPAIRS	127
TTM_SCR_TAP	286000
TTM_SCR_BRK	36400
TTM_SCR_HLD	22000
TTM_SCR_SLD	205500
TTM_SCR_ALL	549900
TTM_SCR_S	532050
TTM_SCR_SS	548500
TTM_RAT_ACV	10025

