VERSION	0.00.00	1.03.00
FES_MODE	0
BPM_DEF	172.000	172.000	172.000	172.000
MET_DEF	4	4
RESOLUTION	384
CLK_DEF	384
COMPATIBLE_CODE	MA2

BPM	0	0	172.000
MET	0	0	4	4

TTP	2	96	4	B	0	M1
TTP	2	96	5	B	0	M1
TTP	2	96	6	E	0	M1
TTP	2	288	2	E	0	M1
TTP	2	288	2	B	0	M1
TTP	2	288	3	B	0	M1
TTP	3	0	0	C	1	M1
XTP	3	288	1
XTP	3	288	6
TTP	4	0	3	E	0	M1
TTP	4	0	3	B	0	M1
TTP	4	96	5	B	0	M1
TTP	4	96	6	B	0	M1
STR	4	192	0
SI_	4	192	0	96	48	4
TAP	5	0	1
STR	5	0	7
SI_	5	0	7	96	48	3
TAP	5	192	2
TAP	5	288	1
TAP	5	288	4
TAP	6	0	3
TAP	6	0	5
TAP	6	96	6
TAP	6	192	2
TAP	6	192	4
TAP	6	288	1
HLD	7	0	2	96
HLD	7	0	7	96
XTP	7	192	3
XTP	7	192	4
XTP	7	288	3
XTP	7	288	4
TTP	8	0	5	B	0	M1
TTP	8	0	5	E	0	M1
TTP	8	96	1	B	0	M1
TTP	8	96	2	B	0	M1
STR	8	192	7
SI_	8	192	7	96	48	3
STR	9	0	0
SI_	9	0	0	96	48	4
TAP	9	0	5
TAP	9	192	5
TAP	9	288	3
TAP	9	288	6
HLD	10	0	2	96
TAP	10	0	4
TAP	10	96	3
TAP	10	192	3
HLD	10	192	5	96
STR	10	288	4
SCR	10	288	4	96	288	3
XTP	12	0	3
XTP	12	0	6
XTP	12	48	3
XTP	12	48	6
XTP	12	144	2
XTP	12	144	4
XTP	12	240	1
XTP	12	240	5
XTP	12	288	1
XTP	12	288	5
TAP	13	0	0
XTP	13	0	7
XTP	13	96	3
TAP	13	96	4
TAP	13	192	1
TAP	13	288	2
TAP	14	0	3
TAP	14	0	4
TAP	14	96	5
TAP	14	144	5
TAP	14	192	4
TAP	14	288	3
TAP	14	288	5
HLD	15	0	6	96
TAP	15	96	4
TAP	15	192	3
TAP	15	192	5
TAP	15	288	2
TAP	15	336	2
TAP	16	0	3
TAP	16	96	2
TAP	16	96	4
TAP	16	192	3
TAP	16	192	5
TAP	16	288	1
TAP	16	288	6
XTP	17	0	0
XTP	17	0	7
XTP	17	96	1
XTP	17	96	2
TAP	17	192	3
TAP	17	192	4
TAP	17	288	5
TAP	17	336	5
TAP	18	0	4
TAP	18	96	3
TAP	18	192	2
TAP	18	288	1
TAP	18	288	4
HLD	19	0	2	96
TAP	19	96	3
TAP	19	192	3
TAP	19	192	4
TAP	19	288	5
TAP	19	336	5
TAP	20	0	4
TAP	20	96	3
TAP	20	96	6
XHO	20	192	1	96
XHO	20	192	4	96
XTP	21	0	0
XTP	21	0	7
XTP	21	96	5
XTP	21	96	6
TAP	21	192	3
TAP	21	192	4
TAP	21	288	2
TAP	21	336	2
TAP	22	0	3
TAP	22	96	4
TAP	22	96	5
TAP	22	192	3
TAP	22	192	6
TAP	22	288	3
TAP	22	288	6
STR	23	0	2
SI_	23	0	2	96	48	4
STR	23	192	6
SI_	23	192	6	96	48	0
TAP	24	0	1
TAP	24	96	1
TAP	24	96	3
TAP	24	192	4
TAP	24	288	3
TAP	24	288	5
TAP	25	0	4
STR	25	0	6
SI_	25	0	6	96	48	1
TAP	25	192	0
STR	25	192	2
SI_	25	192	2	96	48	5
TAP	26	0	6
TAP	26	96	0
TAP	26	144	0
TAP	26	192	7
STR	26	288	1
SLR	26	288	1	96	192	7
STR	26	288	6
SLL	26	288	6	96	192	0
TAP	27	288	1
TAP	27	288	6
TAP	28	0	2
TAP	28	0	3
TAP	28	96	4
TAP	28	96	5
BRK	28	192	3
BRK	28	192	6
HLD	29	0	5	384
TTP	29	192	5	B	0	M1
HLD	30	0	2	384
TTP	30	192	2	B	0	M1
HLD	31	0	4	384
TTP	31	192	4	E	0	M1
THO	32	0	0	192	C	0	M1
TTP	33	0	7	E	0	M1
TTP	33	96	0	C	0	M1
TTP	33	192	2	E	0	M1
TTP	34	0	3	E	0	M1
TTP	34	96	0	C	0	M1
TTP	34	192	6	E	0	M1
TTP	35	0	4	E	0	M1
TTP	35	96	0	C	0	M1
TTP	35	192	1	E	0	M1
TTP	35	288	0	E	0	M1
TTP	36	0	7	E	0	M1
TTP	36	96	0	C	0	M1
XTP	36	192	1
XTP	36	192	6
HLD	37	0	5	192
TAP	37	144	4
TAP	37	192	4
TAP	37	288	3
TAP	37	288	6
TAP	38	0	5
TAP	38	96	3
TAP	38	96	4
TAP	38	192	2
STR	38	288	1
SCL	38	288	1	96	288	4
TAP	38	288	3
TAP	40	0	2
TAP	40	0	3
TAP	40	96	4
TAP	40	96	5
BRK	40	192	1
BRK	40	192	6
TTP	41	0	5	E	0	M1
TTP	41	0	5	B	0	M1
TTP	41	96	1	B	0	M1
TTP	41	96	2	B	0	M1
STR	41	192	0
SI_	41	192	0	96	48	4
TAP	41	192	6
TAP	42	0	3
STR	42	0	7
SI_	42	0	7	96	48	2
TAP	42	192	0
TAP	42	192	1
TAP	42	288	2
TAP	43	0	3
TAP	43	0	5
TAP	43	96	7
TAP	43	192	2
TAP	43	192	4
TAP	43	288	0
HLD	44	0	7	96
HLD	44	96	6	96
HLD	44	192	5	96
TAP	44	288	4
TTP	45	0	2	B	0	M1
TTP	45	0	3	E	0	M1
TTP	45	96	5	B	0	M1
TTP	45	96	6	B	0	M1
TAP	45	192	0
STR	45	192	7
SI_	45	192	7	96	48	3
STR	46	0	0
SI_	46	0	0	96	48	5
TAP	46	0	4
TAP	46	192	6
TAP	46	192	7
TAP	46	288	5
TAP	47	0	2
TAP	47	0	4
TAP	47	96	0
TAP	47	192	3
TAP	47	192	5
STR	47	288	7
SCR	47	288	7	96	192	5
XTP	48	288	1
XTP	48	288	6
TAP	49	0	3
TAP	49	0	5
TAP	49	48	3
TAP	49	48	5
TAP	49	144	2
TAP	49	144	4
TAP	49	240	1
TAP	49	240	5
XTP	49	288	1
XTP	49	288	5
HLD	50	0	2	96
TAP	50	96	3
HLD	50	192	6	96
TAP	50	288	4
HLD	51	0	1	96
TAP	51	96	0
TAP	51	192	0
TAP	51	192	7
TAP	51	288	3
TAP	51	288	4
HLD	52	0	2	144
TAP	52	144	3
TAP	52	192	2
TAP	52	192	3
TAP	52	288	1
TAP	52	288	4
TAP	53	0	0
TAP	53	96	6
TAP	53	96	7
TAP	53	192	5
TAP	53	288	4
STR	53	288	6
SXL	53	288	6	96	240	3
STR	54	288	1
SCR	54	288	1	96	192	6
TAP	55	288	0
TAP	55	288	7
THO	56	0	0	192	C	1	M1
TTP	56	0	1	B	0	M1
TTP	56	0	6	B	0	M1
XTP	57	0	0
XTP	57	0	7
XTP	57	72	0
XTP	57	72	7
XTP	57	144	0
XTP	57	144	7
BRK	57	192	1
BRK	57	192	6
TTP	58	0	6	B	0	M1
TTP	58	0	7	E	0	M1
TTP	58	96	2	B	0	M1
TTP	58	96	3	E	0	M1
STR	58	192	4
SI_	58	192	4	96	48	0
TAP	58	192	5
STR	59	0	1
SI_	59	0	1	96	48	4
STR	59	0	7
SI_	59	0	7	96	48	4
TAP	59	192	3
TAP	59	192	5
TAP	59	288	3
TAP	59	288	4
TAP	60	0	1
HLD	60	0	3	96
TAP	60	96	0
HLD	60	192	4	96
TAP	60	192	6
TAP	60	288	7
HLD	61	0	0	96
HLD	61	96	1	96
HLD	61	192	2	96
TAP	61	288	3
TTP	62	0	5	B	0	M1
TTP	62	0	5	E	0	M1
TTP	62	96	0	B	0	M1
TTP	62	96	1	E	0	M1
TAP	62	192	2
STR	62	192	3
SI_	62	192	3	96	48	7
STR	63	0	0
SI_	63	0	0	96	48	3
STR	63	0	6
SI_	63	0	6	96	48	3
TAP	63	192	1
TAP	63	192	5
TAP	63	288	3
TAP	63	288	4
TAP	64	0	5
TAP	64	48	4
TAP	64	96	3
TAP	64	96	6
TAP	64	192	2
TAP	64	240	3
STR	64	288	1
SCL	64	288	1	96	192	3
TAP	64	288	4
TAP	65	288	2
TAP	65	288	5
BRK	66	0	6
BRK	66	96	5
BRK	66	96	6
BRK	66	192	1
BRK	66	288	1
BRK	66	288	2
TTP	67	0	6	B	0	M1
TTP	67	0	7	E	0	M1
TTP	67	96	3	B	0	M1
TTP	67	96	3	E	0	M1
STR	67	192	4
SI_	67	192	4	96	48	0
TAP	67	192	5
STR	68	0	1
SCR	68	0	1	96	48	4
STR	68	0	7
SCL	68	0	7	96	48	4
TAP	68	192	2
TAP	68	192	6
TAP	68	288	4
TAP	68	288	5
HLD	69	0	2	96
TAP	69	0	3
TAP	69	96	0
TAP	69	192	4
HLD	69	192	5	96
TAP	69	288	7
HLD	70	0	2	96
HLD	70	96	0	96
HLD	70	192	7	96
TAP	70	288	5
TTP	71	0	2	B	0	M1
TTP	71	0	3	E	0	M1
TTP	71	96	7	E	0	M1
TTP	71	96	7	B	0	M1
STR	71	192	4
SI_	71	192	4	96	48	0
TAP	71	192	5
STR	72	0	1
SCR	72	0	1	96	48	4
STR	72	0	7
SCL	72	0	7	96	48	4
TAP	72	192	2
TAP	72	192	6
TAP	72	288	0
TAP	73	0	1
TAP	73	0	7
TAP	73	96	4
TAP	73	96	5
TAP	73	192	0
TAP	73	192	6
STR	73	288	2
SCL	73	288	2	96	240	4
TAP	73	288	3
STR	74	288	3
SSR	74	288	3	96	192	7
TTP	76	0	5	E	0	M1
TTP	76	96	6	B	0	M1
TTP	76	192	2	B	0	M1
TTP	76	288	1	E	0	M1
TTP	77	0	0	C	0	M1
TTP	77	96	0	E	0	M1
TTP	77	192	1	B	0	M1
TTP	77	192	6	B	0	M1
TTP	78	0	6	E	0	M1
TTP	78	96	0	C	0	M1
TTP	78	192	2	E	0	M1
TTP	78	288	1	E	0	M1
TTP	78	288	7	E	0	M1
THO	79	0	0	192	C	0	M1
TTP	80	0	0	C	1	M1
TTP	80	0	1	B	0	M1
TTP	80	0	6	B	0	M1
XTP	80	192	1
XTP	80	192	6
XTP	80	240	1
XTP	80	240	6
XTP	80	288	1
XTP	80	288	6
TAP	81	0	2
TAP	81	0	4
TAP	81	96	3
TAP	81	96	5
TAP	81	192	2
TAP	81	192	6
TAP	81	288	1
TAP	81	288	5
TAP	82	0	2
HLD	82	0	3	96
TAP	82	96	0
HLD	82	192	4	96
TAP	82	192	5
TAP	82	288	7
TAP	83	0	0
TAP	83	0	1
TAP	83	48	0
TAP	83	48	1
TAP	83	96	2
TAP	83	96	7
BRK	83	192	0
BRK	83	192	5
TTP	84	0	3	E	0	M1
TTP	84	96	1	B	0	M1
TTP	84	96	2	E	0	M1
TTP	84	192	5	E	0	M1
TTP	84	288	6	B	0	M1
TTP	84	288	6	E	0	M1
TTP	85	0	0	C	0	M1
TTP	85	96	0	E	0	M1
TTP	85	96	0	B	0	M1
TTP	85	192	7	E	0	M1
TTP	85	288	0	C	0	M1
TTP	86	0	2	B	0	M1
TTP	86	0	3	B	0	M1
TTP	86	0	4	E	0	M1
TTP	86	192	5	B	0	M1
TTP	86	192	6	B	0	M1
TTP	86	192	7	E	0	M1
TAP	87	0	4
TAP	87	0	5
TAP	87	48	4
TAP	87	48	5
TAP	87	96	3
TAP	87	96	6
TAP	87	192	2
STR	87	192	4
SI_	87	192	4	96	48	7
TAP	88	0	1
TAP	88	48	1
TAP	88	96	4
TAP	88	144	4
TAP	88	192	3
TAP	88	240	3
TAP	88	288	6
TAP	88	336	6
TAP	89	0	2
TAP	89	48	2
TAP	89	96	7
TAP	89	144	7
TAP	89	192	0
TAP	89	240	0
TAP	89	288	5
TAP	89	336	5
TAP	90	0	1
TAP	90	48	1
TAP	90	96	3
TAP	90	144	3
TAP	90	192	1
TAP	90	240	1
TAP	90	288	3
TAP	90	336	3
TAP	91	0	0
TAP	91	48	0
TAP	91	96	7
TAP	91	144	7
TAP	91	192	0
TAP	91	240	0
TAP	91	288	7
TAP	91	336	7
TAP	92	0	1
TAP	92	48	1
TAP	92	96	5
TAP	92	144	5
TAP	92	192	3
TAP	92	240	3
TAP	92	288	7
TAP	92	336	7
TAP	93	0	2
TAP	93	48	2
TAP	93	96	6
TAP	93	144	6
TAP	93	192	0
TAP	93	240	0
TAP	93	288	4
TAP	93	336	4
TAP	94	0	3
TAP	94	48	3
TAP	94	96	6
TAP	94	144	6
TAP	94	192	4
TAP	94	240	4
TAP	94	288	6
TAP	94	336	6
TAP	95	0	3
TAP	95	48	3
TAP	95	96	7
TAP	95	144	7
TAP	95	192	0
TAP	95	240	0
TAP	95	288	4
TAP	95	336	4
BRK	96	0	3
BRK	96	0	5
BRK	96	96	1
BRK	96	96	3
BRK	96	192	5
BRK	96	192	7
BRK	96	288	1
BRK	96	288	6
HLD	97	0	2	96
HLD	97	96	3	96
HLD	97	192	4	96
TAP	97	288	5
HLD	98	0	6	96
HLD	98	96	4	96
HLD	98	192	3	96
TAP	98	288	2
STR	99	0	2
SI_	99	0	2	96	48	7
TAP	99	0	4
TAP	99	192	3
STR	99	192	5
SI_	99	192	5	96	48	0
TAP	100	0	2
STR	100	0	3
SCR	100	0	3	96	192	0
XTP	101	0	1
XTP	101	0	6
XTP	101	48	1
XTP	101	48	6
XTP	101	144	3
XTP	101	144	4
XTP	101	192	3
XTP	101	192	4
TTP	101	288	0	C	0	M1
TTP	101	288	1	B	0	M1
TTP	101	288	6	B	0	M1

T_REC_TAP	287
T_REC_BRK	22
T_REC_XTP	52
T_REC_HLD	35
T_REC_XHO	2
T_REC_STR	38
T_REC_BST	0
T_REC_XST	0
T_REC_TTP	92
T_REC_THO	3
T_REC_SLD	38
T_REC_ALL	569
T_NUM_TAP	469
T_NUM_BRK	22
T_NUM_HLD	40
T_NUM_SLD	38
T_NUM_ALL	569
T_JUDGE_TAP	491
T_JUDGE_HLD	107
T_JUDGE_SLD	38
T_JUDGE_ALL	636
TTM_EACHPAIRS	137
TTM_SCR_TAP	234500
TTM_SCR_BRK	57200
TTM_SCR_HLD	40000
TTM_SCR_SLD	57000
TTM_SCR_ALL	388700
TTM_SCR_S	374950
TTM_SCR_SS	386500
TTM_RAT_ACV	10056

