VERSION	0.00.00	1.03.00
FES_MODE	0
BPM_DEF	172.000	172.000	172.000	172.000
MET_DEF	4	4
RESOLUTION	384
CLK_DEF	384
COMPATIBLE_CODE	MA2

BPM	0	0	172.000
MET	0	0	4	4

THO	2	0	0	384	C	1	L1
TAP	4	0	1
TAP	4	96	1
TAP	4	192	0
TAP	4	192	1
TAP	5	0	6
TAP	5	96	6
TAP	5	192	6
TAP	5	192	7
TAP	6	0	0
TAP	6	96	0
TAP	6	192	7
TAP	6	288	7
TAP	7	0	0
TAP	7	0	7
TAP	7	96	0
TAP	7	96	7
XTP	7	192	1
XTP	7	192	6
TAP	8	0	6
TAP	8	96	6
TAP	8	192	6
TAP	8	192	7
TAP	9	0	1
TAP	9	96	1
TAP	9	192	0
TAP	9	192	1
TAP	10	0	7
TAP	10	96	7
TAP	10	192	0
TAP	10	288	0
XST	11	0	0
SXL	11	0	0	96	528	3
XST	11	0	7
SXR	11	0	7	96	528	4
XHO	13	0	5	96
TAP	13	192	4
TAP	13	288	4
TAP	14	0	3
TAP	14	96	3
TAP	14	192	2
TAP	14	192	4
TAP	15	0	1
TAP	15	96	2
TAP	15	192	3
TAP	15	288	4
TAP	16	0	5
TAP	16	96	6
XTP	16	192	4
XTP	16	192	5
XHO	17	0	2	96
TAP	17	192	3
TAP	17	288	3
TAP	18	0	4
TAP	18	96	4
TAP	18	192	3
TAP	18	192	5
TAP	19	0	6
TAP	19	96	5
TAP	19	192	4
TAP	19	288	3
TAP	20	0	2
TAP	20	96	1
XTP	20	192	2
XTP	20	192	3
XHO	21	0	4	96
TAP	21	192	5
TAP	21	288	4
TAP	22	0	3
TAP	22	96	2
TAP	22	192	2
TAP	22	192	3
TAP	23	0	1
TAP	23	96	2
TAP	23	192	3
TAP	23	288	4
TAP	24	0	5
TAP	24	96	5
XTP	24	192	4
XTP	24	192	6
TAP	25	0	3
TAP	25	96	3
TAP	25	192	2
TAP	25	288	3
TAP	26	0	4
TAP	26	96	5
TAP	26	192	4
TAP	26	192	5
TAP	27	0	2
TAP	27	96	2
TAP	27	192	1
TAP	27	288	1
TAP	28	0	0
XTP	28	96	0
XTP	28	96	7
XTP	28	192	1
XTP	28	192	6
STR	29	0	7
SI_	29	0	7	96	144	4
STR	30	0	3
SI_	30	0	3	96	144	0
STR	31	0	7
SCL	31	0	7	96	144	4
TAP	32	0	3
TAP	32	96	3
TAP	32	192	3
STR	33	0	2
SI_	33	0	2	96	144	7
STR	34	0	6
SI_	34	0	6	96	144	3
STR	35	0	2
SCL	35	0	2	96	144	7
TAP	36	0	6
TAP	36	96	6
TAP	36	192	6
TAP	37	0	5
TAP	37	96	5
TAP	37	192	4
TAP	37	288	4
TAP	38	0	3
TAP	38	96	3
TAP	38	192	2
TAP	38	288	2
TAP	39	0	1
TAP	39	96	1
TAP	39	192	0
TAP	39	288	0
XTP	40	0	0
XTP	40	0	7
XTP	40	96	0
XTP	40	96	7
BRK	40	192	1
BRK	40	192	6
HLD	41	0	6	96
TAP	41	96	7
HLD	41	192	1	96
TAP	41	288	0
STR	42	0	7
SCL	42	0	7	96	144	4
TAP	43	0	5
TAP	43	96	4
TAP	43	96	5
TAP	43	192	2
TAP	43	288	2
TAP	43	288	3
TAP	44	0	4
TAP	44	96	3
TAP	44	96	4
XTP	44	192	2
XTP	44	192	5
HLD	45	0	1	96
TAP	45	96	0
HLD	45	192	6	96
TAP	45	288	7
STR	46	0	0
SCR	46	0	0	96	144	3
TAP	47	0	2
TAP	47	96	2
TAP	47	96	3
TAP	47	192	5
TAP	47	288	4
TAP	47	288	5
TAP	48	0	3
TAP	48	96	2
TAP	48	192	1
TAP	48	288	0
TAP	49	0	0
TAP	49	0	7
TAP	49	96	1
TAP	49	96	6
BRK	49	192	2
BRK	49	192	5
TTP	50	0	3	B	0	L1
TTP	50	0	4	B	0	L1
TTP	50	192	2	B	0	L1
TTP	50	192	5	B	0	L1
TTP	51	0	1	B	0	L1
TTP	51	0	6	B	0	L1
TTP	51	192	0	B	0	L1
TTP	52	0	6	B	0	L1
TTP	52	192	4	B	0	L1
TTP	53	0	2	B	0	L1
TTP	53	192	0	B	0	L1
THO	54	0	0	768	C	1	L1
XTP	57	0	0
XTP	57	96	0
XTP	57	192	0
HLD	58	0	1	96
TAP	58	96	0
HLD	58	192	6	96
TAP	58	288	7
STR	59	0	7
SI_	59	0	7	96	144	3
TAP	60	0	5
TAP	60	96	4
TAP	60	96	5
TAP	60	192	2
TAP	60	288	2
TAP	60	288	3
TAP	61	0	5
TAP	61	96	4
TAP	61	96	5
XTP	61	192	3
XTP	61	192	6
HLD	62	0	6	96
TAP	62	96	7
HLD	62	192	1	96
TAP	62	288	0
STR	63	0	0
SI_	63	0	0	96	144	4
TAP	64	0	2
TAP	64	96	2
TAP	64	96	3
TAP	64	192	5
TAP	64	288	4
TAP	64	288	5
TAP	65	0	6
TAP	65	96	7
TAP	65	192	0
TAP	65	288	1
XTP	66	0	1
XTP	66	96	0
XTP	66	96	1
BRK	66	192	2
BRK	66	192	7
HLD	67	0	1	96
TAP	67	96	0
HLD	67	192	2	96
TAP	67	288	3
STR	68	0	1
SCL	68	0	1	96	144	6
TAP	69	0	5
TAP	69	96	4
TAP	69	96	5
TAP	69	192	6
TAP	69	288	6
TAP	69	288	7
TAP	70	0	1
TAP	70	96	0
TAP	70	96	1
XTP	70	192	2
XTP	70	192	7
HLD	71	0	6	96
TAP	71	96	7
HLD	71	192	5	96
TAP	71	288	4
STR	72	0	6
SCR	72	0	6	96	144	1
TAP	73	0	2
TAP	73	96	2
TAP	73	96	3
TAP	73	192	1
TAP	73	288	0
TAP	73	288	1
TAP	74	0	7
TAP	74	96	6
TAP	74	192	5
TAP	74	288	4
XTP	75	0	3
XTP	75	0	4
XTP	75	96	2
XTP	75	96	5
BRK	75	192	1
BRK	75	192	6
HLD	76	0	2	192
HLD	76	192	3	192
HLD	77	0	4	192
HLD	77	192	5	192
HLD	78	0	6	192
HLD	78	192	7	192
TAP	79	0	0
TAP	79	96	0
XTP	79	192	1
XTP	79	192	6
HLD	80	0	1	192
HLD	80	192	0	192
HLD	81	0	7	192
HLD	81	192	6	192
HLD	82	0	5	192
HLD	82	192	4	192
TAP	83	0	3
TAP	83	96	3
XTP	83	192	2
XTP	83	192	5
TAP	84	0	2
TAP	84	96	2
TAP	84	192	3
TAP	84	288	3
TAP	85	0	4
TAP	85	96	4
TAP	85	192	5
TAP	85	288	5
TAP	86	0	6
TAP	86	96	6
TAP	86	192	7
TAP	86	288	7
XTP	87	0	0
XTP	87	0	7
XTP	87	96	0
XTP	87	96	7
BRK	87	192	1
BRK	87	192	6
TAP	88	0	6
TAP	88	96	7
TAP	88	192	0
TAP	88	288	1
HLD	89	0	2	96
TAP	89	96	3
HLD	89	192	4	96
TAP	89	288	3
TAP	90	0	4
TAP	90	96	5
TAP	90	192	6
TAP	90	288	7
TAP	91	0	0
TAP	91	96	0
TAP	91	96	7
TAP	91	192	1
TAP	91	192	6
TAP	92	0	1
TAP	92	96	0
TAP	92	192	7
TAP	92	288	6
HLD	93	0	5	96
TAP	93	96	4
HLD	93	192	3	96
TAP	93	288	4
TAP	94	0	3
TAP	94	96	2
TAP	94	192	1
TAP	94	288	0
TAP	95	0	7
TAP	95	96	0
TAP	95	96	7
TAP	95	192	1
TAP	95	192	6
TAP	95	288	2
TAP	95	288	5
TAP	96	0	3
TAP	96	0	4
TAP	96	96	2
TAP	96	96	5
BRK	96	192	1
BRK	96	192	6
TAP	97	0	0
TAP	97	96	1
TAP	97	192	2
TAP	97	288	2
TAP	97	288	3
TAP	98	0	4
TAP	98	96	5
XTP	98	192	6
XTP	98	192	7
TAP	99	0	7
TAP	99	96	6
TAP	99	192	5
TAP	99	288	4
TAP	99	288	5
TAP	100	0	3
TAP	100	96	2
TAP	100	192	1
TAP	100	288	0
TAP	101	0	0
TAP	101	0	7
TAP	101	96	0
TAP	101	96	7
TAP	101	192	1
TAP	101	192	6
BRK	101	288	1
BRK	101	288	6

T_REC_TAP	242
T_REC_BRK	14
T_REC_XTP	42
T_REC_HLD	28
T_REC_XHO	3
T_REC_STR	12
T_REC_BST	0
T_REC_XST	2
T_REC_TTP	11
T_REC_THO	2
T_REC_SLD	14
T_REC_ALL	370
T_NUM_TAP	309
T_NUM_BRK	14
T_NUM_HLD	33
T_NUM_SLD	14
T_NUM_ALL	370
T_JUDGE_TAP	323
T_JUDGE_HLD	110
T_JUDGE_SLD	14
T_JUDGE_ALL	447
TTM_EACHPAIRS	66
TTM_SCR_TAP	154500
TTM_SCR_BRK	36400
TTM_SCR_HLD	33000
TTM_SCR_SLD	21000
TTM_SCR_ALL	244900
TTM_SCR_S	236200
TTM_SCR_SS	243500
TTM_RAT_ACV	10057

