VERSION	0.00.00	1.03.00
FES_MODE	0
BPM_DEF	172.000	172.000	172.000	172.000
MET_DEF	4	4
RESOLUTION	384
CLK_DEF	384
COMPATIBLE_CODE	MA2

BPM	0	0	172.000
MET	0	0	4	4

TAP	4	0	0
TAP	5	0	0
TAP	6	0	0
TAP	6	192	0
XTP	7	0	0
TAP	8	0	7
TAP	9	0	7
TAP	10	0	7
TAP	10	192	7
HLD	11	0	7	384
XTP	13	0	0
TAP	14	0	0
TAP	15	0	1
TAP	16	0	1
XTP	17	0	2
TAP	18	0	2
TAP	19	0	3
TAP	20	0	3
TAP	20	0	4
XTP	21	0	4
TAP	22	0	4
TAP	23	0	5
TAP	24	0	5
TAP	25	0	6
TAP	26	0	6
XTP	27	0	7
BRK	28	0	7
STR	29	0	0
SI_	29	0	0	96	288	3
STR	31	0	7
SI_	31	0	7	96	288	4
STR	33	0	3
SI_	33	0	3	96	288	0
STR	35	0	4
SI_	35	0	4	96	288	7
TAP	37	0	0
TAP	37	192	0
TAP	38	0	7
TAP	38	192	7
STR	39	0	0
SI_	39	0	0	96	288	4
TAP	41	0	5
TAP	41	192	5
HLD	42	0	5	192
TAP	43	0	6
TAP	43	192	6
XTP	44	0	6
TAP	45	0	7
TAP	45	192	7
HLD	46	0	7	192
TAP	47	0	0
TAP	47	0	7
TAP	47	192	0
TAP	47	192	7
STR	48	0	0
SI_	48	0	0	96	288	3
STR	48	0	7
SI_	48	0	7	96	288	4
TTP	50	0	3	B	0	L1
TTP	51	0	4	B	0	L1
TTP	52	0	2	B	0	L1
TTP	53	0	5	B	0	L1
THO	54	0	0	768	C	1	L1
TAP	58	0	0
TAP	58	96	0
TAP	58	192	0
HLD	59	0	0	192
HLD	59	0	7	192
TAP	60	0	1
TAP	60	192	1
XTP	61	0	1
TAP	62	0	2
TAP	62	96	2
TAP	62	192	2
HLD	63	0	2	192
HLD	63	0	3	192
TAP	64	0	4
TAP	64	192	4
HLD	65	0	3	192
HLD	65	0	4	192
XTP	66	0	4
XTP	66	96	4
XTP	66	192	4
TAP	67	0	5
TAP	67	96	5
TAP	67	192	5
HLD	68	0	4	192
HLD	68	0	5	192
TAP	69	0	6
TAP	69	96	6
TAP	69	192	6
XTP	70	0	6
XTP	70	0	7
TAP	71	0	7
TAP	71	96	7
TAP	71	192	7
HLD	72	0	0	192
HLD	72	0	7	192
TAP	73	0	0
TAP	73	0	7
TAP	73	192	0
TAP	73	192	7
STR	74	0	0
SI_	74	0	0	96	288	3
STR	74	0	7
SI_	74	0	7	96	288	4
TTP	76	0	3	B	0	L1
TTP	77	0	2	B	0	L1
TTP	78	0	1	B	0	L1
TTP	79	0	0	B	0	L1
TTP	80	0	7	B	0	L1
TTP	81	0	6	B	0	L1
TTP	82	0	5	B	0	L1
TTP	83	0	3	B	0	L1
TTP	83	0	4	B	0	L1
TTP	84	0	2	B	0	L1
TTP	84	0	5	B	0	L1
TTP	85	0	1	E	0	L1
TTP	85	0	7	E	0	L1
THO	86	0	0	384	C	1	L1
TAP	88	0	7
TAP	88	192	7
TAP	89	0	0
TAP	89	192	0
TAP	90	0	1
TAP	90	192	1
TAP	91	0	2
TAP	91	192	2
TAP	92	0	3
TAP	92	192	3
TAP	93	0	4
TAP	93	192	4
TAP	94	0	5
TAP	94	192	5
HLD	95	0	6	192
XTP	96	0	7
XTP	96	96	7
BRK	96	192	7
TAP	97	0	6
TAP	97	96	6
TAP	97	192	6
TAP	98	0	5
TAP	98	96	5
TAP	98	192	5
TAP	99	0	3
TAP	99	0	4
TAP	99	192	3
TAP	99	192	4
TAP	100	0	3
TAP	100	96	3
TAP	100	192	4
TAP	100	288	4
HLD	101	0	3	288

T_REC_TAP	85
T_REC_BRK	2
T_REC_XTP	14
T_REC_HLD	15
T_REC_XHO	0
T_REC_STR	9
T_REC_BST	0
T_REC_XST	0
T_REC_TTP	17
T_REC_THO	2
T_REC_SLD	9
T_REC_ALL	153
T_NUM_TAP	125
T_NUM_BRK	2
T_NUM_HLD	17
T_NUM_SLD	9
T_NUM_ALL	153
T_JUDGE_TAP	127
T_JUDGE_HLD	90
T_JUDGE_SLD	9
T_JUDGE_ALL	226
TTM_EACHPAIRS	15
TTM_SCR_TAP	62500
TTM_SCR_BRK	5200
TTM_SCR_HLD	17000
TTM_SCR_SLD	13500
TTM_SCR_ALL	98200
TTM_SCR_S	95100
TTM_SCR_SS	98000
TTM_RAT_ACV	10020

