VERSION	0.00.00	1.04.00
FES_MODE	0
BPM_DEF	160.000	160.000	160.000	160.000
MET_DEF	4	4
RESOLUTION	384
CLK_DEF	384
COMPATIBLE_CODE	MA2

BPM	0	0	160.000
MET	0	0	4	4

NMHLD	1	0	2	768
NMTAP	1	0	4
NMTAP	1	96	4
NMTAP	1	192	4
NMTAP	1	288	4
NMTAP	2	0	3
NMTAP	2	96	3
NMTAP	2	192	3
NMTAP	2	288	3
NMHLD	3	0	5	480
NMTAP	3	96	3
NMTAP	3	192	3
NMTAP	3	288	3
NMTAP	4	0	4
NMTAP	4	96	4
NMTAP	4	192	4
NMTAP	4	192	5
NMTAP	4	240	3
NMTAP	4	288	2
NMTAP	4	288	4
EXTAP	5	0	2
NMTAP	5	24	3
NMTAP	5	48	2
NMTAP	5	96	1
NMTAP	5	144	1
NMTAP	5	192	0
NMTAP	5	240	7
NMHLD	5	288	3	48
NMHLD	5	288	6	48
NMTAP	6	0	5
NMTAP	6	24	4
NMTAP	6	48	5
NMTAP	6	96	6
NMTAP	6	144	6
NMTAP	6	192	7
NMTAP	6	240	0
NMHLD	6	288	1	48
NMHLD	6	288	4	48
NMTAP	7	0	2
NMTAP	7	24	3
NMTAP	7	48	2
NMTAP	7	96	7
NMTAP	7	144	6
NMTAP	7	192	5
NMTAP	7	216	4
NMTAP	7	240	5
NMTAP	7	288	0
NMTAP	7	336	1
NMHLD	8	0	2	192
NMTAP	8	0	3
NMTTP	8	192	3	B	0	M1
NMTTP	8	192	4	B	0	M1
NMTTP	8	192	4	E	1	M1
NMTAP	8	288	0
NMTAP	8	288	7
EXTAP	9	0	1
NMTAP	9	0	5
NMTAP	9	48	2
NMTAP	9	72	3
NMTAP	9	120	5
NMTAP	9	168	2
NMTAP	9	192	3
NMTAP	9	240	6
NMTAP	9	288	2
NMTAP	9	312	4
NMTAP	9	336	2
NMTAP	9	360	4
NMTAP	10	0	1
NMTAP	10	24	3
NMTAP	10	48	1
NMTAP	10	72	3
NMSTR	10	96	2
NMSI_	10	96	2	96	48	7
NMTAP	10	120	3
NMTAP	10	144	1
BXTAP	10	288	0
NMTAP	11	0	2
NMTAP	11	0	6
NMTAP	11	48	5
NMTAP	11	72	4
NMTAP	11	120	2
NMTAP	11	168	5
NMTAP	11	192	4
NMTAP	11	240	1
NMTAP	11	288	0
NMTAP	11	312	7
NMTAP	11	336	0
NMTAP	11	360	7
NMTAP	12	0	1
NMTAP	12	24	0
NMTAP	12	48	1
NMTAP	12	72	0
NMSTR	12	96	2
BRSI_	12	96	2	96	48	7
NMTAP	12	120	0
NMTAP	12	144	1
NMTAP	12	288	0
NMTAP	12	288	6
BRHLD	13	0	2	576
BRTAP	13	0	4
NMSTR	13	96	0
NMSI_	13	96	0	96	48	3
NMTAP	13	144	0
NMSTR	13	288	0
BRSI_	13	288	0	96	48	5
NMTAP	13	336	0
NMSTR	14	96	0
NMSI_	14	96	0	96	48	4
NMTAP	14	144	0
CNSI_	14	240	4	0	48	2
CNSI_	14	288	2	0	48	7
NMTAP	15	0	0
NMTAP	15	48	0
NMTAP	15	96	1
NMSTR	15	96	5
NMSCR	15	96	5	96	48	0
NMTAP	15	144	2
NMTAP	15	144	4
EXTAP	15	288	1
EXTAP	15	288	7
NMTAP	16	0	4
NMTAP	16	0	6
NMTAP	16	48	4
NMTAP	16	48	6
NMTAP	16	96	3
NMSTR	16	96	5
BRSCR	16	96	5	96	48	0
NMTAP	16	144	2
NMTAP	16	144	4
BXTAP	16	288	7
NMHLD	17	0	1	48
NMHLD	17	0	5	48
NMTAP	17	96	2
NMTAP	17	120	4
NMTAP	17	144	2
NMTAP	17	168	4
NMTAP	17	192	3
NMTAP	17	216	4
NMTAP	17	240	3
NMTAP	17	264	4
NMHLD	17	288	1	96
NMTAP	18	0	4
NMTAP	18	24	2
NMTAP	18	48	4
NMTAP	18	72	2
NMTAP	18	96	5
NMTAP	18	120	3
NMTAP	18	144	5
NMTAP	18	168	3
NMTAP	18	192	4
NMTAP	18	216	3
NMTAP	18	240	4
NMTAP	18	264	3
NMHLD	18	288	6	96
NMSTR	19	0	0
NMSI_	19	0	0	96	48	5
NMSTR	19	48	1
NMSI_	19	48	1	96	48	4
EXTAP	19	96	0
EXTAP	19	144	1
BXTAP	19	192	6
EXTAP	19	240	6
NMSTR	19	288	0
BRSI_	19	288	0	96	48	5
NMSTR	19	336	1
BRSI_	19	336	1	96	48	4
EXTAP	20	0	0
EXTAP	20	48	1
BRTAP	20	96	7
NMTAP	20	144	7
NMSTR	20	192	0
NMSF_	20	192	0	96	48	4
NMTAP	20	240	1
EXTAP	20	288	0
BRTAP	21	0	2
BRTAP	21	0	6
NMTAP	21	48	6
NMTAP	21	96	3
NMTAP	21	120	4
NMTAP	21	144	3
NMTAP	21	168	4
NMSTR	21	192	2
NMSCR	21	192	2	96	48	5
NMTAP	21	216	3
NMTAP	21	240	1
EXTAP	21	288	6
NMTAP	22	0	7
NMTAP	22	24	0
NMTAP	22	48	7
NMTAP	22	72	0
NMTAP	22	96	6
NMTAP	22	120	7
NMTAP	22	144	6
NMTAP	22	168	7
NMSTR	22	192	5
BRSCL	22	192	5	96	48	2
NMTAP	22	216	7
NMTAP	22	240	6
EXTAP	22	288	1
NMSTR	23	0	0
NMSF_	23	0	0	96	48	4
NMSTR	23	192	7
BRSF_	23	192	7	96	48	3
EXTAP	24	0	0
EXTAP	24	0	6
NMTAP	24	96	1
NMTAP	24	96	5
NMTAP	24	144	2
NMTAP	24	168	3
NMTAP	24	216	5
NMTAP	24	240	4
NMSTR	24	288	2
NMSI_	24	288	2	96	48	7
NMSTR	24	288	6
NMSI_	24	288	6	96	48	3
NMTTP	25	0	0	C	1	M1
NMTTP	25	0	2	B	0	M1
NMTTP	25	0	2	A	0	M1
NMTTP	25	0	6	B	0	M1
NMTTP	25	0	6	A	0	M1
EXTAP	25	192	7
NMTAP	25	288	0
NMHLD	25	288	6	96
NMTAP	26	0	3
NMTAP	26	64	2
NMTAP	26	64	5
NMTAP	26	128	1
NMTAP	26	128	4
NMSTR	26	192	0
NMSI_	26	192	0	96	48	5
NMHLD	26	192	3	96
NMSTR	27	0	4
NMSCL	27	0	4	96	48	1
NMTAP	27	0	6
NMSTR	27	192	3
NMSCR	27	192	3	96	48	6
EXTAP	28	0	0
EXTAP	28	32	1
EXTAP	28	64	2
EXTAP	28	96	7
EXTAP	28	128	6
EXTAP	28	160	5
EXTAP	28	192	3
EXTAP	28	192	4
NMSTR	28	288	1
NMSCR	28	288	1	96	48	3
NMSTR	29	0	7
NMSCL	29	0	7	96	48	5
NMSTR	29	96	4
BRSI_	29	96	4	96	48	0
EXTAP	29	192	4
NMSTR	29	288	6
NMSCL	29	288	6	96	48	4
NMSTR	30	0	0
NMSCR	30	0	0	96	48	2
NMSTR	30	96	3
BRSI_	30	96	3	96	48	7
EXTAP	30	192	3
EXTAP	30	288	0
EXTAP	30	288	6
NMHLD	31	0	1	64
NMTAP	31	64	3
NMTAP	31	96	2
NMTAP	31	128	4
NMTAP	31	160	3
NMHLD	31	192	5	96
NMTAP	31	288	4
NMTAP	32	0	2
NMTAP	32	32	3
NMTAP	32	64	1
NMTAP	32	96	5
NMTAP	32	128	4
NMTAP	32	160	6
BRTAP	32	192	0
NMSTR	32	288	0
NMSXR	32	288	0	96	192	5
NMSTR	32	288	1
NMSUR	32	288	1	96	192	4
NMSTR	33	288	6
NMSUL	33	288	6	96	192	3
NMTAP	33	288	7
EXTAP	34	0	0
EXTAP	34	72	1
EXTAP	34	144	2
EXHLD	34	192	2	96
NMSTR	34	288	3
NMSCR	34	288	3	96	96	7
NMSTR	35	0	7
BRSLL	35	0	7	96	96	3
NMTAP	35	96	3
NMTAP	35	192	0
NMTAP	35	288	1
NMSTR	35	288	7
BRSLR	35	288	7	96	96	3
NMSTR	36	0	3
NMSLR	36	0	3	96	96	7
NMSTR	36	96	7
BRSCL	36	96	7	96	96	3
NMTAP	36	192	3
BRTAP	36	288	7
NMTAP	37	0	1
NMTAP	37	32	3
NMTAP	37	64	2
NMTAP	37	96	5
NMTAP	37	128	3
NMTAP	37	160	4
EXSTR	37	192	2
NMSI_	37	192	2	96	48	7
EXTAP	37	224	2
NMTAP	37	288	3
NMTAP	38	0	6
NMTAP	38	32	4
NMTAP	38	64	5
NMTAP	38	96	2
NMTAP	38	128	4
NMTAP	38	160	3
EXSTR	38	192	5
BRSI_	38	192	5	96	48	0
EXTAP	38	224	5
EXTAP	38	288	1
NMSTR	39	0	2
NMSCR	39	0	2	96	96	6
NMSTR	39	96	6
BRSLL	39	96	6	96	96	2
NMTAP	39	192	0
NMSTR	39	288	6
NMSLR	39	288	6	96	96	2
NMSTR	40	0	2
BRSCL	40	0	2	96	96	6
NMTAP	40	96	6
NMTAP	40	192	2
NMSTR	40	288	0
NMSV_	40	288	0	96	48	3
NMSV_	40	288	0	96	48	5
BRSTR	41	0	0
NMSXL	41	0	0	96	672	5
NMTTP	41	1	0	C	1	M1
NMHLD	43	0	4	384
NMTTP	44	0	5	E	0	M1
NMTTP	44	32	6	E	0	M1
NMTTP	44	64	7	E	0	M1
NMTTP	44	96	0	E	0	M1
NMTTP	44	128	1	E	0	M1
NMTTP	44	160	2	E	0	M1
NMTTP	44	192	3	E	0	M1
BXTAP	44	192	7
NMHLD	45	0	0	1152
NMTAP	45	0	6
NMTHO	45	192	0	384	C	0	M1
NMSTR	47	0	7
NMSCR	47	0	7	96	96	3
CNSCR	47	192	3	0	96	6
CNSI_	47	288	6	0	96	1
CNSI_	48	0	1	0	96	5
CNSI_	48	96	5	0	96	2
NMTAP	48	192	0
NMTAP	48	288	1
NMHLD	49	0	2	192
NMTAP	49	0	3
NMSTR	49	192	4
NMSCR	49	192	4	96	96	7
NMTAP	49	224	3
NMTAP	49	256	3
EXTAP	49	288	2
NMHLD	50	0	3	384
CNSI_	50	0	7	0	96	2
BRTAP	50	192	2
NMHLD	51	0	0	192
EXTAP	51	192	1
EXTAP	51	204	2
EXHLD	51	216	3	168
NMSTR	52	0	4
NMSUR	52	0	4	96	192	2
EXTAP	52	128	3
EXTAP	52	160	3
EXTAP	52	192	3
NMTAP	53	0	4
NMHLD	53	0	5	384
BRTAP	53	192	0
NMHLD	54	0	7	192
EXTAP	54	192	6
EXTAP	54	204	5
EXHLD	54	216	4	168
NMSTR	55	0	0
BRSI_	55	0	0	96	96	2
NMSCL	55	0	0	96	96	6
CNSCR	55	192	2	0	96	4
CNSI_	55	192	6	0	96	4
NMHLD	56	0	3	288
NMTAP	56	0	5
NMTAP	56	288	4
NMTAP	57	0	0
NMTAP	57	0	5
NMSTR	57	64	6
NMSI_	57	64	6	96	32	4
NMSTR	57	96	7
NMSI_	57	96	7	96	32	3
NMTAP	57	160	6
NMTAP	57	192	7
NMSTR	57	256	0
NMSI_	57	256	0	96	32	4
NMSTR	57	288	1
NMSI_	57	288	1	96	24	3
NMTAP	57	352	0
NMTAP	58	0	1
NMSTR	58	64	6
NMSCL	58	64	6	96	32	3
NMSTR	58	96	7
NMSCR	58	96	7	96	32	2
NMTAP	58	160	6
NMSTR	58	192	7
NMSF_	58	192	7	96	48	3
EXTAP	58	288	7
BRTAP	59	0	1
BRTAP	59	0	5
NMTAP	59	48	2
NMTAP	59	72	3
NMTAP	59	96	1
NMTAP	59	120	4
NMTAP	59	144	3
NMTAP	59	168	6
NMTAP	59	192	4
NMTAP	59	216	5
NMTAP	59	240	4
NMTAP	59	288	2
NMTAP	59	288	7
NMTAP	59	336	3
NMTAP	59	336	6
NMTAP	60	0	4
NMSTR	60	0	5
NMSCL	60	0	5	96	48	2
NMTAP	60	48	0
NMTAP	60	96	3
NMTAP	60	96	5
NMTAP	60	144	1
NMSTR	60	192	0
NMSI_	60	192	0	96	48	3
NMSI_	60	192	0	96	48	5
NMTAP	60	240	1
NMTAP	60	240	7
BRTAP	60	288	0
NMTAP	61	0	2
NMTAP	61	0	7
NMSTR	61	64	1
NMSI_	61	64	1	96	32	3
NMSTR	61	96	0
NMSI_	61	96	0	96	32	4
NMTAP	61	160	1
NMTAP	61	192	0
NMSTR	61	256	7
NMSI_	61	256	7	96	32	3
NMSTR	61	288	6
NMSI_	61	288	6	96	24	4
NMTAP	61	352	7
NMTAP	62	0	6
NMSTR	62	64	1
NMSCR	62	64	1	96	32	4
NMSTR	62	96	0
NMSCL	62	96	0	96	32	5
NMTAP	62	160	1
NMSTR	62	192	0
NMSF_	62	192	0	96	48	4
EXTAP	62	288	0
BRTAP	63	0	2
BRTAP	63	0	6
NMTAP	63	48	5
NMTAP	63	72	4
NMTAP	63	96	5
NMTAP	63	120	3
NMTAP	63	144	4
NMTAP	63	168	2
NMTAP	63	192	3
NMTAP	63	216	1
NMTAP	63	240	4
NMTAP	63	264	0
NMTAP	63	288	5
NMTAP	63	312	7
NMTAP	63	336	6
NMTAP	63	360	7
NMSTR	64	0	5
NMSI_	64	0	5	96	48	0
NMTAP	64	48	4
NMTAP	64	48	6
EXTAP	64	96	5
NMTAP	64	144	3
NMSTR	64	192	1
BRSI_	64	192	1	96	48	4
NMTAP	64	216	7
NMTAP	64	240	1
NMTAP	64	264	7
BRTAP	64	288	1
NMSTR	65	0	6
NMSCL	65	0	6	96	96	3
NMTAP	65	64	3
NMSTR	65	96	3
NMSCL	65	96	3	96	96	0
NMTAP	65	160	0
NMSTR	65	192	0
NMSCL	65	192	0	96	96	5
NMTAP	65	256	5
NMSTR	65	288	5
NMSCL	65	288	5	96	96	2
NMTAP	65	352	2
NMSTR	66	0	2
NMSUL	66	0	2	96	96	6
NMTAP	66	64	6
NMSTR	66	96	6
NMSUL	66	96	6	96	96	2
NMTAP	66	160	2
NMTAP	66	192	2
NMTAP	66	256	0
NMTAP	66	288	0
NMTAP	66	352	1
NMTAP	66	352	7
NMTAP	67	0	1
NMHLD	67	0	7	96
NMTAP	67	64	4
NMTAP	67	96	4
NMTAP	67	160	2
NMHLD	67	192	1	96
NMTAP	67	192	3
NMTAP	67	256	0
NMTAP	67	288	0
NMTAP	67	352	1
NMTAP	67	352	7
NMSTR	68	0	2
NMSI_	68	0	2	96	48	7
NMSTR	68	0	6
NMSI_	68	0	6	96	48	3
NMTAP	68	32	2
NMTAP	68	32	6
NMTAP	68	64	2
NMTAP	68	64	6
BRTAP	68	96	2
BRTAP	68	96	6
NMSTR	68	192	1
NMSI_	68	192	1	96	48	4
NMSTR	68	192	5
NMSI_	68	192	5	96	48	0
NMTAP	68	224	1
NMTAP	68	224	5
NMTAP	68	256	1
NMTAP	68	256	5
BRTAP	68	288	1
BRTAP	68	288	5
NMSTR	69	0	2
NMSCL	69	0	2	96	96	7
NMTAP	69	64	7
NMSTR	69	96	7
NMSCL	69	96	7	96	96	4
NMTAP	69	160	4
NMSTR	69	192	4
NMSCL	69	192	4	96	96	1
NMTAP	69	256	1
NMSTR	69	288	1
NMSCL	69	288	1	96	96	6
NMTAP	69	352	6
NMSTR	70	0	6
NMSUL	70	0	6	96	96	2
NMTAP	70	64	2
NMSTR	70	96	2
NMSUL	70	96	2	96	96	6
NMTAP	70	160	6
NMSTR	70	192	6
NMSCL	70	192	6	96	96	3
NMTAP	70	256	3
NMTAP	70	288	3
NMTAP	70	352	1
NMSTR	71	0	1
BRSI_	71	0	1	96	48	5
NMSTR	71	96	0
BRSI_	71	96	0	96	48	4
NMTAP	71	96	1
NMTAP	71	192	0
NMSTR	71	192	7
NMSI_	71	192	7	96	48	3
NMSTR	71	288	0
BRSCL	71	288	0	96	48	5
NMSTR	71	288	7
BRSCR	71	288	7	96	48	2
BRTAP	72	0	0
BRTAP	72	0	7
NMTTP	72	96	0	C	1	M1
NMTTP	72	96	3	B	0	M1
NMTTP	72	96	4	B	0	M1
NMTAP	72	192	0
NMTAP	72	192	7
NMTAP	72	288	1
NMTAP	72	288	6
NMSTR	73	0	0
NMSI_	73	0	0	96	72	5
NMSTR	73	0	7
NMSCL	73	0	7	96	72	5
CNSI_	73	168	5	0	72	1
CNSI_	73	168	5	0	72	1
CNSI_	73	240	1	0	72	4
CNSCR	73	240	1	0	72	3
NMSTR	74	0	0
NMSCR	74	0	0	96	72	2
NMSTR	74	0	7
NMSI_	74	0	7	96	72	2
CNSI_	74	168	2	0	72	6
CNSI_	74	168	2	0	72	6
CNSI_	74	240	6	0	72	3
CNSCL	74	240	6	0	72	4
NMTHO	75	0	0	384	C	0	M1
NMSTR	76	192	0
NMSI_	76	192	0	96	48	3
NMSTR	76	192	7
NMSI_	76	192	7	96	48	4
NMTAP	76	240	1
NMTAP	76	240	6
NMTAP	76	288	0
NMTAP	76	288	7
BRTAP	77	0	2
BRTAP	77	0	5
NMTAP	77	96	1
NMTAP	77	96	3
NMTAP	77	144	0
NMTAP	77	192	1
NMTAP	77	192	3
NMTAP	77	240	7
NMTAP	77	288	1
NMTAP	77	288	3
NMTAP	77	336	6
NMTAP	78	0	2
NMTAP	78	24	3
NMTAP	78	48	1
NMTAP	78	96	5
NMTAP	78	120	4
NMTAP	78	144	6
NMSTR	78	192	1
BRSLR	78	192	1	96	96	0
NMTAP	78	240	1
NMTAP	78	288	7
NMTAP	78	336	6
CNSI_	79	0	0	0	48	4
NMTTP	79	0	0	C	1	M1
BRTAP	79	0	5
NMTAP	79	96	6
NMTAP	79	96	7
NMTAP	79	144	5
NMTAP	79	192	0
NMTAP	79	192	1
NMTAP	79	240	2
NMSTR	79	288	3
NMSI_	79	288	3	96	48	1
NMTAP	79	336	4
EXTAP	80	0	3
NMTAP	80	0	5
CNSI_	80	48	1	0	72	7
CNSI_	80	120	7	0	48	5
NMSTR	80	192	4
NMSF_	80	192	4	96	48	0
NMTAP	80	240	3
NMTAP	80	240	5
NMTAP	80	288	4
BRTAP	81	0	2
BRTAP	81	0	6
NMTAP	81	48	5
NMTAP	81	72	4
NMTAP	81	96	6
NMTAP	81	144	0
NMTAP	81	144	7
BRTAP	81	192	1
BRTAP	81	192	5
NMTAP	81	240	2
NMTAP	81	264	3
NMTAP	81	288	1
NMTAP	81	336	0
NMTAP	81	336	7
BRTAP	82	0	6
NMTAP	82	24	4
NMTAP	82	48	5
NMTAP	82	72	2
NMTAP	82	96	4
NMTAP	82	120	3
NMTAP	82	144	6
NMTAP	82	168	4
NMSTR	82	192	5
NMSI_	82	192	5	96	48	3
NMTAP	82	240	6
NMSTR	82	288	1
NMSI_	82	288	1	96	48	5
NMSTR	82	288	5
NMSI_	82	288	5	96	48	7
NMTAP	82	336	0
BRTAP	83	0	1
BRTAP	83	0	5
NMTAP	83	96	0
NMTAP	83	96	1
NMTAP	83	144	2
NMTAP	83	144	7
BRTAP	83	192	4
BRTAP	83	192	5
NMTAP	83	240	6
NMTAP	83	264	7
NMTAP	83	288	5
NMTAP	83	336	3
NMTAP	83	336	4
BRTAP	84	0	1
NMTAP	84	24	3
NMTAP	84	48	2
NMTAP	84	72	5
NMTAP	84	96	3
NMTAP	84	120	4
NMTAP	84	144	1
NMTAP	84	168	3
NMSTR	84	192	2
NMSI_	84	192	2	96	48	4
NMTAP	84	240	1
NMSTR	84	288	2
NMSI_	84	288	2	96	48	0
NMSTR	84	288	6
NMSI_	84	288	6	96	48	2
NMTAP	84	336	7
BRTAP	85	0	2
BRTAP	85	0	6
NMTAP	85	96	3
NMTAP	85	96	7
NMTAP	85	144	0
NMTAP	85	144	4
NMSTR	85	192	1
NMSI_	85	192	1	96	48	4
NMSTR	85	192	5
NMSI_	85	192	5	96	48	0
NMTAP	85	288	1
NMTAP	85	288	5
NMSTR	86	0	3
NMSCR	86	0	3	96	48	6
NMTAP	86	0	7
NMTAP	86	48	2
NMTAP	86	96	1
NMTAP	86	144	0
NMSTR	86	192	7
NMSCR	86	192	7	96	48	2
NMTAP	86	240	6
NMTAP	86	288	5
NMTAP	86	336	4
NMTAP	87	0	3
NMTAP	87	0	4
NMTAP	87	48	3
NMTAP	87	72	4
NMSTR	87	96	2
NMSI_	87	96	2	96	48	7
NMSTR	87	144	3
NMSI_	87	144	3	96	48	6
NMTAP	87	192	2
NMTAP	87	240	3
EXTAP	87	288	0
NMTAP	87	336	1
NMTAP	87	336	7
NMTAP	88	0	2
NMTAP	88	0	6
NMTAP	88	48	4
NMTAP	88	64	3
NMTAP	88	80	5
NMTAP	88	96	4
NMTAP	88	144	1
NMTAP	88	144	7
NMTAP	88	192	0
NMTAP	88	192	6
NMTAP	88	240	2
NMTAP	88	264	4
NMSTR	88	288	0
NMSI_	88	288	0	96	48	4
NMSSL	88	288	0	96	48	4
NMTAP	88	312	6
NMTAP	88	336	1
NMTAP	88	360	5
BRTAP	89	0	0

T_REC_TAP	392
T_REC_BRK	36
T_REC_XTP	46
T_REC_BXX	4
T_REC_HLD	25
T_REC_XHO	3
T_REC_BHO	1
T_REC_BXH	0
T_REC_STR	106
T_REC_BST	1
T_REC_XST	2
T_REC_XBS	0
T_REC_TTP	20
T_REC_THO	2
T_REC_SLD	91
T_REC_BSL	22
T_REC_ALL	751
T_NUM_TAP	566
T_NUM_BRK	64
T_NUM_HLD	30
T_NUM_SLD	91
T_NUM_ALL	751
T_JUDGE_TAP	607
T_JUDGE_HLD	156
T_JUDGE_SLD	113
T_JUDGE_ALL	876
TTM_EACHPAIRS	100
TTM_SCR_TAP	283000
TTM_SCR_BRK	166400
TTM_SCR_HLD	30000
TTM_SCR_SLD	136500
TTM_SCR_ALL	615900
TTM_SCR_S	591250
TTM_SCR_SS	609500
TTM_RAT_ACV	10105

