VERSION	0.00.00	1.04.00
FES_MODE	0
BPM_DEF	160.000	160.000	160.000	160.000
MET_DEF	4	4
RESOLUTION	384
CLK_DEF	384
COMPATIBLE_CODE	MA2

BPM	0	0	160.000
MET	0	0	4	4

NMTAP	1	0	3
NMTAP	1	96	3
NMTAP	1	192	3
NMTAP	1	288	3
NMTAP	2	0	4
NMTAP	2	96	4
NMTAP	2	192	4
NMTAP	2	288	4
NMTAP	3	0	2
NMTAP	3	96	2
NMTAP	3	192	2
NMTAP	3	288	2
NMTAP	4	0	5
NMTAP	4	96	5
NMTAP	4	192	5
NMTAP	4	288	3
NMTAP	4	288	5
NMHLD	5	0	2	384
NMTAP	5	96	3
NMTAP	5	192	3
NMTAP	5	288	3
NMHLD	6	0	5	384
NMTAP	6	96	4
NMTAP	6	192	4
NMTAP	6	288	4
NMHLD	7	0	1	288
NMTAP	7	96	3
NMTAP	7	192	3
NMSTR	7	288	3
NMSCL	7	288	3	96	192	4
NMTAP	8	288	2
NMTAP	8	288	5
BRTAP	9	0	1
NMTAP	9	48	1
NMTAP	9	96	0
NMTAP	9	192	6
NMTAP	9	240	6
NMTAP	9	288	7
NMTAP	10	0	2
NMTAP	10	48	2
NMTAP	10	96	3
NMTAP	10	192	2
NMTAP	10	192	4
NMTAP	10	288	1
NMTAP	10	288	5
NMTAP	11	0	6
NMTAP	11	48	6
NMTAP	11	96	7
NMTAP	11	192	1
NMTAP	11	240	1
NMTAP	11	288	0
NMTAP	12	0	5
NMTAP	12	48	5
NMTAP	12	96	4
NMTAP	12	192	3
NMTAP	12	192	5
NMHLD	12	288	2	96
NMTAP	12	288	6
NMTAP	13	0	0
NMTAP	13	96	1
NMHLD	13	96	5	96
NMTAP	13	192	7
NMHLD	13	288	0	96
NMTAP	13	288	6
NMTAP	14	0	3
NMTAP	14	96	1
NMHLD	14	96	7	96
NMTAP	14	192	4
NMTAP	14	288	3
NMTAP	14	288	5
NMTAP	15	0	2
NMTAP	15	48	2
NMTAP	15	96	3
NMTAP	15	144	3
NMTAP	15	192	1
NMTAP	15	288	0
NMTAP	15	288	7
NMTAP	16	0	6
NMTAP	16	48	6
NMTAP	16	96	4
NMTAP	16	144	4
NMHLD	16	192	5	96
BRTAP	16	288	0
NMTAP	17	0	6
NMTAP	17	48	6
NMTAP	17	96	7
NMTAP	17	192	1
NMTAP	17	240	1
NMTAP	17	288	0
NMTAP	18	0	5
NMTAP	18	48	5
NMTAP	18	96	4
NMTAP	18	144	4
NMTAP	18	192	3
NMTAP	18	288	2
NMTAP	18	288	4
NMTAP	19	0	1
NMTAP	19	48	1
NMTAP	19	96	0
NMTAP	19	192	1
NMTAP	19	192	7
NMTAP	19	288	6
NMTAP	20	0	5
NMTAP	20	0	7
NMTAP	20	96	0
NMTAP	20	192	1
NMTAP	20	192	7
NMTAP	20	288	2
NMTAP	20	288	6
NMTAP	21	0	2
NMTAP	21	48	2
NMTAP	21	96	0
NMTAP	21	144	1
NMTAP	21	192	7
NMTAP	21	288	0
NMTAP	21	288	6
NMTAP	22	0	5
NMTAP	22	48	5
NMTAP	22	96	7
NMTAP	22	144	6
NMTAP	22	192	0
NMTAP	22	288	1
NMTAP	22	288	7
NMHLD	23	0	2	96
NMTAP	23	0	3
NMTAP	23	96	7
NMTAP	23	192	4
NMHLD	23	192	5	96
NMTAP	23	288	0
NMTAP	24	0	0
NMTAP	24	0	1
NMTAP	24	96	2
NMTAP	24	96	3
NMTAP	24	192	4
NMTAP	24	192	5
NMTAP	24	288	6
NMTAP	24	288	7
BRSTR	25	0	0
NMSCR	25	0	0	96	120	5
BRTAP	25	0	5
NMTAP	25	288	0
NMTAP	25	288	6
NMTAP	26	0	2
NMSTR	26	0	7
NMSCL	26	0	7	96	120	2
NMTAP	26	288	0
NMTAP	26	288	7
NMSTR	27	0	1
NMSCR	27	0	1	96	120	6
NMTAP	27	0	5
NMTAP	27	288	1
NMTAP	27	288	7
NMTAP	28	0	2
NMSTR	28	0	6
NMSCL	28	0	6	96	120	1
NMTAP	28	288	0
NMTAP	28	288	6
NMSTR	29	0	1
NMSXR	29	0	1	96	192	5
NMTAP	29	0	4
NMTAP	30	0	3
NMSTR	30	0	6
NMSXL	30	0	6	96	192	2
NMSTR	31	0	1
NMSXL	31	0	1	96	192	4
NMTAP	31	0	3
NMTAP	32	0	4
NMSTR	32	0	6
NMSXR	32	0	6	96	192	3
BRTAP	33	0	0
BRTAP	33	0	1
NMTAP	33	64	1
NMTAP	33	96	0
NMTAP	33	192	2
NMTAP	33	192	7
NMTAP	33	288	6
NMTAP	34	0	6
NMTAP	34	0	7
NMTAP	34	64	6
NMTAP	34	96	7
NMTAP	34	192	0
NMTAP	34	192	5
NMTAP	34	288	1
NMHLD	35	0	2	144
NMTAP	35	72	0
NMTAP	35	144	7
NMHLD	35	192	7	144
NMTAP	35	264	0
NMTAP	35	336	1
NMHLD	36	0	1	72
NMTAP	36	72	0
NMTAP	36	144	1
NMTAP	36	144	7
NMTAP	36	192	1
NMTAP	36	192	7
NMTAP	36	288	6
NMTAP	37	0	6
NMTAP	37	0	7
NMTAP	37	64	6
NMTAP	37	96	7
NMTAP	37	192	0
NMTAP	37	192	5
NMTAP	37	288	1
NMTAP	38	0	0
NMTAP	38	0	1
NMTAP	38	64	1
NMTAP	38	96	0
NMTAP	38	192	2
NMTAP	38	192	7
NMTAP	38	288	3
NMTAP	39	0	4
NMSTR	39	0	5
NMSI_	39	0	5	96	48	7
NMSTR	39	192	2
NMSI_	39	192	2	96	48	0
NMTAP	39	192	3
NMHLD	40	0	6	96
NMTAP	40	0	7
NMHLD	40	96	4	96
NMHLD	40	192	2	96
NMHLD	40	288	0	96
NMTTP	41	0	0	C	1	M1
NMTTP	41	0	3	B	0	M1
NMTTP	41	0	4	B	0	M1
NMSTR	43	0	0
NMSCR	43	0	0	96	288	3
NMSTR	44	0	7
NMSCL	44	0	7	96	288	4
NMSTR	45	0	3
NMSCL	45	0	3	96	288	0
NMSTR	46	0	4
NMSCR	46	0	4	96	288	7
NMTTP	47	0	1	E	0	M1
NMTTP	47	96	2	B	0	M1
NMTTP	47	96	3	E	0	M1
NMTTP	47	192	7	E	0	M1
NMTTP	47	288	5	B	0	M1
NMTTP	47	288	5	E	0	M1
NMTTP	48	0	2	E	0	M1
NMTTP	48	96	6	E	0	M1
NMTTP	48	192	0	C	1	M1
EXHLD	49	0	1	384
NMTAP	49	192	0
NMTAP	49	256	7
NMTAP	49	320	6
NMHLD	50	0	6	384
NMTAP	50	192	7
NMTAP	50	256	0
NMTAP	50	320	1
NMHLD	51	0	1	192
NMTAP	51	192	3
NMTAP	51	256	4
NMTAP	51	320	5
NMTAP	52	0	5
NMTAP	52	64	4
NMTAP	52	128	3
NMTAP	52	192	2
NMTAP	52	192	5
NMHLD	53	0	6	384
NMTAP	53	192	4
NMTAP	53	256	3
NMTAP	53	320	2
NMHLD	54	0	1	192
NMTAP	54	192	2
NMTAP	54	256	3
NMTAP	54	320	4
NMSTR	55	0	2
NMSXL	55	0	2	96	288	0
NMSTR	55	0	5
NMSXR	55	0	5	96	288	7
NMTAP	56	192	0
NMTAP	56	192	7
NMTAP	56	288	0
NMTAP	56	288	7
BRTAP	57	0	0
BRTAP	57	0	6
NMTAP	57	96	2
NMTAP	57	96	3
NMTAP	57	192	4
NMTAP	57	192	6
NMTAP	57	288	0
NMTAP	57	288	1
NMTAP	58	0	6
NMTAP	58	0	7
NMTAP	58	96	1
NMTAP	58	96	3
NMTAP	58	192	4
NMTAP	58	192	5
NMTAP	58	288	2
NMTAP	58	288	7
NMSTR	59	0	0
NMSUR	59	0	0	96	48	4
NMSTR	59	0	1
NMSCR	59	0	1	96	48	4
NMSTR	59	192	6
NMSCL	59	192	6	96	48	3
NMSTR	59	192	7
NMSUL	59	192	7	96	48	3
NMSTR	60	0	0
NMSCL	60	0	0	96	48	5
NMSTR	60	0	1
NMSV_	60	0	1	96	48	4
BRTAP	60	192	2
BRTAP	60	192	6
NMTAP	61	0	1
NMTAP	61	0	7
NMTAP	61	96	4
NMTAP	61	96	5
NMTAP	61	192	1
NMTAP	61	192	3
NMTAP	61	288	6
NMTAP	61	288	7
NMTAP	62	0	0
NMTAP	62	0	1
NMTAP	62	96	4
NMTAP	62	96	6
NMTAP	62	192	2
NMTAP	62	192	3
NMTAP	62	288	1
NMTAP	62	288	4
NMSTR	63	0	2
NMSCL	63	0	2	96	48	7
NMSTR	63	0	3
NMSUL	63	0	3	96	48	6
NMSTR	63	192	4
NMSUR	63	192	4	96	48	1
NMSTR	63	192	5
NMSCR	63	192	5	96	48	0
NMTAP	64	0	2
NMTAP	64	0	3
NMTAP	64	96	2
NMTAP	64	96	3
NMTAP	64	192	0
NMTAP	64	192	1
BRTAP	64	288	2
BRTAP	64	288	7
NMSTR	65	0	6
NMSI_	65	0	6	96	48	3
NMSTR	65	96	0
NMSI_	65	96	0	96	48	4
NMTAP	65	192	5
NMTAP	65	288	3
NMTAP	65	288	5
NMSTR	66	0	1
NMSI_	66	0	1	96	48	4
NMSTR	66	96	7
NMSI_	66	96	7	96	48	3
NMTAP	66	192	2
NMTAP	66	288	2
NMTAP	66	288	4
NMSTR	67	0	5
NMSI_	67	0	5	96	48	0
NMSTR	67	96	3
NMSI_	67	96	3	96	48	7
NMTAP	67	192	6
NMSTR	67	288	6
NMSUL	67	288	6	96	192	3
EXSTR	67	288	7
NMSXL	67	288	7	96	192	2
NMTAP	68	288	1
NMTAP	68	288	4
NMSTR	69	0	0
NMSI_	69	0	0	96	48	4
NMSTR	69	96	5
NMSI_	69	96	5	96	48	1
NMTAP	69	192	2
NMTAP	69	288	0
NMTAP	69	288	3
NMSTR	70	0	7
NMSI_	70	0	7	96	48	3
NMSTR	70	96	2
NMSI_	70	96	2	96	48	6
NMTAP	70	192	5
NMTAP	70	288	4
NMTAP	70	288	7
NMTAP	71	0	5
NMTAP	71	0	6
NMTAP	71	96	3
NMTAP	71	96	4
NMTAP	71	192	1
NMTAP	71	192	2
NMTAP	71	288	0
NMTAP	71	288	7
NMTAP	72	0	4
NMTAP	72	0	6
NMTAP	72	96	3
NMTAP	72	96	4
NMTAP	72	192	1
NMTAP	72	192	3
NMTAP	72	288	0
NMTAP	72	288	7
NMHLD	73	0	1	384
NMTAP	73	0	6
NMTTP	73	192	2	A	0	M1
NMTTP	73	192	2	D	0	M1
NMTTP	73	192	3	D	0	M1
NMHLD	74	0	6	384
NMTTP	74	192	5	A	0	M1
NMTTP	74	192	5	D	0	M1
NMTTP	74	192	6	D	0	M1
NMSTR	75	0	0
NMSCL	75	0	0	96	48	7
NMSCR	75	0	0	96	48	1
CNSI_	75	144	1	0	192	6
CNSI_	75	144	7	0	192	2
CNSI_	75	336	2	0	192	5
CNSI_	75	336	6	0	192	3
CNSCR	76	144	3	0	48	4
CNSCL	76	144	5	0	48	4
BRTAP	76	288	2
BRTAP	76	288	6
NMTAP	77	0	1
NMTAP	77	48	1
NMTAP	77	96	0
NMTAP	77	144	2
NMTAP	77	192	7
NMTAP	77	240	7
NMTAP	77	288	0
NMTAP	77	288	6
NMTAP	78	0	6
NMTAP	78	48	6
NMTAP	78	96	7
NMTAP	78	144	5
NMTAP	78	192	0
NMTAP	78	240	0
NMTAP	78	288	1
NMTAP	78	288	7
NMTAP	79	0	2
NMTAP	79	48	2
NMTAP	79	96	4
NMTAP	79	144	3
NMTAP	79	192	5
NMTAP	79	240	5
NMTAP	79	288	4
NMTAP	79	288	6
NMTAP	80	0	6
NMTAP	80	48	6
NMTAP	80	96	4
NMTAP	80	144	5
NMSTR	80	192	3
NMSV_	80	192	3	96	48	0
NMSTR	80	192	5
NMSV_	80	192	5	96	48	0
BRTAP	81	0	1
BRTAP	81	0	7
NMTAP	81	96	2
NMTAP	81	96	3
BRTAP	81	192	0
BRTAP	81	192	6
NMTAP	81	288	4
NMTAP	81	288	5
NMHLD	82	0	2	96
NMHLD	82	96	0	96
NMHLD	82	192	7	96
NMTAP	82	288	5
BRTAP	83	0	0
BRTAP	83	0	6
NMTAP	83	96	4
NMTAP	83	96	5
BRTAP	83	192	1
BRTAP	83	192	7
NMTAP	83	288	2
NMTAP	83	288	3
NMHLD	84	0	5	96
NMHLD	84	96	7	96
NMHLD	84	192	0	96
NMTAP	84	288	1
BRTAP	85	0	2
BRTAP	85	0	7
NMTAP	85	96	5
NMTAP	85	144	5
NMTAP	85	192	7
NMTAP	85	288	0
NMTAP	85	288	6
NMTAP	86	0	1
NMTAP	86	48	1
NMTAP	86	96	3
NMTAP	86	144	2
NMTAP	86	192	5
NMTAP	86	240	5
NMTAP	86	288	4
NMTAP	86	288	5
NMTAP	87	0	6
NMTAP	87	48	6
NMTAP	87	96	7
NMTAP	87	144	7
NMTAP	87	192	5
NMTAP	87	240	5
NMTAP	87	288	1
NMTAP	87	336	1
NMTAP	88	0	0
NMTAP	88	48	0
NMTAP	88	96	2
NMTAP	88	144	2
NMTAP	88	192	4
NMTAP	88	240	4
BRSTR	88	288	3
BRSF_	88	288	3	96	48	7

T_REC_TAP	334
T_REC_BRK	23
T_REC_XTP	0
T_REC_BXX	0
T_REC_HLD	29
T_REC_XHO	1
T_REC_BHO	0
T_REC_BXH	0
T_REC_STR	40
T_REC_BST	2
T_REC_XST	1
T_REC_XBS	0
T_REC_TTP	18
T_REC_THO	0
T_REC_SLD	43
T_REC_BSL	1
T_REC_ALL	492
T_NUM_TAP	393
T_NUM_BRK	26
T_NUM_HLD	30
T_NUM_SLD	43
T_NUM_ALL	492
T_JUDGE_TAP	418
T_JUDGE_HLD	112
T_JUDGE_SLD	44
T_JUDGE_ALL	574
TTM_EACHPAIRS	110
TTM_SCR_TAP	196500
TTM_SCR_BRK	67600
TTM_SCR_HLD	30000
TTM_SCR_SLD	64500
TTM_SCR_ALL	358600
TTM_SCR_S	345350
TTM_SCR_SS	356000
TTM_RAT_ACV	10073

