VERSION	0.00.00	1.03.00
FES_MODE	0
BPM_DEF	190.000	190.000	190.000	190.000
MET_DEF	4	4
RESOLUTION	384
CLK_DEF	384
COMPATIBLE_CODE	MA2

BPM	0	0	190.000
MET	0	0	4	4

HLD	1	0	3	96
TAP	1	96	4
TAP	1	240	3
TAP	1	288	4
HLD	2	0	5	96
TAP	2	96	4
TAP	2	240	5
TAP	2	288	4
HLD	3	0	2	96
TAP	3	96	3
TAP	3	240	2
TAP	3	288	3
HLD	4	0	4	96
TAP	4	96	3
TAP	4	192	3
TAP	4	192	4
TAP	4	288	3
TAP	4	288	4
HLD	5	0	2	96
TAP	5	96	1
TAP	5	144	2
TAP	5	240	4
TAP	5	288	3
HLD	6	0	5	96
TAP	6	96	6
TAP	6	144	5
TAP	6	240	3
TAP	6	288	4
HLD	7	0	1	96
TAP	7	96	0
TAP	7	144	1
TAP	7	240	7
TAP	7	288	0
HLD	8	0	6	96
TAP	8	96	0
TAP	8	192	0
TAP	8	216	7
TAP	8	240	0
TAP	8	264	7
TAP	8	288	0
TAP	8	312	7
TAP	8	336	0
TAP	8	360	7
STR	9	0	0
SI_	9	0	0	96	48	2
STR	9	96	7
SI_	9	96	7	96	48	5
STR	9	192	0
SI_	9	192	0	96	48	2
STR	9	288	7
SI_	9	288	7	96	48	5
STR	10	0	3
SI_	10	0	3	96	48	1
STR	10	96	4
SI_	10	96	4	96	48	6
STR	10	192	3
SI_	10	192	3	96	48	1
STR	10	288	4
SI_	10	288	4	96	48	6
STR	11	0	0
SI_	11	0	0	96	48	2
STR	11	96	7
SI_	11	96	7	96	48	5
STR	11	192	0
SI_	11	192	0	96	48	2
STR	11	288	7
SI_	11	288	7	96	48	5
STR	12	0	3
SI_	12	0	3	96	48	1
STR	12	96	4
SI_	12	96	4	96	48	6
TAP	12	192	0
XTP	12	240	0
XTP	12	288	0
XTP	12	288	7
STR	13	0	7
SI_	13	0	7	96	48	5
STR	13	96	3
SI_	13	96	3	96	48	1
STR	13	192	7
SI_	13	192	7	96	48	5
STR	13	288	3
SI_	13	288	3	96	48	1
STR	14	0	4
SI_	14	0	4	96	48	6
STR	14	96	0
SI_	14	96	0	96	48	2
STR	14	192	4
SI_	14	192	4	96	48	6
STR	14	288	0
SI_	14	288	0	96	48	2
STR	15	0	7
SI_	15	0	7	96	48	5
STR	15	96	3
SI_	15	96	3	96	48	1
STR	15	192	7
SI_	15	192	7	96	48	5
STR	15	288	3
SI_	15	288	3	96	48	1
STR	16	0	4
SI_	16	0	4	96	48	6
STR	16	96	0
SI_	16	96	0	96	48	2
TAP	16	192	7
XTP	16	240	7
XHO	16	288	0	72
XHO	16	288	7	72
TTP	17	0	0	B	0	M1
TTP	17	0	7	B	0	M1
TTP	17	0	7	E	0	M1
TTP	17	16	1	B	0	M1
TTP	17	16	6	B	0	M1
TTP	17	32	2	B	0	M1
TTP	17	32	5	B	0	M1
TTP	17	48	3	B	0	M1
TTP	17	48	4	B	0	M1
TTP	17	48	5	E	0	M1
TAP	17	144	0
HLD	17	192	0	96
TAP	17	288	6
TAP	17	336	6
TAP	17	336	7
TAP	18	48	2
TAP	18	48	3
TAP	18	144	6
TAP	18	144	7
TAP	18	240	1
TAP	18	288	0
TAP	18	288	1
TAP	19	0	1
TAP	19	48	1
TAP	19	96	2
TAP	19	144	2
HLD	19	192	3	96
TAP	19	288	4
XTP	19	336	4
XTP	19	336	5
XTP	20	48	2
XTP	20	48	3
XTP	20	144	0
XTP	20	144	7
HLD	20	240	0	120
HLD	20	288	7	72
TTP	21	0	1	E	0	M1
TTP	21	0	7	E	0	M1
TTP	21	16	1	B	0	M1
TTP	21	16	6	B	0	M1
TTP	21	32	0	C	0	M1
TTP	21	48	4	E	0	M1
TAP	21	144	7
HLD	21	192	7	96
TAP	21	288	1
TAP	21	336	0
TAP	21	336	1
TAP	22	48	6
TAP	22	48	7
TAP	22	144	0
TAP	22	144	1
TAP	22	240	6
TAP	22	288	6
TAP	22	288	7
TAP	23	0	6
TAP	23	48	6
TAP	23	96	5
TAP	23	144	5
TAP	23	192	4
TAP	23	240	4
TAP	23	288	3
TAP	23	336	3
HLD	24	0	2	96
HLD	24	0	4	96
TAP	24	192	2
TAP	24	192	3
STR	24	288	0
SI_	24	288	0	96	48	2
TAP	24	288	4
STR	25	0	4
SI_	25	0	4	96	48	6
STR	25	96	3
SI_	25	96	3	96	48	1
STR	25	192	7
SI_	25	192	7	96	48	5
STR	25	288	0
SI_	25	288	0	96	48	2
STR	26	0	4
SI_	26	0	4	96	48	6
STR	26	96	3
SI_	26	96	3	96	48	1
STR	26	192	7
SI_	26	192	7	96	48	5
STR	26	288	0
SI_	26	288	0	96	48	2
STR	27	0	4
SI_	27	0	4	96	48	6
STR	27	96	3
SI_	27	96	3	96	48	1
STR	27	192	7
SI_	27	192	7	96	48	5
STR	27	288	0
SI_	27	288	0	96	48	2
STR	28	0	4
SI_	28	0	4	96	48	6
STR	28	96	3
SI_	28	96	3	96	48	1
HLD	28	192	7	168
HLD	28	288	0	72
TTP	29	0	7	E	0	M1
TTP	29	16	6	B	0	M1
TTP	29	32	5	B	0	M1
TTP	29	48	3	B	0	M1
TTP	29	48	3	E	0	M1
TTP	29	48	4	B	0	M1
TTP	29	48	5	E	0	M1
TAP	29	144	1
HLD	29	192	1	96
TAP	29	288	7
STR	29	336	2
SI_	29	336	2	96	48	7
STR	29	336	6
SI_	29	336	6	96	48	3
TAP	30	144	1
TAP	30	144	5
TAP	30	240	7
TAP	30	288	0
TAP	30	336	7
TAP	31	0	0
TAP	31	48	0
TAP	31	96	6
TAP	31	144	6
TAP	31	192	2
TAP	31	240	2
TAP	31	288	4
XTP	31	336	3
XTP	31	336	5
XTP	32	48	2
XTP	32	48	6
XTP	32	144	0
XTP	32	144	4
HLD	32	240	7	120
HLD	32	288	0	72
TTP	33	0	1	E	0	M1
TTP	33	16	1	B	0	M1
TTP	33	32	2	B	0	M1
TTP	33	48	3	E	0	M1
TAP	33	144	6
HLD	33	192	6	96
TAP	33	288	0
STR	33	336	1
SI_	33	336	1	96	48	4
STR	33	336	5
SI_	33	336	5	96	48	0
TAP	34	144	2
TAP	34	144	6
TAP	34	240	0
TAP	34	288	7
TAP	34	336	0
TAP	35	0	1
TAP	35	0	7
TAP	35	48	1
TAP	35	96	1
TAP	35	96	5
TAP	35	144	5
TAP	35	192	3
TAP	35	192	5
TAP	35	240	3
TAP	35	288	3
TAP	35	288	4
BRK	36	0	0
BRK	36	0	7
BRK	36	96	1
BRK	36	96	6
BRK	36	192	2
BRK	36	192	5
TTP	37	0	0	B	0	M1
TTP	37	0	0	E	0	M1
TTP	37	0	7	B	0	M1
TTP	37	192	2	E	0	M1
TTP	37	192	6	E	0	M1
TTP	38	0	0	B	0	M1
TTP	38	0	0	E	0	M1
TTP	38	0	7	B	0	M1
TTP	38	96	2	E	0	M1
TTP	38	96	6	E	0	M1
TTP	38	192	3	B	0	M1
TTP	38	192	4	B	0	M1
TTP	38	192	4	E	0	M1
TTP	39	0	0	B	0	M1
TTP	39	0	0	E	0	M1
TTP	39	0	7	B	0	M1
TTP	39	96	2	E	0	M1
TTP	39	96	6	E	0	M1
TTP	39	192	3	B	0	M1
TTP	39	192	4	B	0	M1
TTP	39	192	4	E	0	M1
TTP	39	288	1	B	0	M1
TTP	39	288	2	B	0	M1
TTP	39	288	5	B	0	M1
TTP	39	288	6	B	0	M1
TTP	40	0	0	B	0	M1
TTP	40	0	0	E	0	M1
TTP	40	0	7	B	0	M1
TTP	40	96	2	E	0	M1
TTP	40	96	6	E	0	M1
TTP	40	192	3	B	0	M1
TTP	40	192	4	B	0	M1
TTP	40	192	4	E	0	M1
TTP	41	0	6	B	0	M1
TTP	41	0	6	E	0	M1
TTP	41	192	0	E	0	M1
TTP	41	192	4	E	0	M1
TTP	42	0	6	B	0	M1
TTP	42	0	6	E	0	M1
TTP	42	96	0	E	0	M1
TTP	42	96	4	E	0	M1
TTP	42	192	2	B	0	M1
TTP	42	192	2	E	0	M1
TTP	43	0	6	B	0	M1
TTP	43	0	6	E	0	M1
TTP	43	96	2	B	0	M1
TTP	43	96	2	E	0	M1
TTP	43	192	0	E	0	M1
TTP	43	192	7	B	0	M1
TTP	43	288	3	B	0	M1
TTP	43	288	4	E	0	M1
STR	44	0	0
SV_	44	0	0	96	48	3
STR	44	0	6
SV_	44	0	6	96	48	3
STR	44	96	0
SI_	44	96	0	96	48	2
STR	44	96	6
SI_	44	96	6	96	48	4
BRK	44	192	0
BRK	44	192	6
STR	45	0	0
SCR	45	0	0	96	96	4
STR	45	96	4
SCR	45	96	4	96	96	0
STR	45	192	0
SCR	45	192	0	96	96	4
TAP	45	288	4
STR	46	0	7
SCL	46	0	7	96	96	3
STR	46	96	3
SCL	46	96	3	96	96	7
STR	46	192	7
SCL	46	192	7	96	96	3
TAP	46	288	3
HLD	47	0	0	96
HLD	47	96	2	96
HLD	47	192	4	96
STR	47	288	6
SUL	47	288	6	96	192	3
HLD	48	0	1	192
TAP	48	288	0
TAP	48	288	7
STR	49	0	3
SCL	49	0	3	96	96	7
STR	49	96	7
SCL	49	96	7	96	96	3
STR	49	192	3
SCL	49	192	3	96	96	7
TAP	49	288	7
STR	50	0	4
SCR	50	0	4	96	96	0
STR	50	96	0
SCR	50	96	0	96	96	4
STR	50	192	4
SCR	50	192	4	96	96	0
TAP	50	288	0
HLD	51	0	3	96
HLD	51	96	5	96
HLD	51	192	7	96
TAP	51	288	0
TAP	52	0	1
TAP	52	0	6
TAP	52	48	6
TAP	52	72	7
TAP	52	96	6
TAP	52	144	1
TAP	52	168	0
TAP	52	192	1
TAP	52	240	7
TAP	52	288	0
TAP	52	288	6
TAP	52	336	1
STR	53	0	2
SXR	53	0	2	96	96	4
STR	53	192	5
SXL	53	192	5	96	96	3
STR	54	0	1
SXL	54	0	1	96	96	7
STR	54	192	6
SXR	54	192	6	96	96	0
HLD	55	0	1	96
HLD	55	96	3	96
HLD	55	192	4	96
STR	55	288	6
SSL	55	288	6	96	144	2
TAP	56	192	0
STR	56	240	0
SCR	56	240	0	96	144	6
HLD	56	336	4	144
TAP	57	192	7
STR	57	240	7
SCL	57	240	7	96	144	1
HLD	57	336	3	144
TAP	58	192	3
TAP	58	288	3
TAP	58	288	4
TAP	59	0	2
TAP	59	0	3
TAP	59	96	0
TAP	59	96	1
TAP	59	192	6
TAP	59	192	7
TAP	59	288	4
STR	59	288	5
SUL	59	288	5	96	192	2
TTP	60	0	0	C	1	M1
STR	60	288	0
SCR	60	288	0	96	48	3
TAP	60	288	7
TAP	61	0	0
STR	61	0	7
SCL	61	0	7	96	48	4
STR	61	96	0
SCR	61	96	0	96	48	3
TAP	61	96	7
TAP	61	192	0
STR	61	192	7
SCL	61	192	7	96	48	4
STR	61	288	0
SCR	61	288	0	96	48	3
TAP	61	288	7
BRK	62	0	0
TAP	62	0	7
TAP	62	96	4
TAP	62	96	6
TAP	62	192	0
TAP	62	192	1
TAP	62	288	6
STR	62	288	7
SCL	62	288	7	96	48	4
STR	63	0	0
SCR	63	0	0	96	48	3
TAP	63	0	7
TAP	63	96	0
STR	63	96	7
SCL	63	96	7	96	48	4
STR	63	192	0
SCR	63	192	0	96	48	3
TAP	63	192	7
TAP	63	288	0
STR	63	288	7
SCL	63	288	7	96	48	4
TAP	64	0	0
BRK	64	0	7
TAP	64	96	1
TAP	64	96	3
TAP	64	192	4
TAP	64	192	5
TAP	64	288	2
STR	64	288	3
SCL	64	288	3	96	48	0
TAP	65	0	3
STR	65	0	4
SCR	65	0	4	96	48	7
STR	65	96	3
SCL	65	96	3	96	48	0
TAP	65	96	4
TAP	65	192	3
STR	65	192	4
SCR	65	192	4	96	48	7
STR	65	288	3
SCL	65	288	3	96	48	0
TAP	65	288	4
BRK	66	0	3
TAP	66	0	4
TAP	66	96	5
TAP	66	96	7
TAP	66	192	2
TAP	66	192	3
STR	66	288	4
SCR	66	288	4	96	48	7
TAP	66	288	5
STR	67	0	3
SCL	67	0	3	96	48	0
TAP	67	0	4
TAP	67	96	3
STR	67	96	4
SCR	67	96	4	96	48	7
STR	67	192	3
SCL	67	192	3	96	48	0
TAP	67	192	4
TAP	67	288	3
STR	67	288	4
SCR	67	288	4	96	48	7
TAP	68	0	3
BRK	68	0	4
TAP	68	96	0
TAP	68	96	2
TAP	68	192	6
TAP	68	192	7
XTP	68	288	0
XTP	68	288	1
TAP	69	0	1
TAP	69	0	5
TTP	69	96	3	B	0	M1
TTP	69	96	7	B	0	M1
TAP	69	192	1
TAP	69	192	5
TTP	69	288	3	B	0	M1
TTP	69	288	7	B	0	M1
TAP	70	0	0
TAP	70	0	4
TTP	70	96	2	B	0	M1
TTP	70	96	6	B	0	M1
HLD	70	192	0	96
TAP	70	192	4
TAP	70	288	7
TAP	71	0	2
TAP	71	0	6
TTP	71	96	0	B	0	M1
TTP	71	96	4	B	0	M1
TAP	71	192	2
TAP	71	192	6
TTP	71	288	0	B	0	M1
TTP	71	288	4	B	0	M1
TAP	72	0	3
TAP	72	0	7
TTP	72	96	1	B	0	M1
TTP	72	96	5	B	0	M1
TAP	72	192	3
HLD	72	192	7	96
TAP	72	288	0
TTP	73	0	0	E	0	M1
TTP	73	12	7	E	0	M1
TTP	73	24	0	C	0	M1
TTP	73	36	4	E	0	M1
TAP	73	144	1
HLD	73	192	1	96
TAP	73	288	0
TAP	74	0	2
TAP	74	48	3
STR	74	96	2
SI_	74	96	2	96	48	6
STR	74	96	4
SI_	74	96	4	96	48	0
TTP	75	0	0	E	0	M1
TTP	75	5	7	E	0	M1
TTP	75	6	1	E	0	M1
TTP	75	12	1	B	0	M1
TTP	75	18	0	C	0	M1
TTP	75	24	5	B	0	M1
TTP	75	27	5	E	0	M1
TTP	75	28	4	B	0	M1
TTP	75	29	3	B	0	M1
TTP	75	30	3	E	0	M1
TAP	75	144	6
HLD	75	192	6	96
TAP	75	288	7
TAP	76	0	4
TAP	76	0	5
STR	76	96	3
SI_	76	96	3	96	48	0
STR	76	96	4
SI_	76	96	4	96	48	7
TTP	77	0	0	E	0	M1
TTP	77	5	1	E	0	M1
TTP	77	6	7	E	0	M1
TTP	77	12	1	B	0	M1
TTP	77	18	0	C	0	M1
TTP	77	24	2	B	0	M1
TTP	77	29	3	E	0	M1
TTP	77	30	5	E	0	M1
TTP	77	36	4	E	0	M1
TAP	77	144	6
HLD	77	192	6	96
TAP	77	288	2
STR	78	0	3
SLR	78	0	3	96	96	0
STR	78	0	4
SLL	78	0	4	96	96	7
TTP	79	0	0	E	0	M1
TTP	79	8	7	B	0	M1
TTP	79	16	6	B	0	M1
TTP	79	23	6	E	0	M1
TTP	79	24	2	E	0	M1
TTP	79	25	0	C	0	M1
TTP	79	36	4	E	0	M1
TAP	79	144	1
HLD	79	192	1	96
STR	79	288	7
SCL	79	288	7	96	48	4
XST	80	0	7
SCR	80	0	7	96	48	2
XST	80	96	7
SF_	80	96	7	96	48	3
XTP	80	192	7
TTP	80	204	7	B	0	M1
TTP	80	216	0	C	1	M1
TTP	80	228	3	B	0	M1
STR	81	0	1
SI_	81	0	1	96	48	5
STR	81	0	6
SI_	81	0	6	96	48	0
STR	81	192	2
SI_	81	192	2	96	48	0
STR	81	192	7
SI_	81	192	7	96	48	3
TAP	82	0	6
TAP	82	0	7
TAP	82	96	4
TAP	82	96	5
TAP	82	192	2
TAP	82	192	3
HLD	82	288	0	96
TAP	82	288	1
HLD	83	0	7	96
HLD	83	96	6	96
HLD	83	192	5	96
STR	83	288	4
SUL	83	288	4	96	192	1
HLD	84	0	3	192
TAP	84	288	0
TAP	84	288	7
STR	85	0	2
SI_	85	0	2	96	48	6
STR	85	0	5
SI_	85	0	5	96	48	3
STR	85	192	1
SI_	85	192	1	96	48	3
STR	85	192	4
SI_	85	192	4	96	48	0
TAP	86	0	6
TAP	86	0	7
TAP	86	96	0
TAP	86	96	1
TAP	86	192	2
TAP	86	192	3
HLD	86	288	4	192
HLD	86	288	5	96
STR	87	96	5
SUR	87	96	5	96	96	2
HLD	87	192	0	96
TAP	88	0	1
TAP	88	0	6
TAP	88	48	1
TAP	88	72	0
TAP	88	96	1
TAP	88	144	6
TAP	88	168	7
TAP	88	192	6
TAP	88	240	0
TAP	88	288	1
TAP	88	288	7
TAP	88	336	6
STR	89	0	1
SI_	89	0	1	96	48	4
STR	89	0	5
SV_	89	0	5	96	48	0
STR	89	192	3
SV_	89	192	3	96	48	0
STR	89	192	7
SI_	89	192	7	96	48	4
STR	90	0	2
SV_	90	0	2	96	48	7
STR	90	0	6
SI_	90	0	6	96	48	3
STR	90	192	0
SI_	90	192	0	96	48	3
STR	90	192	4
SV_	90	192	4	96	48	7
STR	91	0	1
SI_	91	0	1	96	48	5
STR	91	96	0
SI_	91	96	0	96	48	4
STR	91	192	7
SI_	91	192	7	96	48	3
STR	91	288	6
SCL	91	288	6	96	96	1
HLD	92	0	2	96
TAP	92	192	5
STR	92	240	5
SCR	92	240	5	96	144	3
HLD	92	336	0	144
TAP	93	192	2
STR	93	240	2
SCL	93	240	2	96	144	4
HLD	93	336	7	144
TAP	94	192	7
TAP	94	288	0
TAP	94	288	7
TAP	95	0	6
TAP	95	0	7
TAP	95	96	0
TAP	95	96	1
TAP	95	192	2
TAP	95	192	3
TAP	95	288	4
STR	95	288	5
SUL	95	288	5	96	192	2
TTP	96	0	0	C	1	M1
STR	96	288	1
SCR	96	288	1	96	48	3
TAP	96	288	7
TAP	97	0	1
STR	97	0	7
SCL	97	0	7	96	48	5
STR	97	96	1
SCR	97	96	1	96	48	3
TAP	97	96	7
TAP	97	192	1
STR	97	192	7
SCL	97	192	7	96	48	5
STR	97	288	1
SCR	97	288	1	96	48	3
TAP	97	288	7
BRK	98	0	1
HLD	98	0	7	288
TAP	98	96	5
TAP	98	192	3
STR	98	288	5
SCR	98	288	5	96	48	7
STR	99	0	3
SCL	99	0	3	96	48	1
TAP	99	0	5
TAP	99	96	3
STR	99	96	5
SCR	99	96	5	96	48	7
STR	99	192	3
SCL	99	192	3	96	48	1
TAP	99	192	5
TAP	99	288	3
STR	99	288	5
SCR	99	288	5	96	48	7
HLD	100	0	3	288
BRK	100	0	5
TAP	100	96	0
TAP	100	192	6
STR	100	288	0
SCR	100	288	0	96	48	2
TAP	101	0	0
STR	101	0	6
SCL	101	0	6	96	48	4
STR	101	96	0
SCR	101	96	0	96	48	2
TAP	101	96	6
TAP	101	192	0
STR	101	192	6
SCL	101	192	6	96	48	4
STR	101	288	0
SCR	101	288	0	96	48	2
TAP	101	288	6
BRK	102	0	0
HLD	102	0	6	288
TAP	102	96	4
TAP	102	192	2
STR	102	288	4
SCR	102	288	4	96	48	6
STR	103	0	2
SCL	103	0	2	96	48	0
TAP	103	0	4
TAP	103	96	2
STR	103	96	4
SCR	103	96	4	96	48	6
STR	103	192	2
SCL	103	192	2	96	48	0
TAP	103	192	4
TAP	103	288	2
STR	103	288	4
SCR	103	288	4	96	48	6
TAP	104	0	2
BRK	104	0	4
TAP	104	96	3
TAP	104	96	7
TAP	104	192	1
TAP	104	192	5
XTP	104	288	0
XTP	104	288	7
TAP	105	0	1
TTP	105	0	5	B	0	M1
TAP	105	96	3
TTP	105	96	7	B	0	M1
TAP	105	192	1
TTP	105	192	5	B	0	M1
TAP	105	288	3
TTP	105	288	7	B	0	M1
TAP	106	0	0
TTP	106	0	4	B	0	M1
TAP	106	96	2
TTP	106	96	6	B	0	M1
TAP	106	192	0
TTP	106	192	4	B	0	M1
TAP	106	288	2
TTP	106	288	6	B	0	M1
TTP	107	0	1	B	0	M1
TAP	107	0	5
TTP	107	96	3	B	0	M1
TAP	107	96	7
TTP	107	192	1	B	0	M1
TAP	107	192	5
TTP	107	288	3	B	0	M1
TAP	107	288	7
TTP	108	0	0	B	0	M1
TAP	108	0	4
TTP	108	96	2	B	0	M1
TAP	108	96	6
TTP	108	192	0	B	0	M1
TAP	108	192	4
TTP	108	288	2	B	0	M1
TAP	108	288	6
TAP	109	0	1
TTP	109	0	5	B	0	M1
TAP	109	96	3
TTP	109	96	7	B	0	M1
TAP	109	192	0
TTP	109	192	4	B	0	M1
TAP	109	288	2
TTP	109	288	6	B	0	M1
TAP	110	0	1
TTP	110	0	5	B	0	M1
TAP	110	96	3
TTP	110	96	7	B	0	M1
TAP	110	192	0
TTP	110	192	4	B	0	M1
TAP	110	288	2
TTP	110	288	6	B	0	M1
TTP	111	0	1	B	0	M1
TAP	111	0	5
TTP	111	96	3	B	0	M1
TAP	111	96	7
TTP	111	192	0	B	0	M1
TAP	111	192	4
TTP	111	288	2	B	0	M1
TAP	111	288	6
TTP	112	0	1	B	0	M1
TAP	112	0	5
TTP	112	96	3	B	0	M1
TAP	112	96	7
TTP	112	192	0	B	0	M1
TAP	112	192	4
HLD	112	288	2	384
HLD	112	288	6	384
XTP	113	336	1
XTP	113	336	5

T_REC_TAP	303
T_REC_BRK	16
T_REC_XTP	23
T_REC_HLD	55
T_REC_XHO	2
T_REC_STR	144
T_REC_BST	0
T_REC_XST	2
T_REC_TTP	156
T_REC_THO	0
T_REC_SLD	146
T_REC_ALL	847
T_NUM_TAP	628
T_NUM_BRK	16
T_NUM_HLD	57
T_NUM_SLD	146
T_NUM_ALL	847
T_JUDGE_TAP	644
T_JUDGE_HLD	152
T_JUDGE_SLD	146
T_JUDGE_ALL	942
TTM_EACHPAIRS	138
TTM_SCR_TAP	314000
TTM_SCR_BRK	41600
TTM_SCR_HLD	57000
TTM_SCR_SLD	219000
TTM_SCR_ALL	631600
TTM_SCR_S	611100
TTM_SCR_SS	630000
TTM_RAT_ACV	10025

