VERSION	0.00.00	1.03.00
FES_MODE	0
BPM_DEF	190.000	190.000	190.000	190.000
MET_DEF	4	4
RESOLUTION	384
CLK_DEF	384
COMPATIBLE_CODE	MA2

BPM	0	0	190.000
MET	0	0	4	4

HLD	1	0	2	768
TAP	1	96	3
TAP	1	288	3
TAP	2	96	3
TAP	2	288	4
HLD	3	0	6	768
TAP	3	96	4
TAP	3	288	4
TAP	4	96	4
TAP	4	288	3
HLD	5	0	1	768
TAP	5	96	3
TAP	5	288	3
TAP	6	96	3
TAP	6	288	4
HLD	7	0	6	480
TAP	7	96	4
TAP	7	288	4
TAP	8	96	3
TAP	8	192	2
TAP	8	192	4
TAP	8	288	1
TAP	8	288	5
TAP	9	0	2
TAP	9	96	2
TAP	9	96	3
TAP	9	192	5
TAP	9	288	4
TAP	9	288	5
TAP	10	0	2
TAP	10	96	1
TAP	10	96	3
TAP	10	192	5
TAP	10	288	4
TAP	10	288	6
TAP	11	0	2
TAP	11	96	2
TAP	11	96	3
TAP	11	192	5
TAP	11	288	4
TAP	11	288	5
TAP	12	0	2
TAP	12	96	1
TAP	12	96	3
TAP	12	192	5
TAP	12	288	4
TAP	12	288	6
TAP	13	0	3
TAP	13	96	3
TAP	13	96	4
TAP	13	192	2
TAP	13	240	3
TAP	13	288	2
TAP	14	0	5
TAP	14	96	4
TAP	14	96	6
TAP	14	192	2
TAP	14	288	1
TAP	14	288	3
TAP	15	0	4
TAP	15	96	3
TAP	15	96	4
TAP	15	192	5
TAP	15	240	4
TAP	15	288	5
TAP	16	0	3
TAP	16	0	4
TAP	16	96	3
TAP	16	96	4
TAP	16	192	2
TAP	16	192	5
BRK	16	288	2
BRK	16	288	5
XTP	17	0	1
XTP	17	0	4
HLD	17	192	1	384
TAP	17	288	2
XTP	18	0	0
XTP	18	96	7
XTP	18	192	6
TAP	18	288	3
TAP	18	288	5
HLD	19	0	6	192
TAP	19	96	4
HLD	19	192	2	96
XTP	19	288	3
XTP	19	336	3
XTP	20	48	2
XTP	20	48	3
XTP	20	144	1
XTP	20	144	4
TAP	20	240	2
TAP	20	288	2
XTP	21	0	3
XTP	21	0	6
HLD	21	192	5	384
TAP	21	288	4
XTP	22	0	6
XTP	22	96	7
XTP	22	192	0
TAP	22	288	1
TAP	22	288	4
HLD	23	0	1	192
TAP	23	96	3
HLD	23	192	6	192
TAP	23	288	4
STR	24	0	5
SCR	24	0	5	96	192	2
TAP	25	0	2
TAP	25	96	1
TAP	25	96	3
TAP	25	192	2
TAP	25	240	3
TAP	25	288	2
TAP	26	0	2
TAP	26	0	3
TAP	26	96	1
TAP	26	192	0
TAP	26	192	7
TAP	26	288	6
TAP	27	0	5
TAP	27	96	4
TAP	27	96	6
TAP	27	192	5
TAP	27	240	4
TAP	27	288	5
TAP	28	0	4
TAP	28	0	5
TAP	28	96	6
TAP	28	192	0
TAP	28	192	7
TAP	28	288	1
XTP	29	0	2
XTP	29	0	6
HLD	29	192	6	384
TAP	29	288	5
XTP	30	0	7
XTP	30	96	0
XTP	30	192	1
TAP	30	288	2
TAP	30	288	4
HLD	31	0	1	192
TAP	31	96	3
HLD	31	192	6	96
TAP	31	288	4
XTP	31	336	4
XTP	32	48	2
XTP	32	48	3
XTP	32	144	1
XTP	32	144	4
TAP	32	240	2
TAP	32	288	2
XTP	33	0	1
XTP	33	0	4
HLD	33	192	2	384
TAP	33	288	3
XTP	34	0	1
XTP	34	96	0
XTP	34	192	7
TAP	34	288	4
TAP	34	288	6
HLD	35	0	6	192
TAP	35	96	5
HLD	35	192	1	96
TAP	35	288	2
XTP	36	0	3
XTP	36	0	4
XTP	36	96	2
XTP	36	96	5
XTP	36	192	1
XTP	36	192	6
TTP	37	0	0	B	0	M1
TTP	37	0	7	B	0	M1
TTP	37	192	1	B	0	M1
TTP	37	192	2	B	0	M1
TTP	38	0	0	B	0	M1
TTP	38	0	7	B	0	M1
TTP	38	96	2	E	0	M1
TTP	38	192	3	B	0	M1
TTP	38	192	4	B	0	M1
TTP	39	0	0	B	0	M1
TTP	39	0	7	B	0	M1
TTP	39	96	2	E	0	M1
TTP	39	192	4	E	0	M1
TTP	39	288	6	E	0	M1
TTP	40	0	0	E	0	M1
TTP	40	96	0	C	0	M1
TTP	40	192	3	B	0	M1
TTP	40	192	4	B	0	M1
TTP	41	0	5	B	0	M1
TTP	41	0	6	B	0	M1
TTP	41	192	0	C	0	M1
TTP	41	192	0	E	0	M1
TTP	42	0	5	B	0	M1
TTP	42	0	6	B	0	M1
TTP	42	96	0	C	0	M1
TTP	42	192	1	B	0	M1
TTP	42	192	2	B	0	M1
TTP	43	0	5	B	0	M1
TTP	43	0	6	B	0	M1
TTP	43	96	1	B	0	M1
TTP	43	96	2	B	0	M1
TTP	43	192	0	B	0	M1
TTP	43	192	7	B	0	M1
TTP	43	288	3	B	0	M1
TTP	43	288	4	B	0	M1
XTP	44	0	2
XTP	44	0	5
XTP	44	96	1
XTP	44	96	6
XTP	44	192	0
XTP	44	192	7
TAP	45	0	0
TAP	45	0	1
TAP	45	96	2
TAP	45	192	3
TAP	45	192	4
TAP	45	288	5
TAP	46	0	6
TAP	46	0	7
TAP	46	96	5
TAP	46	192	3
TAP	46	192	4
TAP	46	288	2
HLD	47	0	0	96
HLD	47	96	2	96
HLD	47	192	4	96
STR	47	288	6
SCR	47	288	6	96	192	3
XTP	48	288	1
XTP	48	288	6
HLD	49	0	5	96
TAP	49	96	7
TAP	49	192	0
TAP	49	192	6
TAP	49	288	1
TAP	49	288	7
HLD	50	0	2	96
TAP	50	96	0
TAP	50	192	1
TAP	50	192	7
TAP	50	288	0
TAP	50	288	6
TAP	51	0	4
TAP	51	0	5
STR	51	96	4
SI_	51	96	4	96	96	0
TAP	51	96	5
TAP	52	0	1
TAP	52	0	3
TAP	52	96	4
TAP	52	96	6
TAP	52	192	3
TAP	52	240	4
TAP	52	288	3
TAP	53	0	6
TAP	53	0	7
TAP	53	96	5
TAP	53	192	3
TAP	53	192	4
TAP	53	288	2
TAP	54	0	0
TAP	54	0	1
TAP	54	96	2
TAP	54	192	3
TAP	54	192	4
TAP	54	288	5
HLD	55	0	6	96
HLD	55	96	4	96
HLD	55	192	3	96
HLD	55	288	1	96
TAP	56	0	7
TAP	56	96	2
TAP	56	96	6
TAP	56	192	0
TAP	56	192	1
TAP	56	240	0
STR	56	240	1
SCR	56	240	1	96	96	4
TAP	57	192	6
TAP	57	192	7
STR	57	240	6
SCL	57	240	6	96	96	3
TAP	57	240	7
XTP	58	96	2
XTP	58	192	1
XTP	58	288	0
TAP	59	0	6
TAP	59	0	7
TAP	59	96	6
TAP	59	96	7
HLD	59	192	0	96
HLD	59	192	5	96
STR	60	0	7
SLL	60	0	7	96	144	3
SLR	60	0	7	96	144	3
TAP	61	0	2
TAP	61	0	6
TAP	61	96	1
TAP	61	96	5
TAP	61	192	2
TAP	61	192	6
TAP	61	288	1
TAP	61	288	5
TAP	62	0	2
TAP	62	0	6
TAP	62	96	1
TAP	62	96	5
TAP	62	192	7
TAP	62	240	7
TAP	62	288	0
TAP	63	0	1
TAP	63	0	5
TAP	63	96	2
TAP	63	96	6
TAP	63	192	1
TAP	63	192	5
TAP	63	288	2
TAP	63	288	6
TAP	64	0	1
TAP	64	0	5
TAP	64	96	2
TAP	64	96	6
TAP	64	192	4
TAP	64	240	4
TAP	64	288	3
TAP	65	0	2
TAP	65	0	7
TAP	65	96	0
TAP	65	96	5
TAP	65	192	2
TAP	65	192	7
TAP	65	288	0
TAP	65	288	5
TAP	66	0	2
TAP	66	0	7
TAP	66	96	0
TAP	66	96	5
TAP	66	192	6
TAP	66	240	6
TAP	66	288	7
TAP	67	0	0
TAP	67	0	5
TAP	67	96	2
TAP	67	96	7
TAP	67	192	0
TAP	67	192	5
TAP	67	288	2
TAP	67	288	7
TAP	68	0	1
TAP	68	0	6
TAP	68	96	2
TAP	68	96	5
TAP	68	192	0
TAP	68	192	7
BRK	68	288	1
BRK	68	288	6
TAP	69	0	2
TAP	69	96	1
TAP	69	96	3
TAP	69	192	2
TAP	69	240	3
TAP	69	288	2
TAP	70	0	2
TAP	70	0	3
TAP	70	96	1
TAP	70	192	0
TAP	70	192	7
TAP	70	288	1
TAP	70	288	6
TAP	71	0	5
TAP	71	96	4
TAP	71	96	6
TAP	71	192	5
TAP	71	240	4
TAP	71	288	5
TAP	72	0	3
TAP	72	0	4
TAP	72	96	3
TAP	72	96	4
TAP	72	192	2
TAP	72	192	5
TTP	73	0	4	E	0	M1
TTP	73	192	6	B	0	M1
TTP	73	288	7	B	0	M1
TTP	74	0	0	B	0	M1
TTP	74	96	1	B	0	M1
TTP	74	192	0	C	0	M1
TTP	75	0	3	E	0	M1
TTP	75	0	5	E	0	M1
TTP	75	192	1	B	0	M1
TTP	75	288	0	B	0	M1
TTP	76	0	7	B	0	M1
TTP	76	96	6	B	0	M1
TTP	76	192	0	C	0	M1
TTP	77	0	3	B	0	M1
TTP	77	0	4	B	0	M1
TTP	77	0	4	E	0	M1
TTP	77	192	6	B	0	M1
TTP	77	288	7	B	0	M1
TTP	78	0	0	B	0	M1
TTP	78	96	1	B	0	M1
TTP	78	192	0	C	0	M1
TTP	79	0	3	B	0	M1
TTP	79	0	3	E	0	M1
TTP	79	0	4	B	0	M1
TTP	79	0	5	E	0	M1
TTP	79	192	1	B	0	M1
TTP	79	288	0	B	0	M1
TTP	80	0	7	B	0	M1
TTP	80	96	6	B	0	M1
TTP	80	192	0	C	1	M1
XTP	81	0	6
XTP	81	0	7
TAP	81	96	5
TAP	81	192	3
TAP	81	192	4
TAP	81	288	2
TAP	82	0	0
TAP	82	0	1
TAP	82	96	2
TAP	82	192	3
TAP	82	192	4
TAP	82	288	5
HLD	83	0	7	96
HLD	83	96	5	96
HLD	83	192	3	96
STR	83	288	1
SCL	83	288	1	96	192	4
XTP	84	288	1
XTP	84	288	6
HLD	85	0	2	96
TAP	85	96	0
TAP	85	192	1
TAP	85	192	7
TAP	85	288	0
TAP	85	288	6
HLD	86	0	5	96
TAP	86	96	7
TAP	86	192	0
TAP	86	192	6
TAP	86	288	1
TAP	86	288	7
TAP	87	0	3
TAP	87	0	4
STR	87	96	3
SI_	87	96	3	96	96	0
STR	87	96	4
SI_	87	96	4	96	96	7
TAP	88	0	1
TAP	88	0	6
TAP	88	96	2
TAP	88	96	5
TAP	88	192	3
TAP	88	240	4
TAP	88	288	3
TAP	89	0	0
TAP	89	0	1
TAP	89	96	2
TAP	89	192	3
TAP	89	192	4
TAP	89	288	5
TAP	90	0	6
TAP	90	0	7
TAP	90	96	5
TAP	90	192	3
TAP	90	192	4
TAP	90	288	2
HLD	91	0	1	96
HLD	91	96	3	96
HLD	91	192	4	96
HLD	91	288	6	96
TAP	92	0	0
TAP	92	96	1
TAP	92	96	5
TAP	92	192	6
TAP	92	192	7
TAP	92	240	6
STR	92	240	7
SUL	92	240	7	96	96	2
TAP	93	192	0
TAP	93	192	1
STR	93	240	0
SUR	93	240	0	96	96	5
TAP	93	240	1
XTP	94	96	6
XTP	94	192	7
XTP	94	288	0
TAP	95	0	0
TAP	95	0	1
TAP	95	96	0
TAP	95	96	1
HLD	95	192	2	96
HLD	95	192	7	96
STR	96	0	0
SF_	96	0	0	96	144	4
TAP	97	0	2
TAP	97	0	6
TAP	97	96	1
TAP	97	96	5
TAP	97	192	2
TAP	97	192	6
TAP	97	288	1
TAP	97	288	5
TAP	98	0	2
TAP	98	0	6
TAP	98	96	1
TAP	98	96	5
TAP	98	192	7
TAP	98	240	7
TAP	98	288	0
TAP	99	0	1
TAP	99	0	5
TAP	99	96	2
TAP	99	96	6
TAP	99	192	1
TAP	99	192	5
TAP	99	288	2
TAP	99	288	6
TAP	100	0	1
TAP	100	0	5
TAP	100	96	2
TAP	100	96	6
TAP	100	192	4
TAP	100	240	4
TAP	100	288	3
TAP	101	0	2
TAP	101	0	7
TAP	101	96	0
TAP	101	96	5
TAP	101	192	2
TAP	101	192	7
TAP	101	288	0
TAP	101	288	5
TAP	102	0	2
TAP	102	0	7
TAP	102	96	0
TAP	102	96	5
TAP	102	192	6
TAP	102	240	6
TAP	102	288	7
TAP	103	0	0
TAP	103	0	5
TAP	103	96	2
TAP	103	96	7
TAP	103	192	0
TAP	103	192	5
TAP	103	288	2
TAP	103	288	7
TAP	104	0	1
TAP	104	0	6
TAP	104	96	2
TAP	104	96	5
TAP	104	192	0
TAP	104	192	7
BRK	104	288	1
BRK	104	288	6
TAP	105	0	2
TAP	105	96	1
TAP	105	96	4
TAP	105	192	2
TAP	105	240	3
TAP	105	288	2
TAP	106	0	2
TAP	106	0	3
TAP	106	96	1
TAP	106	192	0
TAP	106	192	7
TAP	106	288	1
TAP	106	288	6
TAP	107	0	5
TAP	107	96	3
TAP	107	96	6
TAP	107	192	5
TAP	107	240	4
TAP	107	288	5
TAP	108	0	4
TAP	108	0	5
TAP	108	96	6
TAP	108	192	0
TAP	108	192	7
TAP	108	288	1
TAP	108	288	6
TAP	109	0	2
TAP	109	0	3
TAP	109	96	1
TAP	109	96	4
TAP	109	192	2
TAP	109	240	3
TAP	109	288	2
TAP	110	0	2
TAP	110	0	3
TAP	110	96	1
TAP	110	192	0
TAP	110	192	7
TAP	110	288	1
TAP	110	288	6
TAP	111	0	4
TAP	111	0	5
TAP	111	96	3
TAP	111	96	6
TAP	111	192	5
TAP	111	240	4
TAP	111	288	5
TAP	112	0	3
TAP	112	0	6
TAP	112	48	3
TAP	112	48	6
TAP	112	144	1
TAP	112	144	5
HLD	112	240	2	432
HLD	112	240	6	432
BRK	113	336	1
BRK	113	336	5

T_REC_TAP	421
T_REC_BRK	8
T_REC_XTP	55
T_REC_HLD	40
T_REC_XHO	0
T_REC_STR	12
T_REC_BST	0
T_REC_XST	0
T_REC_TTP	65
T_REC_THO	0
T_REC_SLD	13
T_REC_ALL	614
T_NUM_TAP	553
T_NUM_BRK	8
T_NUM_HLD	40
T_NUM_SLD	13
T_NUM_ALL	614
T_JUDGE_TAP	561
T_JUDGE_HLD	178
T_JUDGE_SLD	13
T_JUDGE_ALL	752
TTM_EACHPAIRS	172
TTM_SCR_TAP	276500
TTM_SCR_BRK	20800
TTM_SCR_HLD	40000
TTM_SCR_SLD	19500
TTM_SCR_ALL	356800
TTM_SCR_S	345350
TTM_SCR_SS	356000
TTM_RAT_ACV	10022

