VERSION	0.00.00	1.03.00
FES_MODE	0
BPM_DEF	190.000	190.000	190.000	190.000
MET_DEF	4	4
RESOLUTION	384
CLK_DEF	384
COMPATIBLE_CODE	MA2

BPM	0	0	190.000
MET	0	0	4	4

XTP	1	0	2
TAP	1	192	2
TAP	2	0	2
TAP	2	192	2
TAP	2	192	3
TAP	3	0	5
TAP	3	192	5
TAP	4	0	5
TAP	4	192	4
TAP	4	192	5
TAP	5	0	2
TAP	5	192	2
TAP	5	192	3
TAP	6	0	5
TAP	6	192	4
TAP	6	192	5
TAP	7	0	2
TAP	7	192	2
TAP	7	192	3
TAP	8	0	1
XTP	8	192	0
XTP	8	192	7
TAP	9	0	1
TAP	9	96	1
TAP	9	192	0
TAP	9	192	1
TAP	10	0	6
TAP	10	96	6
TAP	10	192	6
TAP	10	192	7
TAP	11	0	1
TAP	11	96	1
TAP	11	192	0
TAP	11	192	1
TAP	12	0	7
TAP	12	96	7
TAP	12	192	0
TAP	12	192	6
TAP	13	0	5
TAP	13	96	5
TAP	13	192	4
TAP	13	192	5
TAP	14	0	2
TAP	14	96	2
TAP	14	192	2
TAP	14	192	3
TAP	15	0	5
TAP	15	96	5
TAP	15	192	4
TAP	15	192	5
TAP	16	0	3
TAP	16	96	4
TAP	16	192	2
TAP	16	192	5
XHO	17	0	2	192
TAP	17	192	3
HLD	18	0	5	192
TAP	18	192	4
TAP	19	0	2
TAP	19	96	2
TAP	19	192	3
TAP	19	288	3
TAP	20	0	4
TAP	20	96	4
TAP	20	192	3
TAP	20	192	5
XHO	21	0	6	192
TAP	21	192	7
HLD	22	0	1	192
TAP	22	192	0
TAP	23	0	6
TAP	23	96	6
TAP	23	192	7
TAP	23	288	7
STR	24	0	0
SI_	24	0	0	96	144	4
TAP	25	0	5
TAP	25	96	5
TAP	25	192	4
TAP	25	192	5
TAP	26	0	2
TAP	26	96	2
TAP	26	192	2
TAP	26	192	3
TAP	27	0	5
TAP	27	96	5
TAP	27	192	4
TAP	27	192	5
TAP	28	0	3
TAP	28	96	4
TAP	28	192	2
TAP	28	192	5
XHO	29	0	1	192
TAP	29	192	0
HLD	30	0	6	192
TAP	30	192	7
TAP	31	0	1
TAP	31	96	1
TAP	31	192	0
TAP	31	288	0
TAP	32	0	7
TAP	32	96	7
TAP	32	192	0
TAP	32	192	6
XHO	33	0	5	192
TAP	33	192	4
HLD	34	0	2	192
TAP	34	192	3
TAP	35	0	5
TAP	35	96	5
TAP	35	192	4
TAP	35	288	4
XTP	36	0	3
XTP	36	0	4
XTP	36	96	3
XTP	36	96	4
XTP	36	192	2
XTP	36	192	5
XTP	37	0	3
XST	37	0	4
SI_	37	0	4	96	144	7
STR	38	0	0
SI_	38	0	0	96	144	3
STR	39	0	4
SI_	39	0	4	96	144	7
STR	40	0	0
SI_	40	0	0	96	144	3
XST	41	0	5
SI_	41	0	5	96	144	2
STR	42	0	1
SI_	42	0	1	96	144	5
STR	43	0	6
SI_	43	0	6	96	144	2
XTP	44	0	1
BRK	44	192	0
BRK	44	192	7
TAP	45	0	1
TAP	45	96	1
TAP	45	192	0
TAP	45	192	1
TAP	45	288	0
TAP	45	288	1
TAP	46	0	6
TAP	46	96	6
TAP	46	192	6
TAP	46	192	7
TAP	46	288	6
TAP	46	288	7
TAP	47	0	5
TAP	47	96	5
TAP	47	192	4
TAP	47	288	4
TAP	48	0	3
TAP	48	96	3
TAP	48	192	2
TAP	48	192	4
TAP	49	0	2
TAP	49	96	2
TAP	49	192	2
TAP	49	192	3
TAP	49	288	2
TAP	49	288	3
TAP	50	0	5
TAP	50	96	5
TAP	50	192	4
TAP	50	192	5
TAP	50	288	4
TAP	50	288	5
TAP	51	0	6
TAP	51	96	6
TAP	51	192	7
TAP	51	288	7
TAP	52	0	0
TAP	52	96	0
TAP	52	192	1
TAP	52	192	6
TAP	53	0	6
TAP	53	96	6
TAP	53	192	6
TAP	53	192	7
TAP	53	288	6
TAP	53	288	7
TAP	54	0	1
TAP	54	96	1
TAP	54	192	0
TAP	54	192	1
TAP	54	288	0
TAP	54	288	1
TAP	55	0	2
TAP	55	96	2
TAP	55	192	3
TAP	55	288	3
TAP	56	0	4
TAP	56	96	4
TAP	56	192	3
TAP	56	192	5
STR	57	0	6
SCL	57	0	6	96	144	3
STR	58	0	2
SCL	58	0	2	96	144	7
STR	59	0	6
SCL	59	0	6	96	144	3
TAP	60	0	2
TAP	60	96	3
TAP	60	192	2
TAP	60	192	4
XTP	61	0	1
TAP	61	96	1
TAP	61	192	0
TAP	61	288	0
TAP	62	0	7
TAP	62	96	7
TAP	62	192	0
TAP	62	192	6
TAP	63	0	5
TAP	63	96	5
TAP	63	192	4
TAP	63	288	4
TAP	64	0	3
TAP	64	96	3
TAP	64	192	2
TAP	64	192	4
TAP	65	0	1
TAP	65	96	1
TAP	65	192	0
TAP	65	288	0
TAP	66	0	7
TAP	66	96	7
TAP	66	192	0
TAP	66	192	6
TAP	67	0	5
TAP	67	96	5
TAP	67	192	4
TAP	67	288	4
XTP	68	0	3
XTP	68	0	4
XTP	68	96	3
XTP	68	96	4
XTP	68	192	2
XTP	68	192	5
TAP	69	0	1
TAP	69	96	1
TAP	69	192	0
TAP	70	0	6
TAP	70	96	6
TAP	70	192	7
TAP	71	0	1
TAP	71	96	1
TAP	71	192	0
TAP	72	0	7
TAP	72	96	7
TAP	72	192	1
TAP	72	192	6
TTP	73	0	0	B	0	L1
TTP	74	0	7	B	0	L1
TTP	75	0	1	B	0	L1
TTP	76	0	6	B	0	L1
TTP	77	0	2	B	0	L1
TTP	78	0	5	B	0	L1
TTP	79	0	3	B	0	L1
TTP	80	0	0	C	0	L1
TAP	81	0	6
TAP	81	96	6
TAP	81	192	6
TAP	81	192	7
TAP	81	288	6
TAP	81	288	7
TAP	82	0	1
TAP	82	96	1
TAP	82	192	0
TAP	82	192	1
TAP	82	288	0
TAP	82	288	1
TAP	83	0	2
TAP	83	96	2
TAP	83	192	3
TAP	83	288	3
TAP	84	0	4
TAP	84	96	4
TAP	84	192	3
TAP	84	192	5
TAP	85	0	5
TAP	85	96	5
TAP	85	192	4
TAP	85	192	5
TAP	85	288	4
TAP	85	288	5
TAP	86	0	2
TAP	86	96	2
TAP	86	192	2
TAP	86	192	3
TAP	86	288	2
TAP	86	288	3
TAP	87	0	1
TAP	87	96	1
TAP	87	192	0
TAP	87	288	0
TAP	88	0	7
TAP	88	96	7
TAP	88	192	1
TAP	88	192	6
TAP	89	0	1
TAP	89	96	1
TAP	89	192	0
TAP	89	192	1
TAP	89	288	0
TAP	89	288	1
TAP	90	0	6
TAP	90	96	6
TAP	90	192	6
TAP	90	192	7
TAP	90	288	6
TAP	90	288	7
TAP	91	0	5
TAP	91	96	5
TAP	91	192	4
TAP	91	288	4
TAP	92	0	3
TAP	92	96	3
XST	92	192	2
SCL	92	192	2	96	144	7
XST	93	192	6
SCL	93	192	6	96	144	3
HLD	94	192	2	192
HLD	95	0	3	192
HLD	95	192	4	192
STR	96	0	5
SCL	96	0	5	96	144	2
TAP	97	0	1
TAP	97	96	1
TAP	97	192	0
TAP	97	288	0
TAP	98	0	7
TAP	98	96	7
TAP	98	192	0
TAP	98	192	6
TAP	99	0	5
TAP	99	96	5
TAP	99	192	4
TAP	99	288	4
TAP	100	0	3
TAP	100	96	3
TAP	100	192	2
TAP	100	192	4
TAP	101	0	1
TAP	101	96	1
TAP	101	192	0
TAP	101	288	0
TAP	102	0	7
TAP	102	96	7
TAP	102	192	0
TAP	102	192	6
TAP	103	0	5
TAP	103	96	5
TAP	103	192	4
TAP	103	288	4
TAP	104	0	3
TAP	104	0	4
TAP	104	96	3
TAP	104	96	4
BRK	104	192	2
BRK	104	192	5
TAP	105	0	6
TAP	105	96	6
TAP	105	192	6
TAP	105	192	7
TAP	106	0	1
TAP	106	96	1
TAP	106	192	0
TAP	106	192	1
TAP	107	0	6
TAP	107	96	6
TAP	107	192	6
TAP	107	192	7
TAP	108	0	0
TAP	108	96	0
TAP	108	192	1
TAP	108	192	7
TAP	109	0	2
TAP	109	96	2
TAP	109	192	2
TAP	109	192	3
TAP	110	0	5
TAP	110	96	5
TAP	110	192	4
TAP	110	192	5
TAP	111	0	2
TAP	111	96	2
TAP	111	192	2
TAP	111	192	3
TAP	112	0	4
TAP	112	96	4
XHO	112	192	3	528
XHO	112	192	5	528

T_REC_TAP	323
T_REC_BRK	4
T_REC_XTP	18
T_REC_HLD	7
T_REC_XHO	6
T_REC_STR	10
T_REC_BST	0
T_REC_XST	4
T_REC_TTP	8
T_REC_THO	0
T_REC_SLD	14
T_REC_ALL	394
T_NUM_TAP	363
T_NUM_BRK	4
T_NUM_HLD	13
T_NUM_SLD	14
T_NUM_ALL	394
T_JUDGE_TAP	367
T_JUDGE_HLD	66
T_JUDGE_SLD	14
T_JUDGE_ALL	447
TTM_EACHPAIRS	76
TTM_SCR_TAP	181500
TTM_SCR_BRK	10400
TTM_SCR_HLD	13000
TTM_SCR_SLD	21000
TTM_SCR_ALL	225900
TTM_SCR_S	218750
TTM_SCR_SS	225500
TTM_RAT_ACV	10017

