VERSION	0.00.00	1.03.00
FES_MODE	0
BPM_DEF	190.000	190.000	190.000	190.000
MET_DEF	4	4
RESOLUTION	384
CLK_DEF	384
COMPATIBLE_CODE	MA2

BPM	0	0	190.000
MET	0	0	4	4

TAP	9	0	3
TAP	9	192	3
TAP	10	0	3
TAP	11	0	4
TAP	11	192	4
TAP	12	0	4
TAP	13	0	3
TAP	13	192	3
TAP	14	0	3
TAP	14	0	4
TAP	15	0	4
TAP	15	192	4
TAP	16	0	3
TAP	16	0	4
TAP	17	0	2
TAP	17	192	2
TAP	18	0	2
TAP	19	0	1
TAP	19	192	1
TAP	20	0	1
TAP	21	0	0
TAP	21	192	0
TAP	22	0	0
TAP	23	0	7
TAP	23	192	7
XTP	24	0	0
XTP	24	0	7
HLD	25	0	0	384
HLD	27	0	7	384
TAP	29	0	6
TAP	29	192	6
TAP	30	0	6
TAP	31	0	5
TAP	31	192	5
TAP	32	0	5
TAP	33	0	4
TAP	33	192	4
TAP	34	0	4
TAP	35	0	3
TAP	35	192	3
BRK	36	0	3
BRK	36	0	4
TTP	37	0	2	B	0	L1
TTP	38	0	5	B	0	L1
TTP	39	0	0	C	0	L1
TTP	40	0	0	B	0	L1
TTP	40	0	7	B	0	L1
TTP	41	0	6	B	0	L1
TTP	42	0	1	B	0	L1
THO	43	0	0	384	C	1	L1
TAP	45	0	0
TAP	45	192	0
TAP	46	0	1
TAP	46	192	1
TAP	47	0	2
TAP	47	192	2
TAP	48	0	3
TAP	48	0	4
TAP	49	0	4
TAP	49	192	4
TAP	50	0	5
TAP	50	192	5
TAP	51	0	6
TAP	51	192	6
XTP	52	0	0
XTP	52	0	7
TAP	53	0	7
TAP	53	192	7
TAP	54	0	6
TAP	54	192	6
TAP	55	0	5
TAP	55	192	5
TAP	56	0	3
TAP	56	0	4
HLD	57	0	3	192
HLD	58	0	4	192
TAP	59	0	3
TAP	59	192	3
BRK	60	0	3
BRK	60	0	4
HLD	61	0	2	192
TAP	62	0	3
TAP	62	0	4
TAP	62	192	3
TAP	62	192	4
HLD	63	0	5	192
TAP	64	0	3
TAP	64	0	4
TAP	64	192	3
TAP	64	192	4
HLD	65	0	2	192
HLD	65	0	4	192
TAP	66	0	3
TAP	66	0	4
TAP	66	192	3
TAP	66	192	4
HLD	67	0	3	192
HLD	67	0	5	192
TAP	68	0	3
TAP	68	0	4
TAP	68	192	3
TAP	68	192	4
TAP	69	0	2
TAP	69	192	2
TAP	70	0	2
TAP	71	0	1
TAP	71	192	1
TAP	72	0	1
STR	73	0	0
SI_	73	0	0	96	288	4
STR	75	0	7
SI_	75	0	7	96	288	3
STR	77	0	0
SI_	77	0	0	96	288	4
STR	79	0	7
SI_	79	0	7	96	288	3
TAP	81	0	2
TAP	81	192	2
TAP	82	0	3
TAP	82	192	3
TAP	83	0	4
TAP	83	192	4
TAP	84	0	4
TAP	84	0	5
TAP	85	0	5
TAP	85	192	5
TAP	86	0	4
TAP	86	192	4
TAP	87	0	3
TAP	87	192	3
XTP	88	0	2
XTP	88	0	3
TAP	89	0	1
TAP	89	192	1
TAP	90	0	0
TAP	90	192	0
TAP	91	0	7
TAP	91	192	7
TAP	92	0	0
TAP	92	0	7
HLD	93	0	7	192
HLD	94	0	0	192
TAP	95	0	7
TAP	95	192	7
BRK	96	0	0
BRK	96	0	7
HLD	97	0	1	192
TAP	98	0	7
TAP	98	96	7
TAP	98	192	0
TAP	98	192	7
HLD	99	0	6	192
TAP	100	0	0
TAP	100	96	0
TAP	100	192	0
TAP	100	192	7
HLD	101	0	1	192
HLD	101	0	7	192
TAP	102	0	7
TAP	102	96	7
TAP	102	192	0
TAP	102	192	7
HLD	103	0	0	192
HLD	103	0	6	192
TAP	104	0	0
TAP	104	96	0
TAP	104	192	0
TAP	104	192	7
TAP	105	0	6
TAP	105	192	6
TAP	106	0	5
TAP	106	192	5
TAP	107	0	4
TAP	107	192	4
TAP	108	0	3
TAP	108	0	4
TAP	109	0	3
TAP	109	192	3
TAP	110	0	2
TAP	110	192	2
TAP	111	0	1
TAP	111	192	1
TAP	112	0	0
TAP	112	192	0
HLD	113	0	7	336

T_REC_TAP	138
T_REC_BRK	6
T_REC_XTP	6
T_REC_HLD	19
T_REC_XHO	0
T_REC_STR	4
T_REC_BST	0
T_REC_XST	0
T_REC_TTP	7
T_REC_THO	1
T_REC_SLD	4
T_REC_ALL	185
T_NUM_TAP	155
T_NUM_BRK	6
T_NUM_HLD	20
T_NUM_SLD	4
T_NUM_ALL	185
T_JUDGE_TAP	161
T_JUDGE_HLD	95
T_JUDGE_SLD	4
T_JUDGE_ALL	260
TTM_EACHPAIRS	29
TTM_SCR_TAP	77500
TTM_SCR_BRK	15600
TTM_SCR_HLD	20000
TTM_SCR_SLD	6000
TTM_SCR_ALL	119100
TTM_SCR_S	114950
TTM_SCR_SS	118500
TTM_RAT_ACV	10050

