VERSION	0.00.00	1.05.00
FES_MODE	0
BPM_DEF	 98.000	 98.000	 98.000	 98.000
MET_DEF	4	4
RESOLUTION	384
CLK_DEF	384
COMPATIBLE_CODE	MA2

BPM	0	0	 98.000
MET	0	0	4	4

NMSTR	2	0	7
NMSCL	2	0	7	96	192	3
NMTAP	2	96	3
NMTTP	2	192	2	A	0	M1
NMTTP	2	192	3	E	0	M1
NMTTP	2	288	2	E	0	M1
NMTTP	2	288	2	D	0	M1
NMSTR	3	0	0
NMSCR	3	0	0	96	192	4
NMTAP	3	96	4
NMTTP	3	192	5	E	0	M1
NMTTP	3	192	5	A	0	M1
NMTTP	3	288	6	E	0	M1
NMTTP	3	288	6	D	0	M1
NMSTR	4	0	6
NMSCL	4	0	6	96	192	2
NMTAP	4	96	2
NMTTP	4	192	1	B	0	M1
NMTTP	4	192	1	A	0	M1
NMTTP	4	288	0	B	0	M1
NMTTP	4	288	0	A	0	M1
NMSTR	5	0	7
BRSCR	5	0	7	96	96	5
NMTTP	5	96	6	E	0	M1
NMTTP	5	144	7	E	0	M1
NMTTP	5	192	0	E	0	M1
BRTAP	5	288	3
BRTAP	5	288	5
NMHLD	6	0	2	48
NMTAP	6	0	7
NMTAP	6	48	0
NMHLD	6	96	0	48
NMTAP	6	96	1
NMTAP	6	144	2
NMTAP	6	192	0
NMHLD	6	192	2	48
NMTAP	6	240	7
NMTAP	6	288	6
NMTAP	6	320	6
NMTAP	6	336	7
NMTAP	7	0	0
NMHLD	7	0	5	48
NMTAP	7	48	7
NMTAP	7	96	6
NMHLD	7	96	7	48
NMTAP	7	144	5
NMHLD	7	192	5	48
NMTAP	7	192	7
NMTAP	7	240	0
NMTAP	7	288	1
NMTAP	7	320	1
BXTAP	7	336	0
NMHLD	8	0	2	48
NMTAP	8	0	7
NMTAP	8	48	0
NMHLD	8	96	0	48
NMTAP	8	96	1
NMTAP	8	144	2
NMTAP	8	192	0
NMHLD	8	192	2	48
NMTAP	8	240	7
NMTAP	8	288	6
NMTAP	8	320	6
NMTAP	8	336	7
NMTAP	9	0	0
NMHLD	9	0	5	48
NMTAP	9	48	7
NMTAP	9	96	5
NMHLD	9	96	7	48
NMTAP	9	144	4
NMSTR	9	192	3
NMSCR	9	192	3	96	48	6
NMSTR	9	192	7
NMSCR	9	192	7	96	48	2
NMTAP	9	240	3
NMTAP	9	240	7
NMHLD	10	0	2	48
NMHLD	10	0	6	48
NMTAP	10	80	2
NMHLD	10	80	6	256
NMTTP	10	192	2	A	0	M1
NMTTP	10	240	3	A	0	M1
NMTTP	10	288	4	A	0	M1
NMTTP	10	336	5	A	0	M1
NMHLD	11	0	5	384
NMHLD	11	0	6	48
EXTAP	11	80	6
NMTTP	11	192	6	A	0	M1
NMTTP	11	240	7	A	0	M1
NMTTP	11	288	0	A	0	M1
NMTTP	11	336	1	A	0	M1
NMHLD	12	0	2	96
NMHLD	12	96	1	96
NMHLD	12	192	0	96
NMHLD	12	288	7	288
NMTTP	13	0	6	B	0	M1
NMTTP	13	0	6	E	0	M1
NMTTP	13	0	6	A	0	M1
NMTTP	13	96	1	B	0	M1
NMTTP	13	96	1	E	0	M1
NMTTP	13	96	1	A	0	M1
NMTTP	13	192	5	B	0	M1
NMTTP	13	192	5	A	0	M1
NMTTP	13	192	6	E	0	M1
NMTTP	13	288	4	A	0	M1
NMTTP	13	336	4	E	0	M1
NMHLD	14	0	2	48
NMHLD	14	0	3	48
NMTAP	14	80	1
NMTAP	14	80	3
NMTAP	14	144	1
NMTAP	14	144	3
NMTAP	14	192	2
NMTAP	14	224	2
NMTAP	14	240	3
NMTAP	14	272	3
NMTAP	14	288	4
NMTAP	14	320	4
NMTAP	14	336	5
NMHLD	15	0	6	48
NMHLD	15	0	7	48
NMTAP	15	80	5
NMTAP	15	80	7
NMTAP	15	144	5
NMTAP	15	144	7
NMTAP	15	192	6
NMTAP	15	224	6
NMTAP	15	240	7
NMTAP	15	272	7
NMTAP	15	288	0
NMTAP	15	320	0
NMTAP	15	336	1
NMHLD	16	0	2	96
NMTAP	16	0	3
NMTAP	16	48	0
NMHLD	16	96	4	96
NMTAP	16	144	7
NMHLD	16	192	3	96
NMTAP	16	240	0
NMSTR	16	288	5
NMSCR	16	288	5	96	96	1
NMTAP	16	336	2
NMSTR	17	0	1
NMSCR	17	0	1	96	96	5
NMSTR	17	96	5
NMSLR	17	96	5	96	96	1
NMTAP	17	192	1
CNSI_	17	288	1	0	48	3
NMTAP	17	288	4
NMSTR	18	0	1
NMSCL	18	0	1	96	48	7
NMHLD	18	0	4	336
NMTAP	18	96	1
CNSV_	18	144	7	0	48	2
CNSUL	18	192	2	0	48	5
NMTAP	18	288	5
NMHLD	19	0	0	336
NMSTR	19	0	5
NMSCL	19	0	5	96	48	3
NMTAP	19	96	5
CNSV_	19	144	3	0	48	6
CNSUL	19	192	6	0	48	1
NMTAP	19	288	1
EXSTR	20	0	0
NMSI_	20	0	0	96	48	5
EXSTR	20	0	1
NMSI_	20	0	1	96	48	4
NMTAP	20	48	2
NMTAP	20	48	7
NMTAP	20	96	0
NMTAP	20	96	1
NMSTR	20	192	6
NMSI_	20	192	6	96	48	3
NMSTR	20	192	7
NMSI_	20	192	7	96	48	2
NMTAP	20	240	0
NMTAP	20	240	5
NMTAP	20	288	6
NMTAP	20	288	7
NMSTR	21	0	0
NMSCR	21	0	0	96	48	4
NMSTR	21	0	1
NMSCR	21	0	1	96	48	4
NMTAP	21	48	7
NMTAP	21	96	0
NMTAP	21	96	1
NMSTR	21	192	6
NMSCL	21	192	6	96	48	3
NMSTR	21	192	7
NMSCL	21	192	7	96	48	3
NMTAP	21	240	0
NMTAP	21	288	6
NMTAP	21	288	7
NMTAP	22	0	1
NMSTR	22	0	4
NMSUL	22	0	4	96	192	1
NMTTP	22	96	0	C	0	M1
NMSTR	22	192	1
NMSCL	22	192	1	96	192	4
NMTTP	22	288	0	C	0	M1
NMSTR	23	0	4
NMSUL	23	0	4	96	192	2
NMTTP	23	96	0	C	0	M1
NMTAP	23	192	1
NMTTP	23	288	0	C	1	M1
NMTAP	24	0	1
NMSTR	24	0	7
NMSI_	24	0	7	96	48	3
NMTAP	24	48	6
NMSTR	24	96	1
NMSI_	24	96	1	96	48	4
NMTAP	24	144	2
NMSTR	24	192	7
NMSI_	24	192	7	96	48	3
NMTAP	24	240	6
NMSTR	24	288	1
NMSCR	24	288	1	96	144	0
NMTAP	24	336	2
NMTAP	25	0	1
NMHLD	25	0	7	288
CNSCL	25	144	0	0	144	1
NMTAP	26	0	0
NMTAP	26	48	1
NMTAP	26	48	7
NMTAP	26	96	2
NMTAP	26	128	4
EXHLD	26	176	1	64
EXHLD	26	176	5	64
BRTAP	26	288	1
BRTAP	26	288	5
NMSTR	26	336	0
NMSCR	26	336	0	96	24	3
NMHLD	26	336	4	48
NMTAP	27	0	7
NMTAP	27	48	0
NMTAP	27	48	4
NMTAP	27	56	5
NMTAP	27	64	6
EXTAP	27	72	7
NMTAP	27	128	1
NMTAP	27	144	0
NMTAP	27	176	2
NMTAP	27	192	3
NMTAP	27	240	3
NMTAP	27	240	4
NMTAP	27	288	4
NMTAP	27	288	5
NMHLD	27	336	3	48
NMSTR	27	336	7
NMSCL	27	336	7	96	24	4
NMTAP	28	0	0
NMTAP	28	48	3
NMTAP	28	48	7
NMTAP	28	56	2
NMTAP	28	64	1
EXTAP	28	72	0
NMTAP	28	128	6
NMTAP	28	144	7
NMTAP	28	176	5
NMTAP	28	192	4
NMTAP	28	240	3
NMTAP	28	240	4
NMTAP	28	288	2
NMTAP	28	320	2
NMTAP	28	336	3
NMSTR	29	0	1
NMSI_	29	0	1	96	48	4
NMTAP	29	0	5
NMTAP	29	48	0
NMTAP	29	96	1
NMSTR	29	96	6
NMSI_	29	96	6	96	48	3
NMTAP	29	144	7
NMSTR	29	192	0
NMSI_	29	192	0	96	48	4
NMTAP	29	192	6
NMTAP	29	240	1
NMTAP	29	288	0
NMSTR	29	288	7
NMSF_	29	288	7	96	48	3
NMTAP	29	336	6
NMTAP	30	0	7
NMTAP	30	96	5
NMTAP	30	144	2
NMTAP	30	144	6
NMTAP	30	192	1
NMHLD	30	192	7	48
BXTAP	30	240	2
NMTAP	30	256	3
NMTAP	30	272	4
NMTAP	30	288	5
NMTAP	30	304	6
NMTAP	30	320	7
NMHLD	30	336	0	48
NMSTR	30	336	4
NMSCR	30	336	4	96	24	7
NMTAP	31	0	3
NMTAP	31	48	0
NMTAP	31	48	4
NMTAP	31	56	1
NMTAP	31	64	2
EXTAP	31	72	3
NMTAP	31	128	1
NMTAP	31	144	0
NMTAP	31	176	6
NMTAP	31	192	7
NMTAP	31	240	0
NMTAP	31	240	5
NMTAP	31	288	2
NMTAP	31	288	7
BXHLD	31	336	0	288
BXTAP	31	336	1
NMTAP	32	48	1
NMTAP	32	96	6
NMTAP	32	144	2
NMTAP	32	192	5
NMTAP	32	240	3
NMTAP	32	288	4
NMTAP	32	320	4
NMTAP	32	336	5
NMTAP	33	0	6
NMTAP	33	0	7
NMTAP	33	48	4
NMTAP	33	96	2
NMTAP	33	128	2
NMTAP	33	144	3
NMHLD	33	192	0	48
NMTAP	33	192	1
NMTAP	33	240	4
NMTAP	33	288	6
NMHLD	33	288	7	48
NMTAP	33	336	3
NMTAP	34	0	2
NMTAP	34	32	2
NMTAP	34	48	4
NMTAP	34	80	4
NMTAP	34	96	3
NMTAP	34	128	3
BRTAP	34	144	5
BRSTR	34	192	3
NMSCL	34	192	3	96	48	0
BRSTR	34	192	7
NMSCL	34	192	7	96	48	4
NMTAP	34	240	0
NMTAP	34	240	4
NMTAP	34	288	3
NMTAP	34	288	7
NMTAP	35	0	0
NMSTR	35	0	5
NMSCR	35	0	5	96	24	0
NMTAP	35	32	2
NMTAP	35	48	4
NMTAP	35	96	0
NMTAP	35	96	5
NMTAP	35	144	3
NMTAP	35	192	0
NMSTR	35	192	6
NMSCR	35	192	6	96	24	1
NMTAP	35	224	3
NMTAP	35	240	5
NMTAP	35	288	0
NMTAP	35	288	6
NMTAP	35	336	4
NMTAP	36	0	2
NMSTR	36	0	7
NMSCR	36	0	7	96	24	2
NMTAP	36	32	4
NMTAP	36	48	6
NMTAP	36	96	2
NMTAP	36	96	7
NMTAP	36	144	4
NMSTR	36	192	1
NMSCR	36	192	1	96	48	7
NMTAP	36	224	0
NMTAP	36	240	1
NMHLD	36	288	0	48
NMTAP	37	0	0
NMSTR	37	0	5
NMSCR	37	0	5	96	24	0
NMTAP	37	32	2
NMTAP	37	48	4
NMTAP	37	96	0
NMTAP	37	96	5
NMTAP	37	144	3
NMTAP	37	192	1
NMSTR	37	192	6
NMSCR	37	192	6	96	24	1
NMTAP	37	224	3
NMTAP	37	240	5
NMTAP	37	288	1
NMTAP	37	288	6
NMTAP	37	336	4
NMTAP	38	0	2
NMSTR	38	0	7
NMSCR	38	0	7	96	24	2
NMTAP	38	32	4
NMTAP	38	48	6
NMTAP	38	96	2
NMTAP	38	144	4
NMSTR	38	192	1
NMSLL	38	192	1	96	48	5
NMTAP	38	224	3
NMHLD	38	240	2	96
NMTAP	38	288	1
NMSTR	39	0	2
NMSCL	39	0	2	96	24	7
NMTAP	39	0	6
NMTAP	39	32	5
NMTAP	39	48	3
NMTAP	39	96	2
NMTAP	39	96	6
BXTAP	39	144	4
NMSTR	39	192	1
NMSCL	39	192	1	96	24	6
NMTAP	39	192	6
NMTAP	39	224	4
NMTAP	39	240	2
NMTAP	39	288	1
NMTAP	39	288	6
BXTAP	39	336	3
NMSTR	40	0	0
NMSCL	40	0	0	96	24	5
NMTAP	40	0	5
NMTAP	40	32	3
NMTAP	40	48	1
NMTAP	40	96	5
BXTAP	40	144	3
NMSTR	40	192	6
NMSCL	40	192	6	96	48	1
NMTAP	40	224	7
NMTAP	40	240	6
NMHLD	40	288	0	48
NMSTR	41	0	2
NMSCL	41	0	2	96	24	7
NMTAP	41	0	7
NMTAP	41	32	5
NMTAP	41	48	3
NMTAP	41	96	2
NMTAP	41	96	7
BXTAP	41	144	4
NMSTR	41	192	1
NMSCL	41	192	1	96	24	6
NMTAP	41	192	6
NMTAP	41	224	4
NMTAP	41	240	2
NMTAP	41	288	1
NMTAP	41	288	6
BXTAP	41	336	3
NMTAP	42	0	2
NMTAP	42	0	4
NMTAP	42	48	2
NMTAP	42	80	3
NMTAP	42	128	0
NMTAP	42	128	1
BRTAP	42	168	0
BRTAP	42	168	1
NMTAP	42	176	2
NMTAP	42	176	7
NMTAP	42	184	3
NMTAP	42	184	6
NMTAP	42	192	4
NMTAP	42	192	5
NMTAP	42	272	5
NMSTR	42	288	4
NMSCL	42	288	4	96	96	4
CNSLR	43	96	4	0	96	0
CNSLR	43	192	0	0	96	4
EXTAP	43	336	3
EXTAP	43	336	5
NMTAP	44	0	3
NMHLD	44	0	6	48
NMTAP	44	48	4
NMHLD	44	96	5	48
NMTAP	44	96	6
NMTAP	44	144	7
NMTAP	44	192	4
NMHLD	44	192	7	48
NMTAP	44	240	3
NMTAP	44	288	2
NMTAP	44	320	2
NMTAP	44	336	3
NMHLD	45	0	1	48
NMTAP	45	0	4
NMTAP	45	48	3
NMTAP	45	96	1
NMHLD	45	96	2	48
NMTAP	45	144	0
NMHLD	45	192	0	48
NMTAP	45	192	3
NMTAP	45	240	4
NMTAP	45	288	5
NMTAP	45	320	5
NMTAP	45	336	4
NMSTR	46	0	4
NMSI_	46	0	4	96	48	1
NMSTR	46	0	5
NMSI_	46	0	5	96	48	0
NMTAP	46	48	3
NMTAP	46	48	6
NMTAP	46	96	4
NMTAP	46	96	5
NMSTR	46	192	2
NMSI_	46	192	2	96	48	7
NMSTR	46	192	3
NMSI_	46	192	3	96	48	6
NMTAP	46	240	1
NMTAP	46	240	4
NMTAP	46	288	2
NMTAP	46	288	3
NMTAP	47	0	3
NMHLD	47	0	6	48
NMTAP	47	48	4
NMHLD	47	96	5	48
NMTAP	47	96	6
NMTAP	47	144	7
NMTAP	47	192	4
NMHLD	47	192	7	48
NMTAP	47	240	3
NMTAP	47	288	2
NMTAP	47	320	2
NMTAP	47	336	3
NMHLD	48	0	1	48
NMTAP	48	0	4
NMTAP	48	48	3
NMTAP	48	96	1
NMHLD	48	96	2	48
NMTAP	48	144	0
NMHLD	48	192	0	48
NMTAP	48	192	3
NMTAP	48	240	4
NMTAP	48	288	5
NMTAP	48	320	5
NMTAP	48	336	4
NMTAP	49	0	3
NMHLD	49	0	6	48
NMTAP	49	48	4
NMHLD	49	96	5	48
NMTAP	49	96	6
NMTAP	49	144	7
NMTAP	49	192	4
NMHLD	49	192	7	48
NMTAP	49	240	3
NMTAP	49	288	2
NMTAP	49	320	2
BRSTR	49	336	4
NMSF_	49	336	4	96	48	0
NMTTP	50	48	4	E	0	M1
NMTTP	50	48	4	A	1	M1
NMTTP	50	48	5	E	0	M1
NMTAP	50	144	1
NMTAP	50	144	7
NMTAP	50	192	0
NMSTR	50	192	6
NMSXL	50	192	6	96	96	2
NMTAP	50	240	0

T_REC_TAP	316
T_REC_BRK	7
T_REC_XTP	6
T_REC_BXX	8
T_REC_HLD	54
T_REC_XHO	2
T_REC_BHO	0
T_REC_BXH	1
T_REC_STR	51
T_REC_BST	3
T_REC_XST	2
T_REC_XBS	0
T_REC_TTP	41
T_REC_THO	0
T_REC_SLD	55
T_REC_BSL	1
T_REC_ALL	547
T_NUM_TAP	416
T_NUM_BRK	20
T_NUM_HLD	56
T_NUM_SLD	55
T_NUM_ALL	547
T_JUDGE_TAP	434
T_JUDGE_HLD	207
T_JUDGE_SLD	56
T_JUDGE_ALL	697
TTM_EACHPAIRS	116
TTM_SCR_TAP	208000
TTM_SCR_BRK	52000
TTM_SCR_HLD	56000
TTM_SCR_SLD	82500
TTM_SCR_ALL	398500
TTM_SCR_S	384650
TTM_SCR_SS	396500
TTM_RAT_ACV	10050

