VERSION	0.00.00	1.05.00
FES_MODE	0
BPM_DEF	 98.000	 98.000	 98.000	 98.000
MET_DEF	4	4
RESOLUTION	384
CLK_DEF	384
COMPATIBLE_CODE	MA2

BPM	0	0	 98.000
MET	0	0	4	4

NMTAP	2	0	2
NMTAP	2	48	2
NMTAP	2	96	3
NMTAP	2	192	3
NMTAP	2	192	4
NMTAP	2	288	4
NMTAP	2	288	5
NMTAP	3	0	6
NMTAP	3	48	6
NMTAP	3	96	4
NMTAP	3	192	3
NMTAP	3	192	4
NMTAP	3	288	2
NMTAP	3	288	3
NMTAP	4	0	1
NMTAP	4	48	1
NMTAP	4	96	0
NMTAP	4	192	6
NMTAP	4	240	6
NMSTR	4	288	7
NMSCL	4	288	7	96	96	4
NMSCR	4	288	7	96	96	2
NMTAP	4	336	7
NMHLD	5	192	3	96
NMHLD	5	192	4	96
EXTAP	6	0	6
NMTAP	6	48	6
NMTAP	6	96	5
NMTAP	6	96	7
NMTAP	6	144	6
NMTAP	6	192	0
NMTAP	6	240	1
NMTAP	6	288	2
NMTAP	6	288	7
NMTAP	7	0	1
NMTAP	7	48	1
NMTAP	7	96	0
NMTAP	7	96	2
NMTAP	7	144	1
NMTAP	7	192	7
NMTAP	7	240	6
NMTAP	7	288	0
NMTAP	7	288	5
NMTAP	8	0	6
NMTAP	8	48	6
NMTAP	8	96	5
NMTAP	8	96	7
NMTAP	8	144	6
NMTAP	8	192	0
NMTAP	8	240	1
NMTAP	8	288	2
NMTAP	8	288	7
NMTAP	9	0	0
NMTAP	9	0	1
NMTAP	9	48	0
NMTAP	9	48	1
NMSTR	9	96	0
NMSCL	9	96	0	96	96	5
NMSTR	9	96	1
NMSCR	9	96	1	96	96	4
NMTAP	9	144	0
NMTAP	9	144	1
NMHLD	10	0	4	72
NMHLD	10	0	5	72
NMTTP	10	192	7	E	0	M1
NMTTP	10	288	0	C	0	M1
NMHLD	11	0	2	72
NMHLD	11	0	3	72
NMTTP	11	192	1	E	0	M1
NMTTP	11	288	0	C	0	M1
NMTAP	12	0	6
NMTAP	12	48	6
NMHLD	12	96	6	96
NMTAP	12	192	5
NMTAP	12	240	5
NMHLD	12	288	4	96
NMTAP	13	0	3
NMTAP	13	48	3
NMHLD	13	96	2	96
NMTAP	13	192	1
NMTAP	13	288	0
NMTAP	13	288	3
NMTAP	14	0	2
NMTAP	14	48	2
NMTAP	14	96	1
NMTAP	14	96	3
NMTAP	14	144	0
NMTAP	14	192	7
NMTAP	14	240	4
NMTAP	14	240	6
NMTAP	14	288	4
NMTAP	14	288	6
NMTAP	15	0	5
NMTAP	15	48	5
NMTAP	15	96	4
NMTAP	15	96	6
NMTAP	15	144	7
NMTAP	15	192	0
NMTAP	15	240	1
NMTAP	15	240	3
NMTAP	15	288	1
NMTAP	15	288	3
NMHLD	16	0	2	192
NMTAP	16	96	1
NMTAP	16	144	1
NMHLD	16	192	0	192
NMTAP	16	288	7
NMTAP	16	336	7
NMHLD	17	0	6	192
NMTAP	17	96	5
NMTAP	17	144	5
NMTAP	17	192	4
NMTAP	17	288	4
NMTAP	17	288	5
NMHLD	18	0	4	48
NMHLD	18	0	6	48
NMTAP	18	96	4
NMTAP	18	96	6
NMTAP	18	192	5
NMTAP	18	240	5
NMTAP	18	288	3
NMHLD	19	0	2	48
NMHLD	19	0	4	48
NMTAP	19	96	2
NMTAP	19	96	4
NMTAP	19	192	1
NMTAP	19	240	1
NMTAP	19	288	2
NMSTR	19	288	3
NMSCR	19	288	3	96	96	7
NMSTR	20	96	0
NMSCR	20	96	0	96	96	4
NMTAP	20	288	7
NMTAP	21	0	5
NMTAP	21	48	5
NMTAP	21	96	4
NMTAP	21	96	6
NMTAP	21	192	2
NMTAP	21	240	2
NMTAP	21	288	1
NMTAP	21	288	3
NMTAP	22	0	5
NMTAP	22	48	5
NMTAP	22	96	4
NMHLD	22	96	6	96
NMTAP	22	192	7
NMTAP	22	240	0
NMTAP	22	288	1
NMTAP	22	288	3
NMTAP	23	0	2
NMTAP	23	48	2
NMHLD	23	96	1	96
NMTAP	23	96	3
NMTAP	23	192	0
NMTAP	23	240	7
NMTAP	23	288	4
NMHLD	23	288	6	96
NMHLD	24	0	5	96
NMHLD	24	96	4	96
NMHLD	24	192	3	96
NMSTR	24	288	1
BRSCL	24	288	1	96	192	3
CNSUL	25	192	3	0	192	2
NMTHO	26	0	0	192	C	0	M1
EXTAP	26	288	0
EXTAP	26	288	7
NMTAP	27	0	0
NMTAP	27	0	1
NMTAP	27	48	2
NMTAP	27	48	7
NMTAP	27	80	2
NMTAP	27	80	7
NMTAP	27	144	3
NMTAP	27	144	4
NMTAP	27	192	6
NMTAP	27	192	7
NMTAP	27	240	5
NMTAP	27	288	0
NMTAP	27	288	1
NMTAP	27	336	2
NMTAP	28	0	6
NMTAP	28	0	7
NMTAP	28	48	0
NMTAP	28	48	5
NMTAP	28	80	0
NMTAP	28	80	5
NMTAP	28	144	3
NMTAP	28	144	4
NMTAP	28	192	0
NMTAP	28	192	1
NMTAP	28	240	2
NMTAP	28	288	6
NMTAP	28	288	7
NMTAP	28	336	5
NMHLD	29	0	1	96
NMTAP	29	48	3
NMHLD	29	96	5	96
NMTAP	29	144	4
NMHLD	29	192	2	96
NMTAP	29	240	3
NMHLD	29	288	6	96
NMTAP	29	336	4
NMTAP	30	0	3
NMTAP	30	48	2
NMTAP	30	48	7
NMSTR	30	96	0
BRSUR	30	96	0	96	96	5
NMSTR	30	96	1
BRSCR	30	96	1	96	96	4
NMTAP	30	144	0
NMTAP	30	144	1
NMTAP	31	0	6
NMTAP	31	0	7
NMTAP	31	48	0
NMTAP	31	48	5
NMTAP	31	80	0
NMTAP	31	80	5
NMTAP	31	144	3
NMTAP	31	144	4
NMTAP	31	192	2
NMTAP	31	240	1
NMTAP	31	240	3
NMTAP	31	288	5
NMTAP	31	336	4
NMHLD	31	336	6	96
NMTAP	32	0	7
NMHLD	32	48	1	96
NMTAP	32	96	0
NMHLD	32	144	6	96
NMTAP	32	192	7
NMTAP	32	240	0
BRTAP	32	288	1
BRTAP	32	288	5
NMTAP	33	0	0
NMSTR	33	0	1
NMSCR	33	0	1	96	48	4
NMTAP	33	48	0
NMTAP	33	48	1
NMSTR	33	192	6
NMSCL	33	192	6	96	48	3
NMTAP	33	192	7
NMTAP	33	240	6
NMTAP	33	240	7
NMTHO	34	0	0	96	C	0	M1
NMTAP	34	192	0
BRTAP	34	240	1
BRTAP	34	240	7
BRTAP	34	288	2
BRTAP	34	288	6
BRTAP	34	336	3
BRTAP	34	336	5
NMTAP	35	0	6
NMTAP	35	0	7
NMTAP	35	48	5
NMTAP	35	96	0
NMTAP	35	96	6
NMTAP	35	144	2
NMTAP	35	192	0
NMTAP	35	192	1
NMTAP	35	240	2
NMTAP	35	288	1
NMTAP	35	288	7
NMTAP	35	336	5
NMTAP	36	0	4
NMTAP	36	0	6
NMTAP	36	48	7
NMTAP	36	96	0
NMTAP	36	96	1
NMTAP	36	144	2
NMTAP	36	192	1
NMTAP	36	192	3
NMTAP	36	240	0
NMTAP	36	288	6
NMTAP	36	288	7
NMTAP	36	336	0
NMTAP	36	336	7
NMTAP	37	0	0
NMTAP	37	0	1
NMTAP	37	48	2
NMTAP	37	96	1
NMTAP	37	96	7
NMTAP	37	144	5
NMTAP	37	192	6
NMTAP	37	192	7
NMTAP	37	240	5
NMTAP	37	288	0
NMTAP	37	288	6
NMTAP	37	336	2
NMTAP	38	0	1
NMTAP	38	0	3
NMTAP	38	48	0
NMTAP	38	96	6
NMTAP	38	96	7
NMTAP	38	144	5
NMTAP	38	192	4
NMTAP	38	192	6
NMTAP	38	240	4
NMTAP	38	240	6
BRTAP	38	288	3
BRTAP	38	288	7
NMTAP	39	0	0
NMTAP	39	0	2
NMTAP	39	48	1
NMTAP	39	96	0
NMTAP	39	96	6
NMTAP	39	144	7
NMTAP	39	192	0
NMTAP	39	192	1
NMTAP	39	240	2
NMTAP	39	288	0
NMTAP	39	288	7
NMTAP	39	336	6
NMTAP	40	0	5
NMTAP	40	0	7
NMTAP	40	48	6
NMTAP	40	96	1
NMTAP	40	96	7
NMTAP	40	144	0
NMTAP	40	192	6
NMTAP	40	192	7
NMTAP	40	240	5
NMTAP	40	288	0
NMTAP	40	288	7
NMTAP	40	336	1
NMTAP	41	0	0
NMTAP	41	0	1
NMTAP	41	48	2
NMTAP	41	96	1
NMTAP	41	96	7
NMTAP	41	144	0
NMTAP	41	192	6
NMTAP	41	192	7
NMTAP	41	240	5
NMTAP	41	288	0
NMTAP	41	288	1
NMTAP	41	336	2
NMTAP	42	0	0
NMTAP	42	0	7
EXTAP	42	48	1
EXTAP	42	48	6
EXTAP	42	80	1
EXTAP	42	80	6
NMTAP	42	128	2
NMTAP	42	128	5
EXTAP	42	176	3
EXTAP	42	176	4
NMTTP	42	288	0	C	0	M1
NMTTP	42	288	1	B	0	M1
NMTTP	42	288	2	B	0	M1
NMTTP	42	288	2	E	0	M1
NMTTP	42	288	3	B	0	M1
NMTTP	42	288	4	B	0	M1
NMTTP	42	288	4	E	0	M1
NMTTP	42	288	5	B	0	M1
NMTTP	42	288	6	B	0	M1
NMTTP	42	288	6	E	0	M1
BRTAP	43	0	7
NMTAP	43	48	7
NMTAP	43	96	0
NMTAP	43	144	1
NMHLD	43	192	2	96
NMTAP	43	240	3
NMHLD	43	288	5	96
NMTAP	43	336	4
NMTAP	44	0	3
NMTAP	44	48	3
NMTAP	44	96	4
NMTAP	44	144	5
NMHLD	44	192	6	96
NMTAP	44	240	7
NMHLD	44	288	1	96
NMTAP	44	336	0
BRTAP	45	0	7
NMTAP	45	48	0
NMTAP	45	48	6
NMTAP	45	96	5
NMTAP	45	96	7
NMTAP	45	144	5
NMTAP	45	144	7
NMTAP	45	192	0
NMTAP	45	192	6
NMTAP	45	240	1
NMTAP	45	240	7
NMSTR	45	288	0
NMSCL	45	288	0	96	96	5
NMSTR	45	288	2
NMSCR	45	288	2	96	96	5
NMTAP	45	336	0
NMTAP	45	336	2
NMHLD	46	192	4	48
NMHLD	46	192	6	48
NMHLD	46	288	1	48
NMHLD	46	288	3	48
BRTAP	47	0	6
BRTAP	47	0	7
NMTAP	47	48	5
NMTAP	47	96	0
NMTAP	47	96	6
NMTAP	47	144	4
NMTAP	47	192	1
NMTAP	47	192	7
NMTAP	47	240	3
NMTAP	47	288	0
NMTAP	47	288	1
NMTAP	47	336	2
BRTAP	48	0	0
BRTAP	48	0	1
NMTAP	48	48	2
NMTAP	48	96	1
NMTAP	48	96	7
NMTAP	48	144	3
NMTAP	48	192	0
NMTAP	48	192	6
NMTAP	48	240	4
NMTAP	48	288	6
NMTAP	48	288	7
NMTAP	48	336	5
NMTAP	49	0	2
NMTAP	49	0	4
NMTAP	49	48	6
NMTAP	49	96	3
NMTAP	49	96	5
NMTAP	49	144	7
NMTAP	49	192	2
NMTAP	49	192	4
NMTAP	49	240	0
NMTAP	49	288	3
NMTAP	49	288	5
NMTAP	49	336	1
NMTAP	50	0	0
NMTAP	50	0	1
NMTAP	50	48	2
NMTAP	50	48	3
NMTAP	50	96	4
NMTAP	50	96	6
NMTAP	50	144	4
NMTAP	50	144	6
NMTAP	50	192	1
NMTAP	50	192	3
NMTAP	50	240	0
NMTAP	50	240	7
NMTAP	50	288	3
NMTAP	50	288	5
EXTAP	50	336	2
EXTAP	50	336	6
EXTAP	50	368	2
EXTAP	50	368	6

T_REC_TAP	339
T_REC_BRK	16
T_REC_XTP	13
T_REC_BXX	0
T_REC_HLD	37
T_REC_XHO	0
T_REC_BHO	0
T_REC_BXH	0
T_REC_STR	12
T_REC_BST	0
T_REC_XST	0
T_REC_XBS	0
T_REC_TTP	14
T_REC_THO	2
T_REC_SLD	10
T_REC_BSL	3
T_REC_ALL	446
T_NUM_TAP	378
T_NUM_BRK	19
T_NUM_HLD	39
T_NUM_SLD	10
T_NUM_ALL	446
T_JUDGE_TAP	394
T_JUDGE_HLD	152
T_JUDGE_SLD	13
T_JUDGE_ALL	559
TTM_EACHPAIRS	131
TTM_SCR_TAP	189000
TTM_SCR_BRK	49400
TTM_SCR_HLD	39000
TTM_SCR_SLD	15000
TTM_SCR_ALL	292400
TTM_SCR_S	281800
TTM_SCR_SS	290500
TTM_RAT_ACV	10065

