VERSION	0.00.00	1.05.00
FES_MODE	0
BPM_DEF	 98.000	 98.000	 98.000	 98.000
MET_DEF	4	4
RESOLUTION	384
CLK_DEF	384
COMPATIBLE_CODE	MA2

BPM	0	0	 98.000
MET	0	0	4	4

NMHLD	2	0	2	192
NMHLD	2	192	3	192
NMHLD	3	0	4	192
NMTAP	3	192	5
NMHLD	4	0	5	192
NMHLD	4	192	4	192
NMHLD	5	0	3	192
NMTAP	5	192	2
NMHLD	6	0	1	192
NMTAP	6	192	0
NMHLD	7	0	6	192
NMTAP	7	192	7
NMHLD	8	0	1	192
NMTAP	8	192	0
NMHLD	9	0	6	192
NMTAP	9	192	7
NMTAP	10	0	5
NMTAP	10	96	5
NMTAP	10	192	4
NMTAP	10	192	5
NMTAP	11	0	6
NMTAP	11	96	6
NMTAP	11	192	6
NMTAP	11	192	7
NMTAP	12	0	0
NMTAP	12	96	0
NMTAP	12	192	0
NMTAP	12	192	1
NMTAP	13	0	2
NMTAP	13	0	3
NMTAP	13	96	2
NMTAP	13	96	3
NMTAP	13	192	2
NMTAP	13	192	3
NMTAP	14	0	2
NMTAP	14	48	2
NMTAP	14	96	2
NMTAP	14	192	2
NMTAP	14	192	3
NMTAP	14	288	2
NMTAP	14	288	3
NMTAP	15	0	1
NMTAP	15	48	1
NMTAP	15	96	1
NMTAP	15	192	0
NMTAP	15	192	1
NMTAP	15	288	0
NMTAP	15	288	1
NMTAP	16	0	7
NMTAP	16	48	7
NMTAP	16	96	7
NMTAP	16	192	6
NMTAP	16	192	7
NMTAP	16	288	6
NMTAP	16	288	7
NMTAP	17	0	5
NMTAP	17	48	5
NMTAP	17	96	5
BXTAP	17	192	4
BXTAP	17	192	5
NMSTR	18	0	6
NMSI_	18	0	6	96	192	3
NMSTR	19	0	1
NMSI_	19	0	1	96	192	4
NMSTR	20	0	6
NMSI_	20	0	6	96	192	2
NMSTR	21	0	0
NMSI_	21	0	0	96	192	4
NMTTP	22	0	6	B	0	L1
NMTTP	22	96	5	B	0	L1
NMTTP	22	192	4	B	0	L1
NMTTP	23	0	1	B	0	L1
NMTTP	23	96	2	B	0	L1
NMTTP	23	192	3	B	0	L1
NMTTP	24	0	6	B	0	L1
NMTTP	24	96	5	B	0	L1
NMTTP	24	192	4	B	0	L1
NMTTP	24	288	3	B	0	L1
NMTTP	25	0	2	B	0	L1
NMTTP	25	96	1	B	0	L1
NMTHO	25	192	0	192	C	1	L1
NMTAP	27	0	1
NMTAP	27	48	1
NMTAP	27	96	1
NMTAP	27	192	0
NMTAP	27	192	1
NMTAP	27	288	0
NMTAP	27	288	1
NMTAP	28	0	7
NMTAP	28	48	7
NMTAP	28	96	7
NMTAP	28	192	6
NMTAP	28	192	7
NMTAP	29	0	5
NMTAP	29	48	5
NMTAP	29	96	5
NMTAP	29	192	6
NMTAP	29	192	7
NMTAP	29	288	6
NMTAP	29	288	7
NMTAP	30	0	0
NMTAP	30	48	0
NMTAP	30	96	0
NMTAP	30	192	0
NMTAP	30	192	1
NMTAP	31	0	1
NMTAP	31	48	1
NMTAP	31	96	1
NMTAP	31	192	2
NMTAP	31	192	3
NMTAP	31	288	2
NMTAP	31	288	3
NMTAP	32	0	4
NMTAP	32	48	4
NMTAP	32	96	4
NMTAP	32	192	4
NMTAP	32	192	5
NMTAP	33	0	6
NMTAP	33	48	6
NMTAP	33	96	6
NMTAP	33	192	4
NMTAP	33	192	5
NMTAP	33	288	4
NMTAP	33	288	5
NMTAP	34	0	3
NMTAP	34	48	3
NMTAP	34	96	3
BXTAP	34	192	2
BXTAP	34	192	3
NMTAP	35	0	1
NMTAP	35	96	1
NMTAP	35	192	1
NMTAP	35	288	0
NMTAP	35	288	1
NMTAP	36	0	2
NMTAP	36	96	2
NMTAP	36	192	2
NMTAP	36	288	2
NMTAP	36	288	3
NMTAP	37	0	4
NMTAP	37	96	4
NMTAP	37	192	4
NMTAP	37	288	4
NMTAP	37	288	5
NMTAP	38	0	6
NMTAP	38	0	7
NMTAP	38	96	6
NMTAP	38	96	7
NMTAP	38	192	6
NMTAP	38	192	7
NMTAP	39	0	6
NMTAP	39	96	6
NMTAP	39	192	6
NMTAP	39	288	6
NMTAP	39	288	7
NMTAP	40	0	5
NMTAP	40	96	5
NMTAP	40	192	5
NMTAP	40	288	4
NMTAP	40	288	5
NMTAP	41	0	3
NMTAP	41	96	3
NMTAP	41	192	3
NMTAP	41	288	2
NMTAP	41	288	3
NMTAP	42	0	0
NMTAP	42	0	1
NMTAP	42	96	0
NMTAP	42	96	1
NMTAP	42	192	0
NMTAP	42	192	1
NMTAP	43	0	0
NMTAP	43	0	1
NMTAP	43	96	0
NMTAP	43	96	1
NMTAP	43	192	2
NMTAP	43	240	2
NMTAP	43	288	2
NMTAP	44	0	3
NMTAP	44	0	4
NMTAP	44	96	3
NMTAP	44	96	4
NMTAP	44	192	5
NMTAP	44	240	5
NMTAP	44	288	5
NMTAP	45	0	6
NMTAP	45	0	7
NMTAP	45	96	6
NMTAP	45	96	7
NMTAP	45	192	5
NMTAP	45	240	5
NMTAP	45	288	5
NMTAP	46	0	3
NMTAP	46	0	4
NMTAP	46	96	3
NMTAP	46	96	4
BRTAP	46	192	2
BRTAP	46	192	5
NMTAP	47	0	2
NMTAP	47	0	3
NMTAP	47	96	2
NMTAP	47	96	3
NMTAP	47	192	1
NMTAP	47	240	1
NMTAP	47	288	1
NMTAP	48	0	0
NMTAP	48	0	7
NMTAP	48	96	0
NMTAP	48	96	7
NMTAP	48	192	6
NMTAP	48	240	6
NMTAP	48	288	6
NMTAP	49	0	4
NMTAP	49	0	5
NMTAP	49	96	4
NMTAP	49	96	5
NMTAP	49	192	6
NMTAP	49	240	6
NMTAP	49	288	6
NMTAP	50	0	0
NMTAP	50	0	7
NMTAP	50	96	0
NMTAP	50	96	7
NMHLD	50	192	1	168
NMHLD	50	192	6	168

T_REC_TAP	186
T_REC_BRK	2
T_REC_XTP	0
T_REC_BXX	4
T_REC_HLD	12
T_REC_XHO	0
T_REC_BHO	0
T_REC_BXH	0
T_REC_STR	4
T_REC_BST	0
T_REC_XST	0
T_REC_XBS	0
T_REC_TTP	12
T_REC_THO	1
T_REC_SLD	4
T_REC_BSL	0
T_REC_ALL	225
T_NUM_TAP	202
T_NUM_BRK	6
T_NUM_HLD	13
T_NUM_SLD	4
T_NUM_ALL	225
T_JUDGE_TAP	208
T_JUDGE_HLD	102
T_JUDGE_SLD	4
T_JUDGE_ALL	314
TTM_EACHPAIRS	55
TTM_SCR_TAP	101000
TTM_SCR_BRK	15600
TTM_SCR_HLD	13000
TTM_SCR_SLD	6000
TTM_SCR_ALL	135600
TTM_SCR_S	130950
TTM_SCR_SS	135000
TTM_RAT_ACV	10044

