VERSION	0.00.00	1.05.00
FES_MODE	0
BPM_DEF	 98.000	 98.000	 98.000	 98.000
MET_DEF	4	4
RESOLUTION	384
CLK_DEF	384
COMPATIBLE_CODE	MA2

BPM	0	0	 98.000
MET	0	0	4	4

NMTAP	6	0	3
NMTAP	6	96	3
NMTAP	6	192	2
NMTAP	7	0	1
NMTAP	7	96	1
NMTAP	7	192	0
NMTAP	7	192	7
NMTAP	8	0	7
NMTAP	8	96	7
NMTAP	8	192	6
NMTAP	9	0	5
NMTAP	9	96	5
NMTAP	9	192	3
NMTAP	9	192	4
NMHLD	10	0	4	192
NMHLD	10	0	5	192
NMTAP	11	0	4
NMTAP	11	0	5
NMTAP	11	96	4
NMTAP	11	96	5
EXTAP	11	192	4
EXTAP	11	192	5
NMHLD	12	0	6	192
NMHLD	12	0	7	192
NMTAP	13	0	6
NMTAP	13	0	7
NMTAP	13	96	6
NMTAP	13	96	7
NMTAP	13	192	6
NMTAP	13	192	7
NMHLD	14	0	0	192
NMHLD	14	0	1	192
NMTAP	15	0	0
NMTAP	15	0	1
NMTAP	15	96	0
NMTAP	15	96	1
EXTAP	15	192	0
EXTAP	15	192	1
NMHLD	16	0	2	192
NMHLD	16	0	3	192
NMTAP	17	0	2
NMTAP	17	0	3
NMTAP	17	96	2
NMTAP	17	96	3
NMTAP	17	192	2
NMTAP	17	192	3
NMTTP	18	0	3	E	0	L1
NMTTP	18	192	2	E	0	L1
NMTTP	19	0	1	E	0	L1
NMTTP	19	192	0	E	0	L1
NMTTP	20	0	7	E	0	L1
NMTTP	20	192	6	E	0	L1
NMTTP	21	0	5	E	0	L1
NMTTP	21	192	0	C	0	L1
NMTTP	22	0	0	B	0	L1
NMTTP	22	0	7	B	0	L1
NMTTP	22	192	1	B	0	L1
NMTTP	22	192	6	B	0	L1
NMTTP	23	0	2	B	0	L1
NMTTP	23	0	5	B	0	L1
NMTTP	23	192	3	B	0	L1
NMTTP	23	192	4	B	0	L1
NMTTP	24	0	2	B	0	L1
NMTTP	24	0	5	B	0	L1
NMTTP	24	192	1	B	0	L1
NMTTP	24	192	6	B	0	L1
NMTHO	25	0	0	384	C	1	L1
BRTAP	27	0	0
NMTAP	27	96	0
NMTAP	27	192	0
NMTAP	27	192	1
NMTAP	27	288	0
NMTAP	27	288	1
NMTAP	28	0	2
NMTAP	28	96	2
EXTAP	28	192	2
EXTAP	28	192	3
NMTAP	29	0	4
NMTAP	29	96	4
NMTAP	29	192	4
NMTAP	29	192	5
NMTAP	29	288	4
NMTAP	29	288	5
NMTAP	30	0	6
NMTAP	30	96	6
EXTAP	30	192	6
EXTAP	30	192	7
NMTAP	31	0	7
NMTAP	31	96	7
NMTAP	31	192	6
NMTAP	31	192	7
NMTAP	31	288	6
NMTAP	31	288	7
NMTAP	32	0	5
NMTAP	32	96	5
EXTAP	32	192	3
EXTAP	32	192	4
NMTAP	33	0	3
NMTAP	33	96	3
NMTAP	33	192	2
NMTAP	33	192	3
NMTAP	33	288	2
NMTAP	33	288	3
NMTAP	34	0	1
NMTAP	34	96	1
EXTAP	34	192	0
EXTAP	34	192	7
NMTAP	35	0	0
NMTAP	35	48	0
NMTAP	35	96	0
NMTAP	35	192	1
NMTAP	35	288	1
NMTAP	36	0	2
NMTAP	36	48	2
NMTAP	36	96	2
NMTAP	36	192	2
NMTAP	36	192	3
NMTAP	37	0	4
NMTAP	37	48	4
NMTAP	37	96	4
NMTAP	37	192	5
NMTAP	37	288	5
NMTAP	38	0	6
NMTAP	38	48	6
NMTAP	38	96	6
EXTAP	38	192	6
EXTAP	38	192	7
NMTAP	39	0	7
NMTAP	39	48	7
NMTAP	39	96	7
NMTAP	39	192	6
NMTAP	39	288	6
NMTAP	40	0	5
NMTAP	40	48	5
NMTAP	40	96	5
NMTAP	40	192	3
NMTAP	40	192	4
NMTAP	41	0	3
NMTAP	41	48	3
NMTAP	41	96	3
NMTAP	41	192	2
NMTAP	41	288	2
NMTAP	42	0	1
NMTAP	42	48	1
NMTAP	42	96	1
BXTAP	42	192	0
BXTAP	42	192	7
NMSTR	43	0	7
NMSI_	43	0	7	96	288	3
NMTAP	44	192	2
NMSTR	45	0	1
NMSI_	45	0	1	96	288	5
NMTAP	46	192	6
NMTAP	47	0	7
NMTAP	47	48	7
NMTAP	47	96	7
NMTAP	47	192	6
NMTAP	47	240	6
NMTAP	47	288	6
NMTAP	48	0	5
NMTAP	48	48	5
NMTAP	48	96	5
NMTAP	48	192	3
NMTAP	48	192	4
NMTAP	48	288	3
NMTAP	48	288	4
NMTAP	49	0	2
NMTAP	49	48	2
NMTAP	49	96	2
NMTAP	49	192	1
NMTAP	49	240	1
NMTAP	49	288	1
NMSTR	50	0	0
NMSI_	50	0	0	96	288	4

T_REC_TAP	122
T_REC_BRK	1
T_REC_XTP	14
T_REC_BXX	2
T_REC_HLD	8
T_REC_XHO	0
T_REC_BHO	0
T_REC_BXH	0
T_REC_STR	3
T_REC_BST	0
T_REC_XST	0
T_REC_XBS	0
T_REC_TTP	20
T_REC_THO	1
T_REC_SLD	3
T_REC_BSL	0
T_REC_ALL	174
T_NUM_TAP	159
T_NUM_BRK	3
T_NUM_HLD	9
T_NUM_SLD	3
T_NUM_ALL	174
T_JUDGE_TAP	162
T_JUDGE_HLD	80
T_JUDGE_SLD	3
T_JUDGE_ALL	245
TTM_EACHPAIRS	36
TTM_SCR_TAP	79500
TTM_SCR_BRK	7800
TTM_SCR_HLD	9000
TTM_SCR_SLD	4500
TTM_SCR_ALL	100800
TTM_SCR_S	97500
TTM_SCR_SS	100500
TTM_RAT_ACV	10029

