VERSION	0.00.00	1.03.00
FES_MODE	0
BPM_DEF	175.000	175.000	175.000	175.000
MET_DEF	4	4
RESOLUTION	384
CLK_DEF	384
COMPATIBLE_CODE	MA2

BPM	0	0	175.000
MET	0	0	4	4

TAP	1	0	5
TAP	1	96	4
TAP	1	96	6
TAP	1	144	4
STR	1	144	6
SCL	1	144	6	96	96	3
TAP	2	0	2
TAP	2	96	1
TAP	2	96	3
STR	2	144	1
SCR	2	144	1	96	96	4
TAP	2	144	3
TAP	3	0	5
TAP	3	96	4
TAP	3	96	6
TAP	3	192	2
TAP	3	288	1
TAP	3	288	3
TAP	4	0	0
TAP	4	0	7
TAP	4	96	2
TAP	4	96	5
HLD	4	144	2	144
TAP	4	144	5
BRK	4	240	7
BRK	4	288	7
TAP	5	0	1
TAP	5	96	0
TAP	5	96	2
TAP	5	144	0
STR	5	144	2
SV_	5	144	2	96	96	5
TAP	6	0	6
TAP	6	96	5
TAP	6	96	7
STR	6	144	5
SV_	6	144	5	96	96	2
TAP	6	144	7
TAP	7	0	1
TAP	7	48	1
TAP	7	96	3
TAP	7	144	3
TAP	7	192	4
TAP	7	240	4
TAP	7	288	6
TAP	7	336	6
TAP	8	0	3
TAP	8	0	7
TAP	8	48	2
TAP	8	48	6
TAP	8	96	1
TAP	8	96	5
BRK	8	144	0
BRK	8	144	4
TAP	8	240	3
TAP	8	288	4
TAP	8	336	5
BST	9	0	1
SUR	9	0	1	96	192	6
TAP	9	0	6
HLD	10	0	5	384
TTP	10	96	7	E	0	M1
TTP	10	192	0	C	0	M1
TTP	10	288	1	E	0	M1
XST	11	0	7
SUR	11	0	7	96	192	3
TTP	12	48	6	B	0	M1
TTP	12	72	5	B	0	M1
TTP	12	96	4	B	0	M1
TTP	12	120	3	B	0	M1
TTP	12	144	2	B	0	M1
TTP	12	168	1	B	0	M1
TTP	12	192	0	C	1	M1
TAP	12	288	0
TAP	12	288	7
HLD	13	0	2	96
HLD	13	0	3	96
HLD	13	192	4	96
HLD	13	192	5	96
HLD	14	0	2	96
TTP	14	96	2	E	0	M1
TTP	14	96	2	B	0	M1
HLD	14	192	5	96
TTP	14	288	5	B	0	M1
TTP	14	288	6	E	0	M1
TAP	15	0	3
TAP	15	0	4
TTP	15	96	0	C	0	M1
TTP	15	96	2	B	0	M1
TTP	15	96	5	B	0	M1
TAP	15	192	0
TAP	15	192	7
TTP	15	288	0	C	0	M1
TTP	15	288	1	B	0	M1
TTP	15	288	6	B	0	M1
STR	16	0	0
SI_	16	0	0	96	48	4
STR	16	0	7
SI_	16	0	7	96	48	3
BRK	16	240	0
BRK	16	288	0
TAP	17	0	0
TAP	17	0	7
TAP	17	48	1
TAP	17	72	0
TAP	17	96	1
TAP	17	144	2
HLD	17	144	3	144
XTP	17	240	4
XTP	17	288	4
TAP	18	0	0
TAP	18	0	7
TAP	18	48	6
TAP	18	72	7
TAP	18	96	6
HLD	18	144	4	144
TAP	18	144	5
XTP	18	240	3
XTP	18	288	3
TAP	19	0	0
TAP	19	0	7
TAP	19	48	1
TAP	19	72	0
TAP	19	96	1
TAP	19	144	2
HLD	19	144	3	144
XTP	19	240	4
XTP	19	288	4
TAP	20	0	2
TAP	20	0	3
TAP	20	96	4
TAP	20	96	5
TAP	20	192	1
TAP	20	240	0
TAP	20	288	7
TAP	20	336	6
TAP	21	0	3
TAP	21	0	4
TAP	21	48	5
TAP	21	72	4
TAP	21	96	5
TAP	21	144	6
HLD	21	144	7	144
XTP	21	240	0
XTP	21	288	0
TAP	22	0	3
TAP	22	0	4
TAP	22	48	2
TAP	22	72	3
TAP	22	96	2
HLD	22	144	0	144
TAP	22	144	1
XTP	22	240	7
XTP	22	288	7
TAP	23	0	3
TAP	23	0	4
TAP	23	48	5
TAP	23	72	4
TAP	23	96	5
TAP	23	144	6
HLD	23	144	7	144
XTP	23	240	0
XTP	23	288	0
TAP	24	0	0
TAP	24	24	7
TAP	24	48	0
TAP	24	72	7
TAP	24	96	1
TAP	24	120	6
TAP	24	144	1
TAP	24	168	6
XTP	24	192	0
XTP	24	192	7
XTP	24	240	1
XTP	24	240	6
XTP	24	288	2
XTP	24	288	5
XTP	24	336	3
XTP	24	336	4
TAP	25	0	1
TAP	25	0	6
TAP	25	48	2
TAP	25	72	3
TAP	25	96	2
HLD	25	144	4	96
TAP	25	144	5
TTP	25	240	6	E	0	M1
TTP	25	288	7	E	0	M1
TAP	26	0	0
TAP	26	0	7
TAP	26	48	5
TAP	26	72	4
TAP	26	96	5
TAP	26	144	2
HLD	26	144	3	96
TTP	26	240	2	E	0	M1
TTP	26	288	1	E	0	M1
TAP	27	0	0
TAP	27	0	7
TAP	27	48	2
TAP	27	72	3
TAP	27	96	2
HLD	27	144	4	96
TAP	27	144	5
TTP	27	240	6	E	0	M1
TTP	27	288	7	E	0	M1
TAP	28	0	2
TAP	28	0	3
TAP	28	96	4
TAP	28	96	5
TAP	28	192	6
TAP	28	240	7
TAP	28	288	0
TAP	28	336	1
TAP	29	0	2
TAP	29	0	5
TAP	29	48	1
TAP	29	72	0
TAP	29	96	1
TAP	29	144	6
HLD	29	144	7	96
TTP	29	240	6	E	0	M1
TTP	29	288	5	E	0	M1
TAP	30	0	3
TAP	30	0	4
TAP	30	48	6
TAP	30	72	7
TAP	30	96	6
HLD	30	144	0	96
TAP	30	144	1
TTP	30	240	2	E	0	M1
TTP	30	288	3	E	0	M1
TAP	31	0	6
TAP	31	24	6
TAP	31	72	0
TAP	31	96	0
TAP	31	144	4
TAP	31	168	4
TAP	31	216	2
TAP	31	240	2
TAP	31	288	3
TAP	31	288	7
TAP	31	336	1
TAP	31	336	5
TAP	32	0	0
TAP	32	0	7
TAP	32	48	1
TAP	32	48	6
TAP	32	96	2
TAP	32	96	5
TAP	32	144	3
TAP	32	144	4
TAP	32	168	3
TAP	32	168	4
TTP	32	288	0	B	0	M1
TTP	32	288	0	C	1	M1
TTP	32	288	1	B	0	M1
TTP	32	288	1	E	0	M1
TAP	33	0	6
TAP	33	96	6
STR	33	96	7
SCL	33	96	7	96	96	3
TAP	34	0	2
HLD	34	0	3	96
STR	34	96	4
SUR	34	96	4	96	96	1
TAP	34	144	4
STR	35	0	2
SUR	35	0	2	96	96	4
STR	35	192	7
SI_	35	192	7	96	48	3
STR	36	0	4
SI_	36	0	4	96	48	0
HLD	36	0	5	96
BRK	36	192	2
BRK	36	192	6
BRK	36	288	0
BRK	36	288	4
STR	37	0	2
SI_	37	0	2	96	48	7
TAP	37	24	3
TAP	37	48	2
TAP	37	72	3
TAP	37	96	2
STR	37	192	6
SI_	37	192	6	96	48	2
SI_	37	192	6	96	48	3
XTP	37	288	6
STR	38	0	5
SI_	38	0	5	96	48	0
TAP	38	24	4
TAP	38	48	5
TAP	38	72	4
TAP	38	96	5
STR	38	192	1
SI_	38	192	1	96	48	4
SI_	38	192	1	96	48	5
XTP	38	288	1
TAP	39	0	3
HLD	39	0	6	96
TAP	39	96	7
TAP	39	144	0
HLD	39	192	1	96
TAP	39	192	4
TAP	39	288	0
TAP	39	336	7
XTP	40	0	1
XTP	40	0	4
XTP	40	72	3
XTP	40	72	6
XTP	40	144	0
XTP	40	144	2
XTP	40	216	5
XTP	40	216	7
BRK	40	288	1
BRK	40	288	6
TAP	41	0	1
TAP	41	0	4
TAP	41	48	2
TAP	41	72	3
TAP	41	96	2
TAP	41	144	3
TAP	41	144	4
STR	41	192	1
SI_	41	192	1	96	48	4
TAP	41	192	6
BRK	41	288	0
BRK	41	288	1
TAP	42	0	3
TAP	42	0	6
TAP	42	48	5
TAP	42	72	4
TAP	42	96	5
TAP	42	144	3
TAP	42	144	4
TAP	42	192	1
TAP	42	192	6
BRK	42	240	7
BRK	42	264	0
BRK	42	288	7
TAP	43	0	1
TAP	43	0	4
TAP	43	48	2
TAP	43	72	3
TAP	43	96	2
TAP	43	144	0
TAP	43	144	1
TAP	43	192	3
TAP	43	192	6
TAP	43	240	5
TAP	43	264	4
TAP	43	288	5
TAP	43	336	6
TAP	43	336	7
TAP	44	0	2
BRK	44	48	0
TAP	44	96	5
BRK	44	144	7
TAP	44	192	3
TAP	44	192	4
BRK	44	240	1
BRK	44	240	6
BRK	44	288	0
BRK	44	288	7
STR	45	0	1
SCR	45	0	1	96	48	4
HLD	45	0	6	288
XTP	45	96	1
STR	45	192	1
SCR	45	192	1	96	48	4
XTP	45	288	1
TAP	46	0	6
TAP	46	0	7
TAP	46	96	0
TAP	46	96	1
TAP	46	192	3
TAP	46	240	4
TAP	46	288	2
TAP	46	288	5
STR	47	0	3
SI_	47	0	3	96	48	6
TAP	47	0	4
TAP	47	192	3
STR	47	192	4
SI_	47	192	4	96	48	1
STR	48	0	0
SXL	48	0	0	96	192	3
STR	48	0	7
SXR	48	0	7	96	192	4
HLD	49	0	2	384
TTP	49	192	2	B	0	M1
HLD	50	0	3	384
TTP	50	192	3	B	0	M1
HLD	51	0	4	384
TTP	51	192	4	B	0	M1
HLD	52	0	5	384
TTP	52	192	0	C	0	M1
HLD	53	0	0	96
HLD	53	96	1	96
HLD	53	192	2	96
HLD	53	288	3	96
HLD	54	0	4	96
HLD	54	96	5	96
HLD	54	192	6	96
HLD	54	288	7	96
BRK	55	0	0
BRK	55	192	1
TTP	56	0	0	E	0	M1
TTP	56	0	0	C	1	M1
TTP	56	0	1	B	0	M1
TTP	56	0	1	E	0	M1
TTP	56	0	2	B	0	M1
TTP	56	0	3	B	0	M1
TTP	56	0	4	E	0	M1
TTP	56	0	7	B	0	M1
XTP	57	0	0
XTP	57	12	1
XTP	57	24	2
XTP	57	36	3
XTP	57	48	4
XTP	57	60	5
XTP	57	72	6
XTP	57	84	7
XTP	57	96	0
XTP	57	108	1
XTP	57	120	2
XTP	57	132	3
XTP	57	144	4
XTP	57	156	5
XTP	57	168	6
XTP	57	180	7
XTP	57	192	0
XTP	57	204	1
XTP	57	216	2
XTP	57	228	3
XTP	57	240	4
XTP	57	252	5
XTP	57	264	6
XTP	57	276	7
XST	57	288	0
SSL	57	288	0	96	144	4
XTP	57	300	1
XTP	57	312	2
XTP	57	324	3
XTP	57	336	4
XTP	57	348	5
XTP	57	360	6
XTP	57	372	7
XTP	58	0	0
BRK	58	192	1
BRK	58	192	6
XTP	59	0	7
XTP	59	12	6
XTP	59	24	5
XTP	59	36	4
XTP	59	48	3
XTP	59	60	2
XTP	59	72	1
XTP	59	84	0
XTP	59	96	7
XTP	59	108	6
XTP	59	120	5
XTP	59	132	4
XTP	59	144	3
XTP	59	156	2
XTP	59	168	1
XTP	59	180	0
XTP	59	192	7
XTP	59	204	6
XTP	59	216	5
XTP	59	228	4
XTP	59	240	3
XTP	59	252	2
XTP	59	264	1
XTP	59	276	0
XST	59	288	7
SSL	59	288	7	96	144	3
XTP	59	300	6
XTP	59	312	5
XTP	59	324	4
XTP	59	336	3
XTP	59	348	2
XTP	59	360	1
XTP	59	372	0
XTP	60	0	7
BRK	60	192	1
BRK	60	192	5
BST	60	288	2
SI_	60	288	2	96	36	7
BST	60	288	6
SI_	60	288	6	96	36	3
XTP	61	0	2
XTP	61	0	6
TTP	61	192	1	B	0	M1
TTP	61	192	2	E	0	M1
TTP	61	192	2	B	0	M1
TTP	61	288	5	B	0	M1
TTP	61	288	6	E	0	M1
TTP	61	288	6	B	0	M1
TAP	62	0	3
TAP	62	0	4
TAP	62	48	2
TAP	62	72	3
TAP	62	96	1
TAP	62	144	0
TAP	62	144	7
TAP	62	192	1
TAP	62	192	6
TAP	62	240	5
TAP	62	264	4
TAP	62	288	6
TAP	62	336	2
TAP	62	336	3
HLD	63	0	1	72
HLD	63	0	4	72
HLD	63	96	2	48
HLD	63	96	3	48
HLD	63	192	3	72
HLD	63	192	6	72
HLD	63	288	4	48
HLD	63	288	5	48
XST	64	0	0
SI_	64	0	0	96	48	4
XST	64	0	7
SI_	64	0	7	96	48	5
XST	64	96	0
SI_	64	96	0	96	48	2
XST	64	96	7
SI_	64	96	7	96	48	3
BRK	64	192	0
BRK	64	192	7
TTP	65	0	5	B	0	M1
TTP	65	48	3	E	0	M1
TTP	65	96	7	E	0	M1
TTP	65	144	2	E	0	M1
TTP	65	192	4	B	0	M1
TTP	65	240	0	B	0	M1
TTP	65	288	6	B	0	M1
TTP	65	336	2	B	0	M1
TTP	66	0	7	B	0	M1
TTP	66	48	1	E	0	M1
TTP	66	96	5	B	0	M1
TTP	66	144	3	E	0	M1
TTP	66	192	0	C	1	M1
TTP	67	0	2	E	0	M1
TTP	67	0	2	B	0	M1
TTP	67	48	5	B	0	M1
TTP	67	48	6	E	0	M1
TTP	67	96	0	B	0	M1
TTP	67	96	1	E	0	M1
TTP	67	144	7	E	0	M1
TTP	67	144	7	B	0	M1
TTP	67	192	3	B	0	M1
TTP	67	192	3	E	0	M1
TTP	67	240	4	B	0	M1
TTP	67	240	5	E	0	M1
TTP	67	288	1	B	0	M1
TTP	67	288	2	B	0	M1
TTP	67	336	5	B	0	M1
TTP	67	336	6	B	0	M1
THO	68	0	0	192	C	1	M1
TAP	68	288	1
TAP	68	288	6
STR	69	0	1
SI_	69	0	1	96	48	3
STR	69	96	6
SI_	69	96	6	96	48	4
STR	69	192	1
SI_	69	192	1	96	48	4
STR	69	288	6
SI_	69	288	6	96	48	3
STR	70	0	0
SI_	70	0	0	96	48	5
STR	70	96	7
SI_	70	96	7	96	48	2
STR	70	192	1
SI_	70	192	1	96	48	4
XTP	70	288	7
STR	71	0	0
SI_	71	0	0	96	48	4
STR	71	0	1
SI_	71	0	1	96	48	3
XTP	71	96	0
XTP	71	96	1
STR	71	192	6
SI_	71	192	6	96	48	4
STR	71	192	7
SI_	71	192	7	96	48	3
XTP	71	288	6
XTP	71	288	7
BST	72	0	0
SF_	72	0	0	96	96	4
BRK	72	288	2
BRK	72	288	6
TAP	73	0	3
TAP	73	0	4
STR	73	48	1
SXR	73	48	1	96	144	4
TAP	73	72	0
TAP	73	96	1
TAP	73	144	6
XTP	73	240	5
XTP	73	288	5
TAP	74	0	3
TAP	74	0	4
STR	74	48	1
SXR	74	48	1	96	144	4
TAP	74	72	0
TAP	74	96	1
TAP	74	144	6
XTP	74	240	5
XTP	74	288	5
TAP	75	0	3
TAP	75	0	4
STR	75	48	1
SXR	75	48	1	96	144	4
TAP	75	72	0
TAP	75	96	1
TAP	75	144	6
XTP	75	240	5
XTP	75	288	5
HLD	76	0	0	48
HLD	76	0	1	48
HLD	76	96	3	48
HLD	76	96	4	48
HLD	76	192	6	48
HLD	76	192	7	48
HLD	76	288	3	48
HLD	76	288	4	48
TAP	77	0	3
TAP	77	0	4
STR	77	48	6
SXL	77	48	6	96	144	3
TAP	77	72	7
TAP	77	96	6
TAP	77	144	1
XTP	77	240	2
XTP	77	288	2
TAP	78	0	3
TAP	78	0	4
STR	78	48	6
SXL	78	48	6	96	144	3
TAP	78	72	7
TAP	78	96	6
TAP	78	144	1
XTP	78	240	2
XTP	78	288	2
TAP	79	0	3
TAP	79	0	4
STR	79	48	6
SXL	79	48	6	96	144	3
TAP	79	72	7
TAP	79	96	6
TAP	79	144	1
XTP	79	240	2
XTP	79	288	2
TTP	80	0	1	B	0	M1
TTP	80	0	1	E	0	M1
TTP	80	0	2	E	0	M1
TTP	80	96	3	B	0	M1
TTP	80	96	4	E	0	M1
TTP	80	96	4	B	0	M1
TTP	80	192	6	B	0	M1
TTP	80	192	6	E	0	M1
TTP	80	192	7	E	0	M1
TTP	80	288	0	C	1	M1
TTP	80	288	3	B	0	M1
TTP	80	288	4	B	0	M1
TAP	81	0	0
TAP	81	0	7
STR	81	48	1
SXR	81	48	1	96	144	4
TAP	81	72	0
TAP	81	96	1
TAP	81	144	6
XTP	81	240	5
XTP	81	288	5
TAP	82	0	2
TAP	82	0	5
STR	82	48	1
SXR	82	48	1	96	144	4
TAP	82	72	0
TAP	82	96	1
TAP	82	144	6
XTP	82	240	5
XTP	82	288	5
TAP	83	0	2
TAP	83	0	5
STR	83	48	1
SXR	83	48	1	96	144	4
TAP	83	72	0
TAP	83	96	1
TAP	83	144	6
XTP	83	240	5
XTP	83	288	5
TTP	84	0	0	C	1	M1
TTP	84	96	0	C	1	M1
TTP	84	96	2	B	0	M1
TTP	84	96	5	B	0	M1
TTP	84	192	0	C	1	M1
TTP	84	192	1	B	0	M1
TTP	84	192	2	E	0	M1
TTP	84	192	6	E	0	M1
TTP	84	192	6	B	0	M1
STR	85	0	1
SCR	85	0	1	96	144	1
SXR	85	0	1	96	144	4
TAP	85	0	6
BRK	85	288	0
BRK	85	288	7
STR	86	0	1
SCR	86	0	1	96	144	1
SXR	86	0	1	96	144	4
TAP	86	0	6
BRK	86	288	0
BRK	86	288	7
TAP	87	0	6
TAP	87	24	6
TAP	87	72	0
TAP	87	96	0
TAP	87	144	4
TAP	87	168	4
TAP	87	216	2
TAP	87	240	2
TAP	87	288	3
TAP	87	288	7
TAP	87	336	1
TAP	87	336	5
TAP	88	0	0
TAP	88	0	7
TAP	88	48	1
TAP	88	48	6
TAP	88	96	2
TAP	88	96	5
TAP	88	144	3
TAP	88	144	4
STR	88	168	3
SI_	88	168	3	96	48	7
TAP	88	168	4
BRK	88	288	0

T_REC_TAP	310
T_REC_BRK	38
T_REC_XTP	121
T_REC_HLD	52
T_REC_XHO	0
T_REC_STR	45
T_REC_BST	4
T_REC_XST	7
T_REC_TTP	102
T_REC_THO	1
T_REC_SLD	60
T_REC_ALL	740
T_NUM_TAP	585
T_NUM_BRK	42
T_NUM_HLD	53
T_NUM_SLD	60
T_NUM_ALL	740
T_JUDGE_TAP	627
T_JUDGE_HLD	137
T_JUDGE_SLD	60
T_JUDGE_ALL	824
TTM_EACHPAIRS	139
TTM_SCR_TAP	292500
TTM_SCR_BRK	109200
TTM_SCR_HLD	53000
TTM_SCR_SLD	90000
TTM_SCR_ALL	544700
TTM_SCR_S	524300
TTM_SCR_SS	540500
TTM_RAT_ACV	10077

