VERSION	0.00.00	1.03.00
FES_MODE	0
BPM_DEF	175.000	175.000	175.000	175.000
MET_DEF	4	4
RESOLUTION	384
CLK_DEF	384
COMPATIBLE_CODE	MA2

BPM	0	0	175.000
MET	0	0	4	4

XHO	1	0	2	1392
XHO	1	0	5	1440
XHO	5	0	1	1296
XHO	5	0	6	1248
XTP	9	0	4
XHO	9	0	5	384
TAP	9	192	3
HLD	10	0	2	768
TAP	10	192	3
TAP	11	0	4
TAP	11	192	5
STR	12	0	6
SCL	12	0	6	96	144	3
HLD	13	0	3	96
HLD	13	0	5	96
HLD	13	192	2	96
HLD	13	192	4	96
TAP	14	0	1
TAP	14	0	5
TAP	14	96	2
TAP	14	96	6
STR	14	192	3
SI_	14	192	3	96	48	0
STR	14	192	7
SI_	14	192	7	96	48	4
HLD	15	0	5	96
TAP	15	96	4
HLD	15	192	2	96
TAP	15	288	3
XHO	16	0	2	288
TAP	16	0	5
XTP	16	240	7
XTP	16	288	7
XTP	17	0	4
XTP	17	0	5
TAP	17	96	6
XTP	17	192	4
XTP	17	192	5
TAP	17	288	7
XTP	18	0	4
XTP	18	0	5
TAP	18	96	6
XTP	18	192	4
XTP	18	192	5
TAP	18	288	7
XTP	19	0	4
XTP	19	0	5
TAP	19	96	6
XTP	19	192	4
XTP	19	192	5
TAP	19	288	1
TAP	19	288	6
TAP	20	0	5
TAP	20	48	5
TAP	20	96	4
TAP	20	192	2
TAP	20	240	2
TAP	20	288	3
XTP	21	0	2
XTP	21	0	3
TAP	21	96	1
XTP	21	192	2
XTP	21	192	3
TAP	21	288	0
XTP	22	0	2
XTP	22	0	3
TAP	22	96	1
XTP	22	192	2
XTP	22	192	3
TAP	22	288	0
XTP	23	0	2
XTP	23	0	3
TAP	23	96	1
XTP	23	192	2
XTP	23	192	3
TAP	23	288	1
TAP	23	288	6
HLD	24	0	2	96
HLD	24	0	5	96
TAP	24	192	3
TAP	24	192	4
TAP	24	240	3
TAP	24	240	4
TAP	24	288	3
TAP	24	288	4
XHO	25	0	4	96
TAP	25	0	5
TAP	25	96	6
XHO	25	192	4	96
TAP	25	192	5
TAP	25	288	7
XHO	26	0	4	96
TAP	26	0	5
TAP	26	96	6
XHO	26	192	4	96
TAP	26	192	5
TAP	26	288	7
XHO	27	0	4	96
TAP	27	0	5
TAP	27	96	6
XTP	27	192	4
XTP	27	192	5
TAP	27	288	0
TAP	27	288	7
TAP	28	0	2
TAP	28	48	4
TAP	28	96	2
TAP	28	192	5
TAP	28	240	3
TAP	28	288	5
TAP	29	0	2
XHO	29	0	3	96
TAP	29	96	1
TAP	29	192	2
XHO	29	192	3	96
TAP	29	288	0
XHO	30	0	4	96
TAP	30	0	5
TAP	30	96	6
XHO	30	192	4	96
TAP	30	192	5
TAP	30	288	7
XHO	31	0	6	72
XHO	31	72	5	72
XHO	31	144	4	72
XHO	31	216	3	72
XTP	31	288	2
XTP	32	0	4
XTP	32	0	5
XTP	32	48	4
XTP	32	48	5
XTP	32	96	4
XTP	32	96	5
XST	32	144	4
SI_	32	144	4	96	48	0
XTP	32	144	5
BRK	32	288	7
TAP	33	0	5
TAP	33	48	5
TAP	33	96	4
TAP	33	192	6
TAP	33	288	3
TAP	33	288	4
TAP	34	0	2
TAP	34	48	2
TAP	34	96	3
TAP	34	192	1
TAP	34	288	3
TAP	34	288	4
TAP	35	0	4
TAP	35	0	5
TAP	35	96	6
TAP	35	192	2
TAP	35	192	3
TAP	35	288	1
STR	36	0	3
SI_	36	0	3	96	48	0
STR	36	0	4
SI_	36	0	4	96	48	7
XTP	36	192	1
XTP	36	192	6
XTP	36	288	1
XTP	36	288	6
TAP	37	0	1
TAP	37	0	3
TAP	37	96	0
HLD	37	192	6	96
HLD	37	192	7	96
TAP	38	0	6
TAP	38	0	7
STR	38	96	5
SI_	38	96	5	96	96	2
STR	38	96	6
SI_	38	96	6	96	96	1
TAP	39	0	3
TAP	39	0	5
TAP	39	96	2
TAP	39	144	2
TAP	39	192	4
TAP	39	288	5
TAP	39	336	5
XTP	40	0	3
XTP	40	72	3
XTP	40	72	5
XTP	40	144	2
XTP	40	144	4
XTP	40	216	2
XTP	40	216	4
XTP	40	288	1
XTP	40	288	5
TAP	41	0	6
TAP	41	48	6
TAP	41	96	7
TAP	41	192	6
XTP	41	288	0
XTP	41	288	7
TAP	42	0	1
TAP	42	48	1
TAP	42	96	0
XHO	42	192	2	96
XHO	42	192	7	96
TAP	43	0	3
TAP	43	0	4
TAP	43	96	4
TAP	43	96	6
TAP	43	192	3
TAP	43	192	4
TAP	43	288	1
TAP	43	288	3
STR	44	0	4
SI_	44	0	4	96	48	1
STR	44	0	5
SI_	44	0	5	96	48	0
XTP	44	192	2
BRK	44	192	7
BRK	44	288	0
STR	45	0	1
SCR	45	0	1	96	48	4
HLD	45	0	5	288
STR	45	192	1
SCR	45	192	1	96	48	4
TAP	46	0	6
TAP	46	96	2
TAP	46	96	4
TAP	46	192	5
TAP	46	240	5
TAP	46	288	4
TAP	47	0	2
TAP	47	0	3
TAP	47	96	0
TAP	47	192	4
TAP	47	192	5
XST	47	288	7
SF_	47	288	7	96	96	3
XTP	48	192	1
XTP	48	192	5
TTP	49	0	3	E	0	M1
TTP	49	0	4	E	0	M1
TTP	49	192	1	B	0	M1
TTP	49	192	2	B	0	M1
TTP	50	0	0	E	0	M1
TTP	50	0	1	E	0	M1
TTP	51	0	4	E	0	M1
TTP	51	0	5	E	0	M1
TTP	51	192	5	B	0	M1
TTP	51	192	6	B	0	M1
TTP	52	0	0	E	0	M1
TTP	52	0	7	E	0	M1
TTP	53	0	3	E	0	M1
TTP	53	96	2	E	0	M1
TTP	53	192	1	E	0	M1
TTP	53	288	0	E	0	M1
TTP	54	0	7	E	0	M1
TTP	54	96	6	E	0	M1
TTP	54	192	3	E	0	M1
TTP	54	192	5	E	0	M1
BRK	55	0	0
BRK	55	192	1
TTP	56	0	0	C	1	M1
TTP	56	0	1	B	0	M1
TTP	56	0	6	B	0	M1
TAP	57	0	6
TAP	57	0	7
TAP	57	96	4
TAP	57	96	5
TAP	57	192	2
TAP	57	192	3
TAP	57	288	0
TAP	57	288	1
TAP	58	0	6
TAP	58	48	6
TAP	58	96	7
TAP	58	192	0
TAP	58	192	5
TAP	58	288	2
TAP	58	288	7
TAP	59	0	0
TAP	59	0	1
TAP	59	96	2
TAP	59	96	3
TAP	59	192	4
TAP	59	192	5
TAP	59	288	6
TAP	59	288	7
TAP	60	0	1
TAP	60	48	1
TAP	60	96	0
STR	60	192	1
SI_	60	192	1	96	48	4
STR	60	192	6
SI_	60	192	6	96	48	3
BRK	61	0	2
BRK	61	0	6
TAP	61	144	7
TAP	61	192	0
TAP	61	192	7
TAP	61	288	1
TAP	61	288	6
TAP	62	0	2
TAP	62	0	3
TAP	62	96	3
TAP	62	96	4
TAP	62	192	5
TAP	62	240	4
TAP	62	288	3
TAP	62	288	6
XST	63	0	1
SI_	63	0	1	96	48	3
XST	63	0	7
SI_	63	0	7	96	48	3
XST	63	192	0
SI_	63	192	0	96	48	4
XST	63	192	6
SI_	63	192	6	96	48	4
XST	64	0	3
SI_	64	0	3	96	48	7
XST	64	0	4
SI_	64	0	4	96	48	0
BRK	64	192	1
XTP	64	192	6
TAP	65	0	4
HLD	65	0	5	96
TAP	65	96	7
TAP	65	192	0
HLD	65	192	1	96
TAP	65	288	3
TAP	66	0	5
TAP	66	48	4
TAP	66	96	4
TAP	66	96	5
TAP	66	192	3
TAP	66	192	6
TAP	66	288	2
TAP	66	288	5
HLD	67	0	1	96
TAP	67	0	3
TAP	67	96	0
HLD	67	192	6	96
TAP	67	192	7
TAP	67	288	4
TAP	68	0	2
TAP	68	48	3
TAP	68	96	2
TAP	68	96	3
TAP	68	192	1
TAP	68	192	4
XST	68	288	4
SF_	68	288	4	96	96	0
XTP	68	288	5
TAP	69	192	1
TAP	69	192	6
TAP	69	288	3
TAP	69	288	4
TAP	70	0	1
TAP	70	48	1
TAP	70	96	4
TAP	70	144	4
TAP	70	192	3
TAP	70	240	3
TAP	70	288	3
TAP	70	288	6
XHO	71	0	0	96
STR	71	0	1
SI_	71	0	1	96	48	4
STR	71	192	6
SI_	71	192	6	96	48	3
XHO	71	192	7	96
STR	72	0	0
SI_	72	0	0	96	48	4
STR	72	0	1
SI_	72	0	1	96	48	4
XTP	72	192	3
XTP	72	192	6
XTP	72	240	3
XTP	72	240	6
XTP	72	288	3
BRK	72	288	6
XHO	73	0	4	96
XTP	73	0	5
TAP	73	96	7
TAP	73	192	4
XHO	73	192	5	96
TAP	73	288	0
XHO	74	0	4	96
TAP	74	0	5
TAP	74	96	7
XTP	74	192	4
XHO	74	192	5	96
TAP	74	288	0
XHO	75	0	4	96
TAP	75	0	5
TAP	75	96	7
XTP	75	192	4
XTP	75	192	5
TAP	75	288	1
TAP	75	288	6
TTP	76	0	2	E	0	M1
TTP	76	0	3	E	0	M1
TTP	76	96	4	B	0	M1
TTP	76	192	5	E	0	M1
TTP	76	192	6	E	0	M1
TTP	76	288	4	E	0	M1
XTP	77	0	2
XHO	77	0	3	96
TAP	77	96	0
XHO	77	192	2	96
TAP	77	192	3
TAP	77	288	7
XTP	78	0	2
XHO	78	0	3	96
TAP	78	96	0
XHO	78	192	2	96
TAP	78	192	3
TAP	78	288	7
XTP	79	0	2
XHO	79	0	3	96
TAP	79	96	0
XTP	79	192	2
XTP	79	192	3
TAP	79	288	0
TAP	79	288	7
TTP	80	0	5	E	0	M1
TTP	80	0	6	E	0	M1
TTP	80	96	3	B	0	M1
TTP	80	192	2	E	0	M1
TTP	80	192	3	E	0	M1
TTP	80	288	4	E	0	M1
XTP	81	0	3
XHO	81	0	5	96
TAP	81	96	7
XHO	81	192	3	96
TAP	81	192	5
TAP	81	288	0
XTP	82	0	3
XHO	82	0	5	96
TAP	82	96	7
XHO	82	192	3	96
TAP	82	192	5
TAP	82	288	0
XTP	83	0	1
XHO	83	0	7	96
TAP	83	96	4
XHO	83	192	1	96
XTP	83	192	7
TAP	83	288	3
TTP	84	0	0	C	1	M1
TTP	84	0	2	B	0	M1
TTP	84	0	5	B	0	M1
TAP	84	192	0
TAP	84	192	7
TAP	84	288	1
TAP	84	288	6
XTP	85	0	3
XHO	85	0	5	96
TAP	85	96	7
XHO	85	192	2	96
XTP	85	192	4
TAP	85	288	0
XTP	86	0	2
XHO	86	0	4	96
TAP	86	96	7
XHO	86	192	3	96
XTP	86	192	5
TAP	86	288	0
XHO	87	0	1	72
XHO	87	72	2	72
XHO	87	144	3	72
XHO	87	216	4	72
XTP	87	288	5
XTP	88	0	2
XTP	88	0	3
XTP	88	48	2
XTP	88	48	3
XTP	88	96	2
XTP	88	96	3
XTP	88	144	2
XST	88	144	3
SI_	88	144	3	96	48	7
BRK	88	288	0

T_REC_TAP	227
T_REC_BRK	10
T_REC_XTP	87
T_REC_HLD	16
T_REC_XHO	47
T_REC_STR	17
T_REC_BST	0
T_REC_XST	10
T_REC_TTP	38
T_REC_THO	0
T_REC_SLD	27
T_REC_ALL	479
T_NUM_TAP	379
T_NUM_BRK	10
T_NUM_HLD	63
T_NUM_SLD	27
T_NUM_ALL	479
T_JUDGE_TAP	389
T_JUDGE_HLD	258
T_JUDGE_SLD	27
T_JUDGE_ALL	674
TTM_EACHPAIRS	141
TTM_SCR_TAP	189500
TTM_SCR_BRK	26000
TTM_SCR_HLD	63000
TTM_SCR_SLD	40500
TTM_SCR_ALL	319000
TTM_SCR_S	308500
TTM_SCR_SS	318000
TTM_RAT_ACV	10031

