VERSION	0.00.00	1.03.00
FES_MODE	0
BPM_DEF	175.000	175.000	175.000	175.000
MET_DEF	4	4
RESOLUTION	384
CLK_DEF	384
COMPATIBLE_CODE	MA2

BPM	0	0	175.000
MET	0	0	4	4

STR	1	0	1
SXR	1	0	1	96	432	4
STR	3	0	1
SXR	3	0	1	96	432	4
STR	5	0	1
SXR	5	0	1	96	432	4
TAP	7	0	0
TAP	7	96	0
TAP	7	192	7
TAP	7	288	7
BRK	8	0	1
BRK	8	0	6
HLD	9	0	2	576
TAP	10	0	3
TAP	10	192	3
HLD	11	0	5	576
TAP	12	0	4
TAP	12	192	4
TAP	13	0	2
TAP	13	96	2
TAP	13	192	2
TAP	14	0	3
TAP	14	96	3
TAP	14	192	3
TAP	15	0	4
TAP	15	96	4
TAP	15	192	3
TAP	15	288	3
XTP	16	0	3
XTP	16	0	4
XTP	16	96	3
XTP	16	96	4
BRK	16	192	2
BRK	16	192	5
TAP	17	0	1
TAP	17	96	1
TAP	17	192	0
TAP	17	192	1
TAP	18	0	6
TAP	18	96	6
TAP	18	192	6
TAP	18	192	7
TAP	19	0	1
TAP	19	96	1
TAP	19	192	0
TAP	19	192	1
TAP	20	0	2
TAP	20	96	3
TAP	20	192	4
TAP	20	288	5
TAP	21	0	6
TAP	21	96	6
XTP	21	192	6
XTP	21	192	7
TAP	22	0	1
TAP	22	96	1
XTP	22	192	0
XTP	22	192	1
TAP	23	0	6
TAP	23	96	6
XTP	23	192	6
XTP	23	192	7
TAP	24	0	5
TAP	24	96	4
TAP	24	192	3
TAP	24	288	2
XTP	25	0	1
XTP	25	96	1
XTP	25	192	0
XTP	25	192	1
XTP	26	0	6
XTP	26	96	6
XTP	26	192	6
XTP	26	192	7
XTP	27	0	1
XTP	27	96	1
XTP	27	192	0
XTP	27	192	1
TAP	28	0	2
TAP	28	96	3
TAP	28	192	4
TAP	28	288	5
XTP	29	0	6
XTP	29	96	6
BRK	29	192	6
BRK	29	192	7
XTP	30	0	1
XTP	30	96	1
BRK	30	192	0
BRK	30	192	1
TAP	31	0	7
TAP	31	96	7
TAP	31	192	0
TAP	31	288	0
STR	32	0	0
SI_	32	0	0	96	144	3
STR	32	0	7
SI_	32	0	7	96	144	4
HLD	33	0	5	192
TAP	33	192	4
TAP	33	288	3
HLD	34	0	4	192
TAP	34	192	3
TAP	34	288	2
HLD	35	0	2	192
TAP	35	192	3
TAP	35	288	3
TAP	36	0	4
TAP	36	96	4
TAP	36	192	3
TAP	36	192	5
HLD	37	0	2	192
TAP	37	192	3
TAP	37	288	4
HLD	38	0	3	192
TAP	38	192	4
TAP	38	288	5
HLD	39	0	5	192
TAP	39	192	4
TAP	39	288	4
TAP	40	0	3
TAP	40	96	3
TAP	40	192	2
TAP	40	192	4
HLD	41	0	5	192
TAP	41	192	4
TAP	41	288	3
HLD	42	0	3	192
TAP	42	192	4
TAP	42	288	5
HLD	43	0	5	192
TAP	43	192	4
TAP	43	288	3
XTP	44	0	3
XTP	44	0	4
BRK	44	96	3
BRK	44	96	4
BRK	44	192	3
BRK	44	192	4
HLD	45	0	3	96
HLD	45	0	4	96
HLD	45	192	3	96
HLD	45	192	4	96
HLD	46	0	2	96
HLD	46	0	5	96
BRK	46	192	1
BRK	46	192	6
TAP	47	0	0
TAP	47	96	0
TAP	47	192	7
TAP	47	288	7
HLD	48	0	0	96
HLD	48	0	7	96
XTP	48	192	1
XTP	48	192	6
TTP	49	0	5	B	0	L1
TTP	49	192	3	B	0	L1
TTP	50	0	4	B	0	L1
TTP	51	0	2	B	0	L1
TTP	51	192	4	B	0	L1
TTP	52	0	3	B	0	L1
TTP	53	0	1	B	0	L1
TTP	53	192	0	C	0	L1
TTP	54	0	5	B	0	L1
TTP	54	192	6	B	0	L1
THO	55	0	0	384	C	1	L1
TAP	57	0	0
TAP	57	96	1
TAP	57	192	2
TAP	57	288	3
TAP	57	288	4
TAP	58	0	5
TAP	58	96	6
XTP	58	192	6
XTP	58	192	7
TAP	59	0	5
TAP	59	96	4
TAP	59	192	3
TAP	59	288	2
TAP	60	0	1
TAP	60	96	0
TAP	60	96	7
BRK	60	192	1
BRK	60	192	6
HLD	61	0	2	192
HLD	61	192	3	192
HLD	62	0	4	192
XTP	62	192	5
TAP	63	0	6
TAP	63	96	6
TAP	63	192	7
TAP	63	288	7
XTP	64	0	0
XTP	64	0	7
XTP	64	96	0
XTP	64	96	7
BRK	64	192	1
BRK	64	192	6
TAP	65	0	7
TAP	65	96	6
TAP	65	192	5
TAP	65	288	3
TAP	65	288	4
TAP	66	0	2
TAP	66	96	1
XTP	66	192	0
XTP	66	192	1
TAP	67	0	2
TAP	67	96	3
TAP	67	192	4
TAP	67	288	5
TAP	68	0	6
TAP	68	96	0
TAP	68	96	7
BRK	68	192	1
BRK	68	192	6
HLD	69	0	5	192
HLD	69	192	4	192
HLD	70	0	3	192
XTP	70	192	2
TAP	71	0	1
TAP	71	96	1
TAP	71	192	0
TAP	71	288	0
XTP	72	0	0
XTP	72	0	7
XTP	72	96	0
XTP	72	96	7
BRK	72	192	1
BRK	72	192	6
TAP	73	0	1
TAP	73	96	1
TAP	73	192	0
TAP	73	192	1
TAP	74	0	6
TAP	74	96	6
TAP	74	192	6
TAP	74	192	7
TAP	75	0	1
TAP	75	96	1
TAP	75	192	0
TAP	75	192	1
TAP	76	0	2
TAP	76	96	3
TAP	76	192	4
TAP	76	288	5
TAP	77	0	6
TAP	77	96	6
XTP	77	192	6
XTP	77	192	7
TAP	78	0	1
TAP	78	96	1
XTP	78	192	0
XTP	78	192	1
TAP	79	0	6
TAP	79	96	6
XTP	79	192	6
XTP	79	192	7
TAP	80	0	5
TAP	80	96	4
TAP	80	192	3
TAP	80	288	2
XTP	81	0	1
XTP	81	96	1
XTP	81	192	0
XTP	81	192	1
XTP	82	0	6
XTP	82	96	6
XTP	82	192	6
XTP	82	192	7
XTP	83	0	1
XTP	83	96	1
XTP	83	192	0
XTP	83	192	1
TAP	84	0	2
TAP	84	96	3
TAP	84	192	4
TAP	84	288	5
XTP	85	0	6
XTP	85	96	6
BRK	85	192	6
BRK	85	192	7
XTP	86	0	1
XTP	86	96	1
BRK	86	192	0
BRK	86	192	1
STR	87	0	1
SXR	87	0	1	96	432	4
TTP	88	288	0	C	1	L1

T_REC_TAP	148
T_REC_BRK	26
T_REC_XTP	66
T_REC_HLD	25
T_REC_XHO	0
T_REC_STR	6
T_REC_BST	0
T_REC_XST	0
T_REC_TTP	11
T_REC_THO	1
T_REC_SLD	6
T_REC_ALL	289
T_NUM_TAP	231
T_NUM_BRK	26
T_NUM_HLD	26
T_NUM_SLD	6
T_NUM_ALL	289
T_JUDGE_TAP	257
T_JUDGE_HLD	108
T_JUDGE_SLD	6
T_JUDGE_ALL	371
TTM_EACHPAIRS	52
TTM_SCR_TAP	115500
TTM_SCR_BRK	67600
TTM_SCR_HLD	26000
TTM_SCR_SLD	9000
TTM_SCR_ALL	218100
TTM_SCR_S	209050
TTM_SCR_SS	215500
TTM_RAT_ACV	10120

