VERSION	0.00.00	1.03.00
FES_MODE	0
BPM_DEF	175.000	175.000	175.000	175.000
MET_DEF	4	4
RESOLUTION	384
CLK_DEF	384
COMPATIBLE_CODE	MA2

BPM	0	0	175.000
MET	0	0	4	4

TAP	9	0	0
TAP	10	0	0
TAP	11	0	1
TAP	12	0	1
TAP	13	0	2
TAP	14	0	2
TAP	15	0	3
TAP	15	0	4
XTP	16	0	3
XTP	16	0	4
XHO	17	0	4	144
XHO	18	0	4	144
XHO	19	0	4	144
TAP	20	0	4
TAP	20	192	4
XHO	21	0	3	144
XHO	22	0	3	144
XHO	23	0	3	144
TAP	24	0	3
TAP	24	0	4
TAP	24	192	3
TAP	24	192	4
XHO	25	0	3	144
XHO	25	0	4	144
XHO	26	0	3	144
XHO	26	0	4	144
XHO	27	0	3	144
XHO	27	0	4	144
TAP	28	0	2
TAP	28	0	5
TAP	28	192	2
TAP	28	192	5
XHO	29	0	2	144
XHO	29	0	5	144
XHO	30	0	2	144
XHO	30	0	5	144
STR	31	0	1
SI_	31	0	1	96	288	5
TAP	33	0	6
TAP	33	192	6
TAP	34	0	6
TAP	35	0	5
TAP	35	192	5
XTP	36	0	5
TAP	37	0	4
TAP	37	192	4
TAP	38	0	4
TAP	39	0	3
TAP	39	192	3
BRK	40	0	3
TAP	41	0	2
TAP	41	192	2
TAP	42	0	2
TAP	43	0	1
TAP	43	192	1
XTP	44	0	1
TAP	45	0	0
TAP	45	0	7
TAP	45	192	0
TAP	45	192	7
XTP	46	0	0
XTP	46	0	7
STR	47	0	0
SI_	47	0	0	96	288	3
STR	47	0	7
SI_	47	0	7	96	288	4
TTP	49	0	2	B	0	L1
TTP	50	0	1	B	0	L1
TTP	51	0	0	B	0	L1
TTP	52	0	7	B	0	L1
TTP	53	0	6	B	0	L1
TTP	54	0	5	B	0	L1
THO	55	0	0	384	C	1	L1
TAP	57	0	0
TAP	57	192	0
TAP	58	0	0
TAP	59	0	1
TAP	59	192	1
TAP	60	0	1
TAP	61	0	2
TAP	61	0	3
TAP	61	192	2
TAP	61	192	3
TAP	62	0	2
TAP	62	0	3
TAP	63	0	4
TAP	63	0	5
TAP	63	192	4
TAP	63	192	5
BRK	64	0	4
BRK	64	0	5
TAP	65	0	7
TAP	65	192	7
TAP	66	0	7
TAP	67	0	6
TAP	67	192	6
TAP	68	0	6
TAP	69	0	4
TAP	69	0	5
TAP	69	192	4
TAP	69	192	5
TAP	70	0	4
TAP	70	0	5
TAP	71	0	2
TAP	71	0	3
TAP	71	192	2
TAP	71	192	3
BRK	72	0	2
BRK	72	0	3
HLD	73	0	0	144
HLD	73	0	1	144
HLD	74	0	0	144
HLD	74	0	1	144
HLD	75	0	0	144
HLD	75	0	1	144
TAP	76	0	0
TAP	76	0	7
TAP	76	192	0
TAP	76	192	7
HLD	77	0	6	144
HLD	77	0	7	144
HLD	78	0	6	144
HLD	78	0	7	144
HLD	79	0	6	144
HLD	79	0	7	144
TAP	80	0	0
TAP	80	0	7
TAP	80	192	0
TAP	80	192	7
HLD	81	0	1	144
HLD	81	0	7	144
HLD	82	0	1	144
HLD	82	0	7	144
HLD	83	0	1	144
HLD	83	0	7	144
TAP	84	0	0
TAP	84	0	7
BRK	84	192	0
BRK	84	192	7
HLD	85	0	0	144
HLD	85	0	6	144
HLD	86	0	0	144
HLD	86	0	6	144
STR	87	0	7
SI_	87	0	7	96	288	2
XTP	88	288	0

T_REC_TAP	79
T_REC_BRK	7
T_REC_XTP	7
T_REC_HLD	22
T_REC_XHO	16
T_REC_STR	4
T_REC_BST	0
T_REC_XST	0
T_REC_TTP	6
T_REC_THO	1
T_REC_SLD	4
T_REC_ALL	146
T_NUM_TAP	96
T_NUM_BRK	7
T_NUM_HLD	39
T_NUM_SLD	4
T_NUM_ALL	146
T_JUDGE_TAP	103
T_JUDGE_HLD	122
T_JUDGE_SLD	4
T_JUDGE_ALL	229
TTM_EACHPAIRS	44
TTM_SCR_TAP	48000
TTM_SCR_BRK	18200
TTM_SCR_HLD	39000
TTM_SCR_SLD	6000
TTM_SCR_ALL	111200
TTM_SCR_S	107200
TTM_SCR_SS	110500
TTM_RAT_ACV	10063

