VERSION	0.00.00	1.03.00
FES_MODE	0
BPM_DEF	200.000	200.000	200.000	200.000
MET_DEF	4	4
RESOLUTION	384
CLK_DEF	384
COMPATIBLE_CODE	MA2

BPM	0	0	200.000
MET	0	0	4	4

TAP	2	0	3
TAP	2	48	4
TAP	2	96	2
TAP	2	144	5
TAP	2	192	3
TAP	2	240	4
TAP	2	288	3
TAP	2	336	4
TTP	3	0	3	E	0	M1
TTP	3	48	5	E	0	M1
TTP	3	96	1	E	0	M1
TTP	3	144	7	E	0	M1
TTP	3	192	0	C	0	M1
XTP	3	288	7
TAP	4	0	5
TAP	4	48	4
TAP	4	96	6
TAP	4	144	3
TAP	4	192	5
TAP	4	240	4
TAP	4	288	5
TAP	4	336	4
TTP	5	0	6	E	0	M1
TTP	5	48	4	E	0	M1
TTP	5	96	0	E	0	M1
TTP	5	144	2	E	0	M1
TTP	5	192	0	C	0	M1
XTP	5	288	0
TAP	6	0	2
TAP	6	48	3
TAP	6	96	1
TAP	6	144	4
TAP	6	192	2
TAP	6	240	3
TAP	6	288	2
TAP	6	336	3
HLD	7	0	2	96
HLD	7	96	3	96
HLD	7	192	4	96
TAP	7	288	5
TTP	8	0	5	B	0	M1
TTP	8	0	6	B	0	M1
TTP	8	0	7	E	0	M1
TTP	8	96	1	B	0	M1
TTP	8	96	2	B	0	M1
TTP	8	96	3	E	0	M1
TTP	8	192	0	B	0	M1
TTP	8	192	1	E	0	M1
TTP	8	192	7	B	0	M1
TTP	8	192	7	E	0	M1
TTP	8	288	3	E	0	M1
TTP	8	288	3	B	0	M1
TTP	8	288	4	B	0	M1
TTP	8	288	5	E	0	M1
TTP	9	0	0	E	0	M1
TTP	9	48	0	C	0	M1
TTP	9	96	4	E	0	M1
TTP	9	192	0	C	1	M1
TTP	9	192	2	E	0	M1
TTP	9	192	6	E	0	M1
TAP	10	0	1
TAP	10	0	7
TAP	10	48	2
TAP	10	96	3
TAP	10	96	4
TAP	10	144	2
STR	10	192	1
SI_	10	192	1	96	48	4
TAP	10	192	3
XTP	10	288	7
TAP	11	0	0
TAP	11	0	6
TAP	11	48	5
TAP	11	96	3
TAP	11	96	4
TAP	11	144	5
TAP	11	192	4
STR	11	192	6
SI_	11	192	6	96	48	3
XTP	11	288	0
TAP	12	0	1
TAP	12	0	7
TAP	12	48	2
TAP	12	96	3
TAP	12	96	4
TAP	12	144	5
TAP	12	192	6
TAP	12	192	7
TAP	12	240	0
TAP	12	288	1
TAP	12	288	7
TAP	12	336	2
XST	13	0	1
SI_	13	0	1	96	48	4
XTP	13	0	3
STR	13	96	6
SCR	13	96	6	96	96	2
HLD	13	192	3	96
TAP	14	0	0
TAP	14	0	6
TAP	14	48	5
TAP	14	96	3
TAP	14	96	4
TAP	14	144	5
TAP	14	192	4
STR	14	192	6
SI_	14	192	6	96	48	3
XTP	14	288	0
TAP	15	0	1
TAP	15	0	7
TAP	15	48	2
TAP	15	96	3
TAP	15	96	4
TAP	15	144	2
STR	15	192	1
SI_	15	192	1	96	48	4
TAP	15	192	3
XTP	15	288	7
TAP	16	0	0
TAP	16	0	6
TAP	16	48	5
TAP	16	96	3
TAP	16	96	4
TAP	16	144	2
TAP	16	192	1
STR	16	192	7
SI_	16	192	7	96	48	2
SI_	16	192	7	96	48	4
XTP	16	288	7
STR	17	0	1
SI_	17	0	1	96	48	4
STR	17	48	6
SI_	17	48	6	96	48	3
XTP	17	96	1
XTP	17	144	6
XTP	17	192	0
BRK	17	240	1
BRK	17	240	6
HLD	18	0	2	144
TAP	18	96	3
HLD	18	144	4	144
TAP	18	240	3
HLD	18	288	2	144
TAP	19	0	3
HLD	19	48	4	144
TAP	19	144	3
HLD	19	192	2	96
TTP	19	288	0	C	0	M1
HLD	20	0	5	144
TAP	20	96	4
HLD	20	144	3	144
TAP	20	240	4
HLD	20	288	5	144
TAP	21	0	4
HLD	21	48	3	144
TAP	21	144	4
HLD	21	192	5	96
TTP	21	288	0	C	0	M1
STR	22	0	0
SCR	22	0	0	96	96	4
STR	22	96	4
SCR	22	96	4	96	96	0
TAP	22	192	0
TTP	22	288	0	C	1	M1
TAP	23	0	1
TAP	23	0	7
TAP	23	48	2
TAP	23	96	3
TAP	23	96	4
TAP	23	144	2
STR	23	192	1
SI_	23	192	1	96	48	4
SI_	23	192	1	96	48	7
TAP	23	192	3
XTP	23	288	1
TAP	24	0	0
TAP	24	0	6
TAP	24	48	5
TAP	24	96	3
TAP	24	96	4
TAP	24	144	5
TAP	24	192	4
STR	24	192	6
SI_	24	192	6	96	48	0
SI_	24	192	6	96	48	3
XTP	24	288	6
TAP	25	0	1
TAP	25	0	7
TAP	25	48	2
TAP	25	96	3
TAP	25	96	4
TAP	25	144	5
TAP	25	192	0
TAP	25	192	6
TAP	25	240	1
TAP	25	288	0
TAP	25	288	2
TAP	25	336	3
TAP	25	336	7
XTP	26	0	4
XST	26	0	6
SI_	26	0	6	96	48	2
XST	26	96	1
SCL	26	96	1	96	96	5
XTP	26	96	6
XTP	26	192	1
HLD	26	192	4	96
TAP	27	0	0
TAP	27	0	6
TAP	27	48	5
TAP	27	96	3
TAP	27	96	4
TAP	27	144	2
TAP	27	192	1
STR	27	192	7
SF_	27	192	7	96	48	3
XTP	27	288	7
TAP	28	0	0
TAP	28	0	6
TAP	28	48	1
TAP	28	48	5
TAP	28	96	2
TAP	28	120	3
TAP	28	144	2
TAP	28	168	3
TAP	28	192	2
TAP	28	240	1
TAP	28	240	4
TAP	28	288	0
TAP	28	288	7
TAP	28	336	1
TAP	28	336	6
HLD	29	0	0	72
TAP	29	72	7
TAP	29	96	0
TAP	29	144	0
TAP	29	144	7
STR	29	192	1
SI_	29	192	1	96	48	4
STR	29	192	6
SI_	29	192	6	96	48	3
XTP	29	288	1
XTP	29	288	6
TTP	30	0	0	E	0	M1
TTP	30	48	0	C	0	M1
TTP	30	96	4	E	0	M1
TTP	30	192	0	C	1	M1
TTP	30	192	2	E	0	M1
TTP	30	192	6	E	0	M1
TTP	31	0	1	E	0	M1
TTP	31	48	7	E	0	M1
TTP	31	96	2	E	0	M1
TTP	31	144	6	E	0	M1
TTP	31	192	4	B	0	M1
TTP	31	192	5	B	0	M1
TTP	31	192	5	E	0	M1
TTP	31	288	0	C	0	M1
TTP	31	288	3	E	0	M1
TTP	31	288	7	E	0	M1
TAP	32	0	2
TAP	32	0	7
TAP	32	48	1
TAP	32	72	0
TAP	32	96	1
TAP	32	144	2
TAP	32	144	7
TAP	32	192	2
HLD	32	192	7	96
BRK	32	288	0
TTP	33	0	7	E	0	M1
TTP	33	48	1	E	0	M1
TTP	33	96	6	E	0	M1
TTP	33	144	2	E	0	M1
TTP	33	192	2	B	0	M1
TTP	33	192	3	B	0	M1
TTP	33	192	3	E	0	M1
TTP	33	288	0	C	0	M1
TTP	33	288	1	E	0	M1
TTP	33	288	5	E	0	M1
XTP	34	0	6
XTP	34	24	7
XTP	34	72	7
XTP	34	96	6
TAP	34	144	0
TAP	34	144	5
TAP	34	192	0
TAP	34	192	5
XTP	34	240	7
XTP	34	264	6
XTP	34	288	5
XTP	34	312	4
XTP	34	336	3
XTP	34	360	2
XHO	35	0	1	48
XHO	35	0	4	48
XHO	35	96	1	48
XHO	35	96	3	48
HLD	35	192	1	48
HLD	35	192	2	48
TAP	35	288	0
TAP	35	288	1
HLD	36	0	0	48
HLD	36	0	1	48
HLD	36	96	2	48
HLD	36	96	7	48
HLD	36	192	3	48
HLD	36	192	6	48
HLD	36	288	4	48
HLD	36	288	5	48
TAP	37	0	6
TAP	37	48	6
TAP	37	96	4
TAP	37	144	4
TAP	37	192	3
TAP	37	240	3
TAP	37	288	1
TAP	37	336	1
TAP	38	0	0
TAP	38	0	7
TAP	38	48	0
TAP	38	48	7
XTP	38	96	1
XTP	38	96	6
TAP	38	144	5
TAP	38	168	4
XTP	38	216	3
XTP	38	216	6
TAP	38	264	2
TAP	38	288	3
XTP	38	336	1
XTP	38	336	4
STR	39	0	0
SCR	39	0	0	96	240	5
STR	40	0	7
SCL	40	0	7	96	240	2
STR	41	0	0
SXL	41	0	0	96	336	4
TAP	41	96	7
TAP	41	192	7
TAP	41	288	6
HLD	42	0	6	288
XTP	43	0	3
XST	43	0	7
SCL	43	0	7	96	240	2
TAP	43	192	2
TAP	43	264	1
TAP	43	336	0
XST	44	0	0
SCR	44	0	0	96	240	5
TAP	44	192	5
TAP	44	264	6
TAP	44	336	7
XST	45	0	7
SXR	45	0	7	96	336	3
TAP	45	96	0
TAP	45	192	0
TAP	45	288	1
TAP	46	0	1
TAP	46	96	1
TAP	46	144	2
XST	46	192	3
SF_	46	192	3	96	48	7
TAP	48	0	3
TAP	48	0	4
TAP	48	48	2
TAP	48	96	1
TAP	48	144	0
TAP	48	192	6
TAP	48	216	7
TAP	48	240	6
TAP	48	288	5
TAP	48	336	4
TAP	49	0	3
TAP	49	0	4
TAP	49	48	5
TAP	49	96	6
TAP	49	144	7
TAP	49	192	1
TAP	49	216	0
TAP	49	240	1
TAP	49	288	2
TAP	49	336	3
TAP	50	0	3
TAP	50	0	4
TAP	50	48	2
TAP	50	96	1
TAP	50	144	0
TAP	50	192	6
TAP	50	216	7
TAP	50	240	6
TAP	50	288	5
TAP	50	336	4
TAP	51	0	2
TAP	51	24	3
TAP	51	48	2
TAP	51	96	1
TAP	51	120	0
TAP	51	144	1
TAP	51	192	0
TAP	51	192	1
TAP	51	240	2
TAP	51	240	7
TAP	51	288	3
TAP	51	288	6
TAP	51	336	5
TAP	52	0	3
TAP	52	0	4
TAP	52	48	5
TAP	52	96	6
TAP	52	144	7
TAP	52	192	1
TAP	52	216	0
TAP	52	240	1
TAP	52	288	2
TAP	52	336	3
TAP	53	0	3
TAP	53	0	4
TAP	53	48	2
TAP	53	96	1
TAP	53	144	0
TAP	53	192	6
TAP	53	216	7
TAP	53	240	6
TAP	53	288	5
TAP	53	336	4
TAP	54	0	3
TAP	54	0	4
TAP	54	48	5
TAP	54	96	6
TAP	54	144	7
TAP	54	192	1
TAP	54	216	0
TAP	54	240	1
TAP	54	288	2
TAP	54	336	3
TAP	55	0	5
TAP	55	24	4
TAP	55	48	5
TAP	55	96	6
TAP	55	120	7
TAP	55	144	6
TAP	55	192	6
TAP	55	192	7
TAP	55	240	0
TAP	55	240	5
TAP	55	288	1
TAP	55	288	4
TAP	55	336	2
HLD	56	0	4	48
HLD	56	48	5	48
HLD	56	96	6	48
TAP	56	144	7
TAP	56	192	5
TAP	56	216	4
TAP	56	240	6
TAP	56	288	2
TAP	56	312	3
TAP	56	336	1
HLD	57	0	7	48
HLD	57	48	0	48
HLD	57	96	1	48
TAP	57	144	2
TAP	57	192	5
TAP	57	216	4
TAP	57	240	6
TAP	57	288	2
TAP	57	312	3
TAP	57	336	1
HLD	58	0	4	48
HLD	58	48	5	48
HLD	58	96	6	48
TAP	58	144	7
TAP	58	192	5
TAP	58	216	4
TAP	58	240	6
TAP	58	288	2
TAP	58	312	3
TAP	58	336	1
TAP	59	0	6
TAP	59	24	7
TAP	59	48	6
TAP	59	72	7
TAP	59	96	6
TAP	59	120	7
HLD	59	144	6	48
TAP	59	192	7
TAP	59	240	0
TAP	59	240	6
TAP	59	288	1
TAP	59	288	5
TAP	59	336	2
TAP	59	336	4
HLD	60	0	1	48
HLD	60	48	3	48
HLD	60	96	4	48
TAP	60	144	6
TAP	60	192	1
TAP	60	216	0
TAP	60	240	2
TAP	60	288	6
TAP	60	312	7
TAP	60	336	5
HLD	61	0	2	48
HLD	61	48	0	48
HLD	61	96	7	48
TAP	61	144	5
TAP	61	192	1
TAP	61	216	0
TAP	61	240	2
TAP	61	288	6
TAP	61	312	7
TAP	61	336	5
HLD	62	0	1	48
HLD	62	48	3	48
HLD	62	96	4	48
TAP	62	144	6
TAP	62	192	1
TAP	62	216	0
TAP	62	240	2
XTP	62	288	0
XTP	62	288	7
BRK	62	336	1
BRK	62	336	6
TAP	63	48	0
TAP	63	48	4
XTP	63	144	4
XTP	63	144	5
XTP	63	192	3
XTP	63	192	6
XTP	63	240	2
XTP	63	240	7
BRK	63	288	0
BRK	63	288	1
HLD	64	0	3	288
HLD	64	0	4	288
TTP	65	0	5	E	0	M1
TTP	65	0	6	E	0	M1
TTP	65	96	2	E	0	M1
TTP	65	96	3	E	0	M1
TTP	65	192	0	C	0	M1
TTP	65	192	4	E	0	M1
BRK	65	288	0
TAP	66	0	5
TAP	66	48	4
TAP	66	96	3
TAP	66	144	2
TAP	66	192	2
TAP	66	192	5
HLD	66	240	2	96
HLD	66	240	5	96
TTP	67	0	2	E	0	M1
TTP	67	0	3	E	0	M1
TTP	67	96	5	E	0	M1
TTP	67	96	6	E	0	M1
TTP	67	192	0	C	0	M1
TTP	67	192	4	E	0	M1
BRK	67	240	7
BRK	67	288	7
TTP	68	0	1	B	0	M1
TTP	68	48	6	B	0	M1
TTP	68	96	3	B	0	M1
TTP	68	144	4	B	0	M1
TTP	68	192	0	B	0	M1
TTP	68	240	7	B	0	M1
TTP	68	288	2	E	0	M1
TTP	68	288	2	B	0	M1
TTP	68	336	5	B	0	M1
TTP	69	0	1	E	0	M1
TTP	69	48	6	E	0	M1
TTP	69	96	3	E	0	M1
TTP	69	144	4	E	0	M1
TTP	69	192	0	E	0	M1
TTP	69	240	7	E	0	M1
TTP	69	288	2	B	0	M1
TTP	69	288	2	E	0	M1
TTP	69	336	5	E	0	M1
TTP	70	0	1	B	0	M1
TTP	70	48	6	B	0	M1
TTP	70	96	3	B	0	M1
TTP	70	96	3	E	0	M1
TTP	70	144	4	B	0	M1
TTP	70	192	0	B	0	M1
TTP	70	240	7	B	0	M1
TTP	70	288	2	B	0	M1
TTP	70	288	3	E	0	M1
TTP	70	336	5	B	0	M1
TTP	71	0	1	B	0	M1
TTP	71	0	2	E	0	M1
TTP	71	48	7	E	0	M1
TTP	71	96	3	B	0	M1
TTP	71	96	4	E	0	M1
TTP	71	144	5	E	0	M1
TTP	71	192	0	B	0	M1
TTP	71	192	1	E	0	M1
TTP	71	240	6	B	0	M1
TTP	71	288	2	B	0	M1
TTP	71	288	3	E	0	M1
TTP	71	336	5	B	0	M1
THO	72	0	0	96	C	0	M1
TAP	72	192	0
TAP	72	216	7
TAP	72	240	0
TAP	72	264	7
XTP	72	288	1
XTP	72	288	6
TAP	73	0	4
TAP	73	0	5
TAP	73	48	4
TAP	73	48	5
XTP	73	96	3
XTP	73	96	6
TAP	73	144	1
TAP	73	168	0
XTP	73	216	2
XTP	73	216	7
TAP	73	264	6
TAP	73	288	7
XTP	73	336	0
XTP	73	336	5
STR	74	0	7
SCL	74	0	7	96	240	2
STR	75	0	0
SCR	75	0	0	96	240	5
STR	76	0	7
SXR	76	0	7	96	336	3
TAP	76	96	0
TAP	76	192	0
TAP	76	288	1
HLD	77	0	1	288
BRK	77	288	7
XST	78	0	0
SCR	78	0	0	96	240	5
XTP	78	0	4
TAP	78	192	5
TAP	78	264	6
TAP	78	336	7
XST	79	0	7
SCL	79	0	7	96	240	2
TAP	79	192	2
TAP	79	264	1
TAP	79	336	0
XST	80	0	0
SXL	80	0	0	96	336	4
TAP	80	96	7
TAP	80	192	7
TAP	80	288	6
TAP	81	0	6
TAP	81	96	6
TAP	81	144	5
XST	81	192	3
SI_	81	192	3	96	48	0
XST	81	192	4
SI_	81	192	4	96	48	7
BRK	82	0	1
BRK	82	0	6
TAP	82	96	3
TAP	82	120	4
TAP	82	144	3
TAP	82	168	4
TAP	82	192	2
TAP	82	216	5
TAP	82	240	2
TAP	82	264	5
BRK	82	288	2
TTP	83	0	0	C	1	M1
TTP	83	0	2	B	0	M1
TTP	83	0	3	B	0	M1
TTP	83	96	0	B	0	M1
TTP	83	96	0	C	1	M1
TTP	83	96	1	B	0	M1
TTP	83	192	0	C	1	M1
TTP	83	192	6	B	0	M1
TTP	83	192	7	B	0	M1
TTP	83	288	0	C	1	M1
TTP	83	288	4	B	0	M1
TTP	83	288	5	B	0	M1
XTP	84	0	0
XTP	84	12	1
XTP	84	24	2
XTP	84	36	3
XTP	84	48	4
XTP	84	60	5
XTP	84	72	6
XTP	84	84	7
XTP	84	96	0
XTP	84	108	1
XTP	84	120	2
XTP	84	132	3
XTP	84	144	4
XTP	84	156	5
XTP	84	168	6
XTP	84	180	7
XST	84	192	0
SF_	84	192	0	96	48	4
BRK	84	288	0
HLD	85	0	1	48
HLD	85	0	7	48
HLD	85	72	2	48
HLD	85	72	3	48
TAP	85	144	0
TAP	85	144	6
STR	85	192	7
SI_	85	192	7	96	48	3
STR	85	240	2
SI_	85	240	2	96	48	5
TAP	85	288	7
TAP	85	336	2
HLD	86	0	0	48
XHO	86	72	4	48
XHO	86	72	6	48
TAP	86	144	1
TAP	86	144	7
STR	86	192	0
SI_	86	192	0	96	48	4
STR	86	240	5
SI_	86	240	5	96	48	2
TAP	86	288	0
TAP	86	336	5
HLD	87	0	7	48
XHO	87	72	1	48
XHO	87	72	3	48
TAP	87	144	0
TAP	87	144	6
STR	87	192	7
SI_	87	192	7	96	48	3
STR	87	240	2
SI_	87	240	2	96	48	5
TAP	87	288	7
TAP	87	336	2
STR	88	0	0
SCL	88	0	0	96	48	5
STR	88	96	0
SCR	88	96	0	96	48	3
TAP	88	96	4
TAP	88	192	0
STR	88	192	4
SF_	88	192	4	96	48	0
XTP	88	288	4
HLD	89	0	2	48
HLD	89	0	6	48
HLD	89	72	4	48
HLD	89	72	5	48
TAP	89	144	1
TAP	89	144	7
STR	89	192	0
SI_	89	192	0	96	48	4
STR	89	240	5
SCL	89	240	5	96	48	2
TAP	89	288	0
TAP	89	336	5
HLD	90	0	7	48
XHO	90	72	1	48
XHO	90	72	3	48
TAP	90	144	0
TAP	90	144	6
STR	90	192	7
SI_	90	192	7	96	48	3
STR	90	240	2
SCR	90	240	2	96	48	5
TAP	90	288	7
TAP	90	336	2
HLD	91	0	0	48
XHO	91	72	4	48
XHO	91	72	6	48
TAP	91	144	1
TAP	91	144	7
STR	91	192	0
SI_	91	192	0	96	48	4
STR	91	240	5
SCL	91	240	5	96	48	2
TAP	91	288	0
TAP	91	336	5
TAP	92	0	7
TAP	92	48	7
XTP	92	96	0
XTP	92	96	6
TAP	92	144	1
TAP	92	168	0
XTP	92	216	2
XTP	92	216	7
TAP	92	264	4
TAP	92	288	3
BRK	92	336	2
BRK	92	336	5
HLD	93	0	0	48
HLD	93	0	6	48
HLD	93	72	4	48
HLD	93	72	5	48
TAP	93	144	1
TAP	93	144	7
STR	93	192	6
SI_	93	192	6	96	48	3
STR	93	240	2
SI_	93	240	2	96	48	7
TAP	93	288	6
TAP	93	336	2
HLD	94	0	4	48
HLD	94	72	1	48
HLD	94	72	3	48
TAP	94	144	0
TAP	94	144	6
STR	94	192	1
SI_	94	192	1	96	48	4
STR	94	240	5
SI_	94	240	5	96	48	0
TAP	94	288	1
TAP	94	336	5
HLD	95	0	3	48
HLD	95	72	4	48
HLD	95	72	6	48
TAP	95	144	1
TAP	95	144	7
STR	95	192	6
SI_	95	192	6	96	48	3
STR	95	240	2
SI_	95	240	2	96	48	7
TAP	95	288	6
TAP	95	336	2
STR	96	0	4
SCR	96	0	4	96	48	7
TAP	96	96	0
STR	96	96	4
SCL	96	96	4	96	48	1
STR	96	192	0
SF_	96	192	0	96	48	4
TAP	96	192	4
XTP	96	288	0
HLD	97	0	1	48
HLD	97	0	5	48
HLD	97	72	2	48
HLD	97	72	3	48
TAP	97	144	0
TAP	97	144	6
STR	97	192	7
SI_	97	192	7	96	48	4
STR	97	240	2
SCL	97	240	2	96	48	7
TAP	97	288	7
TAP	97	336	2
HLD	98	0	3	48
HLD	98	72	2	48
HLD	98	72	4	48
TAP	98	144	1
TAP	98	144	7
STR	98	192	0
SI_	98	192	0	96	48	3
STR	98	240	5
SCR	98	240	5	96	48	0
TAP	98	288	0
TAP	98	336	5
HLD	99	0	4	48
HLD	99	72	3	48
HLD	99	72	5	48
TAP	99	144	0
TAP	99	144	6
STR	99	192	7
SI_	99	192	7	96	48	4
STR	99	240	2
SCL	99	240	2	96	48	7
TAP	99	288	7
TAP	99	336	2
TAP	100	0	3
TAP	100	48	3
XTP	100	96	2
XTP	100	96	4
TAP	100	144	6
TAP	100	168	7
XTP	100	216	0
XTP	100	216	5
TAP	100	264	1
TAP	100	288	0
BRK	100	336	2
BRK	100	336	7
STR	101	0	0
SCR	101	0	0	96	192	4
TAP	101	0	7
TAP	102	0	4
STR	102	0	7
SCR	102	0	7	96	192	4
STR	103	0	0
SCR	103	0	0	96	192	4
TAP	103	0	4
TAP	104	0	4
STR	104	0	7
SCL	104	0	7	96	240	2
TAP	104	96	3
TAP	104	192	2
TAP	104	288	1
STR	105	0	0
SCL	105	0	0	96	192	3
STR	106	0	3
SCL	106	0	3	96	192	4
TAP	106	0	7
TAP	107	0	7
TAP	107	24	6
TAP	107	48	5
TAP	107	72	4
TAP	107	96	0
TAP	107	120	1
TAP	107	144	2
TAP	107	168	3
TAP	107	192	6
TAP	107	216	5
TAP	107	240	4
TAP	107	264	3
TAP	107	288	1
TAP	107	312	0
TAP	107	336	1
TAP	107	360	0
XTP	108	0	1
XTP	108	12	2
XTP	108	24	3
XTP	108	36	4
XTP	108	96	7
XTP	108	108	6
XTP	108	120	5
XTP	108	132	4
XTP	108	192	1
XTP	108	204	2
XTP	108	216	3
XTP	108	228	4
XTP	108	240	5
XTP	108	252	6
XTP	108	264	7
XTP	108	276	0
XTP	108	288	1
XTP	108	300	2
XTP	108	312	3
XTP	108	324	4
XTP	108	336	5
XTP	108	348	6
XTP	108	360	7
XTP	108	372	0
THO	109	0	0	1152	C	0	M1
XTP	109	0	1

T_REC_TAP	448
T_REC_BRK	19
T_REC_XTP	104
T_REC_HLD	84
T_REC_XHO	12
T_REC_STR	57
T_REC_BST	0
T_REC_XST	13
T_REC_TTP	123
T_REC_THO	2
T_REC_SLD	73
T_REC_ALL	935
T_NUM_TAP	745
T_NUM_BRK	19
T_NUM_HLD	98
T_NUM_SLD	73
T_NUM_ALL	935
T_JUDGE_TAP	764
T_JUDGE_HLD	169
T_JUDGE_SLD	73
T_JUDGE_ALL	1006
TTM_EACHPAIRS	142
TTM_SCR_TAP	372500
TTM_SCR_BRK	49400
TTM_SCR_HLD	98000
TTM_SCR_SLD	109500
TTM_SCR_ALL	629400
TTM_SCR_S	608700
TTM_SCR_SS	627500
TTM_RAT_ACV	10030

