VERSION	0.00.00	1.03.00
FES_MODE	0
BPM_DEF	200.000	200.000	200.000	200.000
MET_DEF	4	4
RESOLUTION	384
CLK_DEF	384
COMPATIBLE_CODE	MA2

BPM	0	0	200.000
MET	0	0	4	4

TAP	2	0	2
TAP	2	96	1
TAP	2	96	3
TAP	2	192	2
TAP	2	288	1
TAP	2	288	3
STR	3	0	2
SCR	3	0	2	96	96	5
BRK	3	288	7
TAP	4	0	5
TAP	4	96	4
TAP	4	96	6
TAP	4	192	5
TAP	4	288	4
TAP	4	288	6
TTP	5	0	5	B	0	M1
TTP	5	96	0	C	0	M1
TTP	5	192	0	B	0	M1
TTP	5	192	1	B	0	M1
TAP	6	0	2
TAP	6	96	1
TAP	6	96	3
TAP	6	192	2
TAP	6	288	1
TAP	6	288	3
TAP	7	0	5
TAP	7	96	4
TAP	7	96	6
TAP	7	192	5
TAP	7	288	4
TAP	7	288	6
TTP	8	0	3	B	0	M1
TTP	8	96	4	B	0	M1
TTP	8	192	1	E	0	M1
TTP	8	192	2	E	0	M1
TTP	8	288	6	E	0	M1
TTP	8	288	7	E	0	M1
TAP	9	0	0
TAP	9	48	7
TAP	9	96	0
BRK	9	192	1
BRK	9	192	6
HLD	10	0	0	72
HLD	10	72	6	72
TAP	10	144	7
TAP	10	192	5
TAP	10	240	4
TAP	10	288	5
HLD	11	0	7	72
HLD	11	72	1	72
TAP	11	144	0
TAP	11	192	2
TAP	11	240	3
TAP	11	288	2
HLD	12	0	2	72
HLD	12	72	6	72
TAP	12	144	0
TAP	12	192	7
TAP	12	240	0
TAP	12	288	7
TTP	13	0	5	B	0	M1
TTP	13	0	6	B	0	M1
TTP	13	96	1	B	0	M1
TTP	13	96	2	B	0	M1
TTP	13	192	0	C	0	M1
TTP	13	192	0	B	0	M1
TTP	13	192	7	B	0	M1
HLD	14	0	3	72
HLD	14	72	5	72
TAP	14	144	4
TAP	14	192	6
TAP	14	240	7
TAP	14	288	6
HLD	15	0	4	72
HLD	15	72	2	72
TAP	15	144	3
TAP	15	192	1
TAP	15	240	0
TAP	15	288	1
HLD	16	0	1	72
HLD	16	72	5	72
TAP	16	144	3
TAP	16	192	4
TAP	16	240	3
TAP	16	288	4
TAP	17	0	1
TAP	17	48	6
STR	17	96	0
SI_	17	96	0	96	48	4
TAP	17	144	7
HLD	18	0	6	192
HLD	18	192	5	192
HLD	19	0	4	192
TAP	19	192	3
HLD	20	0	2	192
HLD	20	192	4	192
HLD	21	0	5	192
TAP	21	192	6
BRK	21	288	7
THO	22	0	0	192	C	1	M1
TTP	22	0	2	B	0	M1
TTP	22	0	5	B	0	M1
STR	23	0	7
SI_	23	0	7	96	48	3
TAP	23	96	0
TAP	23	192	2
TAP	23	240	2
TAP	23	288	4
TAP	24	0	5
TAP	24	48	4
TAP	24	96	5
TAP	24	192	4
TAP	24	192	5
TAP	24	288	3
TAP	24	288	6
STR	25	0	0
SI_	25	0	0	96	48	4
TAP	25	96	7
TAP	25	192	5
TAP	25	240	5
TAP	25	288	3
TAP	26	0	2
TAP	26	48	3
TAP	26	96	2
HLD	26	192	1	96
HLD	26	192	4	96
STR	27	0	4
SI_	27	0	4	96	48	0
TAP	27	96	3
TAP	27	192	1
TAP	27	240	1
TAP	27	288	7
TAP	28	0	6
TAP	28	48	7
TAP	28	96	6
TAP	28	192	6
TAP	28	192	7
TAP	28	288	1
TAP	28	288	5
HLD	29	0	3	96
HLD	29	0	4	96
TAP	29	192	3
TAP	29	192	4
TAP	29	288	3
TAP	29	288	4
TAP	30	0	0
TAP	30	48	7
TAP	30	96	0
BRK	30	192	1
BRK	30	192	6
TTP	31	0	3	B	0	M1
TTP	31	96	4	B	0	M1
TTP	31	192	0	B	0	M1
TTP	31	192	1	B	0	M1
TTP	31	288	6	B	0	M1
TTP	31	288	7	B	0	M1
TAP	32	0	4
TAP	32	0	5
TAP	32	96	2
TAP	32	96	3
TAP	32	192	6
TAP	32	192	7
BRK	32	288	0
TTP	33	0	7	B	0	M1
TTP	33	96	0	B	0	M1
TTP	33	192	4	B	0	M1
TTP	33	192	5	B	0	M1
TTP	33	288	2	B	0	M1
TTP	33	288	3	B	0	M1
TAP	34	0	0
TAP	34	0	1
TAP	34	96	6
TAP	34	96	7
HLD	34	192	4	96
HLD	34	192	5	96
TTP	35	0	3	B	0	M1
TTP	35	0	4	E	0	M1
TTP	35	96	5	B	0	M1
TTP	35	96	6	E	0	M1
TTP	35	192	1	B	0	M1
TTP	35	192	2	E	0	M1
TTP	35	288	0	E	0	M1
TTP	35	288	7	B	0	M1
TTP	36	0	0	B	0	M1
TTP	36	0	1	E	0	M1
TTP	36	96	5	B	0	M1
TTP	36	96	6	E	0	M1
TTP	36	192	2	B	0	M1
TTP	36	192	3	E	0	M1
TTP	36	288	4	B	0	M1
TTP	36	288	4	E	0	M1
THO	37	0	0	576	C	0	M1
STR	39	0	7
SSR	39	0	7	96	192	3
STR	40	0	0
SSL	40	0	0	96	192	4
STR	41	0	7
SCL	41	0	7	96	480	0
XHO	43	0	2	96
XHO	43	0	3	96
XTP	43	192	2
XTP	43	192	4
XTP	43	264	3
XTP	43	264	5
XTP	43	336	4
XTP	43	336	6
XHO	44	0	4	96
XHO	44	0	6	96
XTP	44	192	3
XTP	44	192	6
XTP	44	264	2
XTP	44	264	5
XTP	44	336	1
XTP	44	336	4
XHO	45	0	1	96
XHO	45	0	4	96
XHO	45	192	3	96
XHO	45	192	6	96
TAP	46	0	0
TAP	46	0	7
TAP	46	96	3
TAP	46	144	4
TAP	46	192	3
BRK	46	288	1
BRK	46	288	6
THO	47	0	0	192	C	0	M1
STR	48	0	0
SI_	48	0	0	96	48	4
STR	48	96	7
SI_	48	96	7	96	48	5
STR	48	192	1
SI_	48	192	1	96	48	3
STR	49	0	7
SI_	49	0	7	96	48	3
STR	49	96	0
SI_	49	96	0	96	48	2
STR	49	192	6
SI_	49	192	6	96	48	4
STR	50	0	3
SI_	50	0	3	96	48	1
STR	50	96	5
SI_	50	96	5	96	48	7
STR	50	192	4
SI_	50	192	4	96	48	0
STR	51	0	2
SXR	51	0	2	96	192	7
STR	51	0	3
SXL	51	0	3	96	192	6
STR	52	0	1
SI_	52	0	1	96	48	5
STR	52	96	0
SI_	52	96	0	96	48	6
STR	52	192	2
SI_	52	192	2	96	48	4
STR	53	0	6
SI_	53	0	6	96	48	2
STR	53	96	7
SI_	53	96	7	96	48	1
STR	53	192	5
SI_	53	192	5	96	48	3
STR	54	0	2
SI_	54	0	2	96	48	0
STR	54	96	4
SI_	54	96	4	96	48	6
STR	54	192	3
SI_	54	192	3	96	48	7
STR	55	0	4
SXR	55	0	4	96	192	1
STR	55	0	5
SXL	55	0	5	96	192	0
TTP	56	0	7	B	0	M1
TTP	56	96	1	B	0	M1
TTP	56	192	4	B	0	M1
TTP	56	192	5	B	0	M1
TTP	56	288	2	E	0	M1
TTP	56	288	3	E	0	M1
TTP	57	0	0	B	0	M1
TTP	57	96	6	B	0	M1
TTP	57	192	2	B	0	M1
TTP	57	192	3	B	0	M1
TTP	57	288	5	E	0	M1
TTP	57	288	6	E	0	M1
TTP	58	0	7	B	0	M1
TTP	58	96	1	B	0	M1
TTP	58	192	4	B	0	M1
TTP	58	192	5	B	0	M1
TTP	58	288	2	E	0	M1
TTP	58	288	3	E	0	M1
THO	59	0	0	192	C	0	M1
TTP	60	0	4	B	0	M1
TTP	60	96	2	B	0	M1
TTP	60	192	6	B	0	M1
TTP	60	192	7	B	0	M1
TTP	60	288	1	E	0	M1
TTP	60	288	2	E	0	M1
TTP	61	0	3	B	0	M1
TTP	61	96	5	B	0	M1
TTP	61	192	0	B	0	M1
TTP	61	192	1	B	0	M1
TTP	61	288	6	E	0	M1
TTP	61	288	7	E	0	M1
TTP	62	0	4	B	0	M1
TTP	62	96	2	B	0	M1
TTP	62	192	6	B	0	M1
TTP	62	192	7	B	0	M1
TTP	62	288	1	E	0	M1
TTP	62	288	2	E	0	M1
TTP	63	0	0	C	1	M1
HLD	64	0	2	288
TAP	64	0	4
TAP	64	96	4
TAP	64	192	3
TAP	64	288	3
TAP	65	0	2
TAP	65	0	4
TAP	65	96	3
TAP	65	96	5
TAP	65	192	4
TAP	65	192	6
BRK	65	288	7
TAP	66	0	3
HLD	66	0	5	288
TAP	66	96	3
TAP	66	192	4
TAP	66	288	4
TAP	67	0	3
TAP	67	0	5
TAP	67	96	2
TAP	67	96	4
TAP	67	192	1
TAP	67	192	3
XTP	67	240	0
XTP	67	288	0
XST	68	0	0
SCR	68	0	0	96	48	3
TAP	68	96	4
XST	68	192	4
SCR	68	192	4	96	48	7
TAP	68	288	0
XST	69	0	0
SCR	69	0	0	96	48	3
TAP	69	96	4
XST	69	192	4
SCR	69	192	4	96	48	7
TAP	69	288	0
XST	70	0	0
SCR	70	0	0	96	48	3
XST	70	96	4
SCR	70	96	4	96	48	7
XST	70	192	0
SCR	70	192	0	96	48	3
XST	70	288	4
SCR	70	288	4	96	48	7
XST	71	0	0
SCR	71	0	0	96	48	3
XST	71	96	4
SCR	71	96	4	96	48	7
XTP	71	192	0
XTP	71	288	4
TAP	72	0	2
TAP	72	48	3
TAP	72	96	2
TAP	72	96	4
TAP	72	192	5
TAP	72	240	4
TAP	72	288	3
TAP	72	288	5
TAP	73	0	3
TAP	73	0	4
TAP	73	96	2
TAP	73	96	5
TAP	73	192	1
TAP	73	192	6
TAP	73	288	0
TAP	73	288	7
HLD	74	0	0	192
HLD	74	0	7	576
HLD	75	0	1	480
HLD	76	0	2	288
HLD	76	192	3	384
HLD	77	0	4	192
BRK	77	288	0
HLD	78	0	1	192
HLD	78	0	3	192
HLD	79	0	4	192
HLD	79	0	6	192
HLD	80	0	0	96
TAP	80	96	2
HLD	80	192	7	96
TAP	80	288	5
TAP	81	0	0
TAP	81	0	7
TAP	81	96	3
TAP	81	144	4
TAP	81	192	3
BRK	81	288	1
BRK	81	288	6
THO	82	0	0	960	C	1	M1
XTP	83	0	7
XTP	83	96	7
XTP	83	192	6
XTP	83	288	6
XTP	84	0	7
XTP	84	96	7
BRK	84	192	7
HLD	85	0	6	72
TAP	85	72	7
TAP	85	144	6
STR	85	192	5
SI_	85	192	5	96	48	0
TAP	85	240	5
TAP	85	288	3
TAP	85	336	3
HLD	86	0	1	72
TAP	86	72	0
TAP	86	144	1
STR	86	192	2
SI_	86	192	2	96	48	7
TAP	86	240	2
TAP	86	288	4
TAP	86	336	4
HLD	87	0	6	72
TAP	87	72	7
TAP	87	144	6
STR	87	192	5
SI_	87	192	5	96	48	0
TAP	87	240	5
TAP	87	288	3
TAP	87	336	3
TAP	88	0	1
TAP	88	48	1
TAP	88	96	7
TAP	88	144	7
TAP	88	192	3
TAP	88	240	3
TAP	88	288	4
TAP	88	288	5
HLD	89	0	5	72
TAP	89	72	4
TAP	89	144	5
STR	89	192	6
SI_	89	192	6	96	48	3
TAP	89	240	6
TAP	89	288	0
TAP	89	336	0
HLD	90	0	2	72
TAP	90	72	3
TAP	90	144	2
STR	90	192	1
SI_	90	192	1	96	48	4
TAP	90	240	1
TAP	90	288	7
TAP	90	336	7
HLD	91	0	5	72
TAP	91	72	4
TAP	91	144	5
STR	91	192	6
SI_	91	192	6	96	48	3
TAP	91	240	6
TAP	91	288	0
TAP	91	336	0
TAP	92	0	1
TAP	92	48	1
TAP	92	96	5
TAP	92	144	5
TAP	92	192	3
TAP	92	240	4
BRK	92	288	1
BRK	92	288	6
HLD	93	0	2	72
TAP	93	72	3
TAP	93	144	2
STR	93	192	1
SLR	93	192	1	96	72	7
TAP	93	240	1
TAP	93	288	4
TAP	93	336	4
HLD	94	0	5	72
TAP	94	72	4
TAP	94	144	5
STR	94	192	6
SLL	94	192	6	96	72	0
TAP	94	240	6
TAP	94	288	3
TAP	94	336	3
HLD	95	0	2	72
TAP	95	72	3
TAP	95	144	2
STR	95	192	1
SLR	95	192	1	96	72	7
TAP	95	240	1
TAP	95	288	4
TAP	95	336	4
TAP	96	0	5
TAP	96	48	5
TAP	96	96	1
TAP	96	144	1
TAP	96	192	7
TAP	96	240	7
TAP	96	288	0
TAP	96	288	1
HLD	97	0	1	72
TAP	97	72	0
TAP	97	144	1
STR	97	192	2
SLL	97	192	2	96	72	4
TAP	97	240	2
TAP	97	288	5
TAP	97	336	5
HLD	98	0	6	72
TAP	98	72	7
TAP	98	144	6
STR	98	192	5
SLR	98	192	5	96	72	3
TAP	98	240	5
TAP	98	288	1
TAP	98	336	1
HLD	99	0	1	72
TAP	99	72	0
TAP	99	144	1
STR	99	192	2
SLL	99	192	2	96	72	4
TAP	99	240	2
TAP	99	288	6
TAP	99	336	6
TAP	100	0	7
TAP	100	48	7
TAP	100	96	2
TAP	100	144	2
TAP	100	192	4
TAP	100	240	3
BRK	100	288	1
BRK	100	288	6
TTP	101	0	5	B	0	M1
TTP	102	0	1	B	0	M1
TTP	103	0	7	B	0	M1
TTP	104	0	0	E	0	M1
TTP	104	192	0	C	0	M1
TTP	105	0	4	B	0	M1
TTP	105	0	5	B	0	M1
TTP	105	192	0	B	0	M1
TTP	106	0	2	B	0	M1
TTP	106	0	3	B	0	M1
TTP	106	192	7	B	0	M1
TTP	107	0	0	C	0	M1
TTP	107	0	3	B	0	M1
TTP	107	0	4	B	0	M1
TTP	107	192	0	E	0	M1
TTP	108	0	1	E	0	M1
TTP	108	0	7	E	0	M1
TTP	108	96	2	E	0	M1
TTP	108	96	6	E	0	M1
TTP	108	192	3	E	0	M1
TTP	108	192	5	E	0	M1
TTP	108	288	4	E	0	M1
THO	109	0	0	1152	C	0	M1
TTP	109	0	1	B	0	M1
TTP	109	0	6	B	0	M1

T_REC_TAP	242
T_REC_BRK	18
T_REC_XTP	22
T_REC_HLD	50
T_REC_XHO	8
T_REC_STR	42
T_REC_BST	0
T_REC_XST	10
T_REC_TTP	108
T_REC_THO	6
T_REC_SLD	52
T_REC_ALL	558
T_NUM_TAP	424
T_NUM_BRK	18
T_NUM_HLD	64
T_NUM_SLD	52
T_NUM_ALL	558
T_JUDGE_TAP	442
T_JUDGE_HLD	244
T_JUDGE_SLD	52
T_JUDGE_ALL	738
TTM_EACHPAIRS	61
TTM_SCR_TAP	212000
TTM_SCR_BRK	46800
TTM_SCR_HLD	64000
TTM_SCR_SLD	78000
TTM_SCR_ALL	400800
TTM_SCR_S	387050
TTM_SCR_SS	399000
TTM_RAT_ACV	10045

