VERSION	0.00.00	1.03.00
FES_MODE	0
BPM_DEF	200.000	200.000	200.000	200.000
MET_DEF	4	4
RESOLUTION	384
CLK_DEF	384
COMPATIBLE_CODE	MA2

BPM	0	0	200.000
MET	0	0	4	4

TAP	2	0	5
TAP	2	96	5
TAP	2	192	4
TAP	2	288	4
HLD	3	0	2	192
HLD	3	0	3	192
TAP	4	0	2
TAP	4	96	2
TAP	4	192	3
TAP	4	288	3
TAP	5	0	4
TAP	5	96	5
XTP	5	192	4
XTP	5	192	6
TAP	6	0	5
TAP	6	96	5
TAP	6	192	4
TAP	6	192	5
TAP	6	288	4
TAP	6	288	5
TAP	7	0	3
TAP	7	96	2
TAP	7	192	2
TAP	7	192	3
TAP	7	288	2
TAP	7	288	3
TAP	8	0	1
TAP	8	96	1
TAP	8	192	0
TAP	8	288	0
XTP	9	0	0
XTP	9	0	7
XTP	9	96	0
XTP	9	96	7
BRK	9	192	1
BRK	9	192	6
TAP	10	0	5
TAP	10	96	6
TAP	10	192	7
XTP	10	288	0
XTP	10	288	1
TAP	11	0	2
TAP	11	96	1
TAP	11	192	0
XTP	11	288	6
XTP	11	288	7
TAP	12	0	5
TAP	12	96	6
TAP	12	192	7
XTP	12	288	0
XTP	12	288	1
TAP	13	0	7
TAP	13	96	0
TAP	13	96	7
XTP	13	192	1
XTP	13	192	6
TAP	14	0	1
TAP	14	96	2
TAP	14	192	3
XTP	14	288	4
XTP	14	288	5
TAP	15	0	6
TAP	15	96	5
TAP	15	192	4
XTP	15	288	2
XTP	15	288	3
TAP	16	0	2
TAP	16	96	3
TAP	16	192	4
TAP	16	288	5
TAP	17	0	6
XTP	17	96	0
XTP	17	96	7
BRK	17	192	1
BRK	17	192	6
HLD	18	0	5	384
HLD	19	0	4	384
HLD	20	0	3	384
XTP	21	0	2
XTP	21	192	2
XTP	22	0	3
XTP	22	0	4
XTP	22	96	2
XTP	22	96	5
BRK	22	192	1
BRK	22	192	6
TAP	23	0	0
TAP	23	96	1
TAP	23	192	2
XTP	23	288	3
XTP	23	288	4
TAP	24	0	5
TAP	24	96	6
TAP	24	192	7
XTP	24	288	0
XTP	24	288	1
TAP	25	0	2
TAP	25	96	3
TAP	25	192	4
TAP	25	288	5
XTP	26	0	6
XTP	26	0	7
XTP	26	96	0
XTP	26	96	5
BRK	26	192	1
BRK	26	192	4
TAP	27	0	7
TAP	27	96	6
TAP	27	192	5
XTP	27	288	3
XTP	27	288	4
TAP	28	0	2
TAP	28	96	1
XTP	28	192	0
XTP	28	288	0
XHO	29	0	6	96
XHO	29	0	7	96
XHO	29	192	0	96
XHO	29	192	1	96
XTP	30	0	0
XTP	30	0	7
XTP	30	96	1
XTP	30	96	6
BRK	30	192	2
BRK	30	192	5
TTP	31	0	4	E	0	L1
TTP	31	192	3	E	0	L1
THO	32	0	0	192	C	0	L1
TTP	33	0	0	E	0	L1
TTP	33	192	7	E	0	L1
THO	34	0	0	192	C	0	L1
TTP	35	0	7	E	0	L1
TTP	35	96	7	B	0	L1
TTP	35	192	0	B	0	L1
TTP	36	0	2	E	0	L1
TTP	36	96	2	B	0	L1
TTP	36	192	3	B	0	L1
TTP	37	0	5	E	0	L1
TTP	37	96	5	B	0	L1
TTP	37	192	6	B	0	L1
TTP	38	0	0	C	1	L1
STR	39	0	1
SXL	39	0	1	96	576	5
STR	41	0	6
SXR	41	0	6	96	576	2
STR	43	0	1
SI_	43	0	1	96	192	3
STR	44	0	4
SI_	44	0	4	96	192	6
STR	45	0	0
SXL	45	0	0	96	480	3
STR	45	0	7
SXR	45	0	7	96	480	4
XTP	47	0	1
XTP	47	0	6
TAP	48	0	0
TAP	48	48	0
TAP	48	96	0
TAP	48	192	7
TAP	48	288	7
TAP	49	0	6
TAP	49	48	6
TAP	49	96	6
TAP	49	192	5
TAP	49	288	5
TAP	50	0	4
TAP	50	48	4
TAP	50	96	4
TAP	50	192	3
TAP	50	288	3
TAP	51	0	2
TAP	51	0	3
TAP	51	96	2
TAP	51	96	3
XTP	51	192	1
XTP	51	192	4
TAP	52	0	7
TAP	52	48	7
TAP	52	96	7
TAP	52	192	0
TAP	52	288	0
TAP	53	0	1
TAP	53	48	1
TAP	53	96	1
TAP	53	192	2
TAP	53	288	2
TAP	54	0	3
TAP	54	48	3
TAP	54	96	3
TAP	54	192	4
TAP	54	288	4
TAP	55	0	4
TAP	55	0	5
TAP	55	96	4
TAP	55	96	5
XTP	55	192	3
XTP	55	192	6
TAP	56	0	0
TAP	56	48	0
TAP	56	96	0
TAP	56	192	7
TAP	56	288	6
TAP	57	0	5
TAP	57	48	5
TAP	57	96	5
TAP	57	192	4
TAP	57	288	3
TAP	58	0	2
TAP	58	48	2
TAP	58	96	2
TAP	58	192	1
TAP	58	288	0
TAP	59	0	6
TAP	59	0	7
TAP	59	48	6
TAP	59	48	7
TAP	59	96	6
TAP	59	96	7
XTP	59	192	0
XTP	59	192	5
TAP	60	0	0
TAP	60	48	0
TAP	60	96	0
TAP	60	192	1
TAP	60	288	2
TAP	61	0	3
TAP	61	48	3
TAP	61	96	3
TAP	61	192	4
TAP	61	288	5
TAP	62	0	6
TAP	62	48	6
TAP	62	96	6
XTP	62	192	0
XTP	62	192	7
XTP	62	240	0
XTP	62	240	7
XTP	62	288	0
XTP	62	288	7
XST	62	336	0
SI_	62	336	0	96	192	3
XST	62	336	7
SI_	62	336	7	96	192	4
HLD	64	0	5	384
TAP	65	0	4
TAP	65	96	4
TAP	65	192	4
HLD	66	0	3	288
HLD	66	0	4	288
XTP	67	0	3
XTP	67	0	4
XTP	67	96	2
XTP	67	96	5
BRK	67	192	1
BRK	67	192	6
HLD	68	0	2	192
HLD	68	192	3	192
HLD	69	0	4	192
XTP	69	192	5
HLD	70	0	6	192
HLD	70	192	7	192
HLD	71	0	0	192
XTP	71	192	1
STR	72	0	0
SI_	72	0	0	96	192	3
STR	72	0	7
SI_	72	0	7	96	192	4
XTP	73	0	2
XTP	73	0	5
XTP	73	96	1
XTP	73	96	6
BRK	73	192	0
BRK	73	192	7
STR	74	0	6
SXR	74	0	6	96	576	2
STR	76	0	1
SXL	76	0	1	96	576	5
STR	78	0	6
SI_	78	0	6	96	192	4
STR	79	0	3
SI_	79	0	3	96	192	1
STR	80	0	0
SXL	80	0	0	96	480	3
STR	80	0	7
SXR	80	0	7	96	480	4
XTP	82	0	1
XTP	82	0	6
TAP	83	0	3
TAP	83	0	4
TAP	83	96	3
TAP	83	96	4
TAP	83	192	2
TAP	83	192	5
TAP	83	288	2
TAP	83	288	5
XTP	84	0	1
XTP	84	0	6
XTP	84	96	0
XTP	84	96	7
BRK	84	192	1
BRK	84	192	6
TAP	85	0	7
TAP	85	96	6
TAP	85	192	4
TAP	85	192	5
TAP	85	288	3
TAP	85	288	4
TAP	86	0	2
TAP	86	96	1
TAP	86	192	0
TAP	86	192	7
TAP	86	288	6
TAP	86	288	7
TAP	87	0	0
TAP	87	96	1
TAP	87	192	2
TAP	87	192	3
TAP	87	288	3
TAP	87	288	4
TAP	88	0	4
TAP	88	0	5
TAP	88	96	3
TAP	88	96	6
BRK	88	192	2
BRK	88	192	7
TAP	89	0	0
TAP	89	96	1
TAP	89	192	2
TAP	89	192	3
TAP	89	288	3
TAP	89	288	4
TAP	90	0	5
TAP	90	96	6
TAP	90	192	0
TAP	90	192	7
TAP	90	288	0
TAP	90	288	1
TAP	91	0	7
TAP	91	96	6
TAP	91	192	4
TAP	91	192	5
TAP	91	288	3
TAP	91	288	4
TAP	92	0	2
TAP	92	0	3
TAP	92	96	1
TAP	92	96	4
BRK	92	192	0
BRK	92	192	5
TAP	93	0	0
TAP	93	96	1
TAP	93	192	2
TAP	93	192	3
TAP	93	288	4
TAP	93	288	5
TAP	94	0	6
TAP	94	96	7
TAP	94	192	0
TAP	94	192	1
TAP	94	288	2
TAP	94	288	3
TAP	95	0	4
TAP	95	96	5
TAP	95	192	6
TAP	95	192	7
TAP	95	288	0
TAP	95	288	1
TAP	96	0	2
TAP	96	0	3
TAP	96	96	1
TAP	96	96	4
BRK	96	192	0
BRK	96	192	5
TAP	97	0	7
TAP	97	96	6
TAP	97	192	4
TAP	97	192	5
TAP	97	288	2
TAP	97	288	3
TAP	98	0	1
TAP	98	96	0
TAP	98	192	6
TAP	98	192	7
TAP	98	288	4
TAP	98	288	5
TAP	99	0	3
TAP	99	96	2
TAP	99	192	0
TAP	99	192	1
TAP	99	288	6
TAP	99	288	7
TAP	100	0	4
TAP	100	0	5
TAP	100	96	3
TAP	100	96	6
BRK	100	192	2
BRK	100	192	7
STR	101	0	0
SCR	101	0	0	96	480	5
STR	103	0	7
SCL	103	0	7	96	480	2
STR	105	0	0
SCR	105	0	0	96	384	3
STR	105	0	7
SCL	105	0	7	96	384	4
TTP	107	0	4	E	0	L1
TTP	107	192	3	B	0	L1
TTP	107	192	4	B	0	L1
TTP	108	0	2	B	0	L1
TTP	108	0	5	B	0	L1
TTP	108	192	1	B	0	L1
TTP	108	192	6	B	0	L1
THO	109	0	0	1152	C	0	L1

T_REC_TAP	235
T_REC_BRK	24
T_REC_XTP	72
T_REC_HLD	14
T_REC_XHO	4
T_REC_STR	18
T_REC_BST	0
T_REC_XST	2
T_REC_TTP	21
T_REC_THO	3
T_REC_SLD	20
T_REC_ALL	413
T_NUM_TAP	348
T_NUM_BRK	24
T_NUM_HLD	21
T_NUM_SLD	20
T_NUM_ALL	413
T_JUDGE_TAP	372
T_JUDGE_HLD	116
T_JUDGE_SLD	20
T_JUDGE_ALL	508
TTM_EACHPAIRS	102
TTM_SCR_TAP	174000
TTM_SCR_BRK	62400
TTM_SCR_HLD	21000
TTM_SCR_SLD	30000
TTM_SCR_ALL	287400
TTM_SCR_S	276450
TTM_SCR_SS	285000
TTM_RAT_ACV	10084

