VERSION	0.00.00	1.03.00
FES_MODE	0
BPM_DEF	200.000	200.000	200.000	200.000
MET_DEF	4	4
RESOLUTION	384
CLK_DEF	384
COMPATIBLE_CODE	MA2

BPM	0	0	200.000
MET	0	0	4	4

TAP	2	0	0
HLD	3	0	0	192
TAP	4	0	7
XTP	5	0	7
TAP	6	0	0
TAP	7	0	1
TAP	8	0	2
XTP	9	0	3
XTP	9	0	4
TAP	10	0	4
TAP	10	192	4
TAP	11	0	4
TAP	12	0	5
TAP	12	192	5
TAP	13	0	5
TAP	14	0	6
TAP	14	192	6
TAP	15	0	6
TAP	16	0	7
TAP	16	192	7
XTP	17	0	7
STR	18	0	0
SI_	18	0	0	96	288	4
STR	20	0	7
SI_	20	0	7	96	288	3
XTP	22	0	0
XTP	22	0	7
TAP	23	0	7
TAP	23	192	7
TAP	24	0	6
TAP	24	96	6
TAP	24	192	6
TAP	25	0	5
TAP	25	192	5
TAP	26	0	4
TAP	26	96	4
TAP	26	192	4
TAP	27	0	3
TAP	27	192	3
TAP	28	0	2
TAP	28	96	2
TAP	28	192	2
HLD	29	0	1	192
TAP	30	0	0
TAP	30	96	0
BRK	30	192	0
TAP	31	0	7
TAP	31	192	7
TAP	32	0	6
TAP	32	0	7
TAP	33	0	0
TAP	33	192	0
TAP	34	0	0
TAP	34	0	1
TAP	35	0	7
TAP	35	192	7
TAP	36	0	6
TAP	36	192	6
TAP	37	0	5
TAP	37	192	5
TAP	38	0	3
TAP	38	0	4
TTP	39	0	3	B	0	L1
TTP	40	0	2	B	0	L1
TTP	41	0	1	B	0	L1
TTP	42	0	0	B	0	L1
TTP	43	0	7	B	0	L1
TTP	44	0	6	B	0	L1
TTP	45	0	5	B	0	L1
TTP	46	0	3	B	0	L1
TTP	46	0	4	B	0	L1
HLD	48	0	3	192
HLD	49	0	2	192
HLD	50	0	1	192
TAP	51	0	0
TAP	51	192	0
HLD	52	0	7	192
HLD	53	0	6	192
HLD	54	0	5	192
TAP	55	0	4
TAP	55	192	4
TAP	56	0	3
TAP	56	192	3
TAP	57	0	2
TAP	57	192	2
TAP	58	0	1
TAP	58	192	1
TAP	59	0	0
TAP	59	96	0
TAP	59	192	0
TAP	60	0	7
TAP	60	192	7
TAP	61	0	6
TAP	61	192	6
TAP	62	0	5
TAP	62	192	5
XTP	63	0	4
XTP	63	96	3
XTP	63	192	4
HLD	64	0	3	192
TAP	65	0	3
TAP	65	96	3
TAP	65	192	3
HLD	66	0	4	192
TAP	67	0	4
TAP	67	96	4
TAP	67	192	4
STR	68	0	3
SI_	68	0	3	96	288	0
STR	70	0	4
SI_	70	0	4	96	288	7
HLD	72	0	3	192
HLD	72	0	4	192
TAP	73	0	3
TAP	73	96	4
TAP	73	192	3
TTP	74	0	4	B	0	L1
TTP	75	0	5	B	0	L1
TTP	76	0	6	B	0	L1
TTP	77	0	7	B	0	L1
TTP	78	0	0	B	0	L1
TTP	79	0	1	B	0	L1
TTP	80	0	2	B	0	L1
TTP	81	0	3	B	0	L1
TTP	81	0	4	B	0	L1
THO	82	0	0	768	C	1	L1
TAP	85	0	0
TAP	85	96	0
TAP	85	192	0
TAP	86	0	1
TAP	86	96	1
TAP	86	192	1
TAP	87	0	2
TAP	87	96	2
TAP	87	192	2
TAP	88	0	3
TAP	88	96	3
TAP	88	192	3
TAP	88	192	4
TAP	89	0	4
TAP	89	96	4
TAP	89	192	4
TAP	90	0	5
TAP	90	96	5
TAP	90	192	5
TAP	91	0	6
TAP	91	96	6
TAP	91	192	6
TAP	92	0	7
TAP	92	96	7
BRK	92	192	0
BRK	92	192	7
TAP	93	0	6
TAP	93	96	6
TAP	93	192	6
TAP	94	0	5
TAP	94	96	5
TAP	94	192	5
TAP	95	0	4
TAP	95	96	4
TAP	95	192	4
TAP	96	0	3
TAP	96	96	4
TAP	96	192	3
TAP	97	0	2
TAP	97	96	2
TAP	97	192	2
TAP	98	0	1
TAP	98	96	1
TAP	98	192	1
TAP	99	0	0
TAP	99	96	0
TAP	99	192	0
TAP	100	0	7
TAP	100	96	0
BRK	100	192	7
STR	101	0	0
SI_	101	0	0	96	288	4
TAP	103	0	5
TAP	104	0	6
STR	105	0	7
SI_	105	0	7	96	288	3
TAP	107	0	2
TAP	108	0	1
HLD	109	0	0	1152
HLD	109	0	7	1152

T_REC_TAP	128
T_REC_BRK	4
T_REC_XTP	9
T_REC_HLD	14
T_REC_XHO	0
T_REC_STR	6
T_REC_BST	0
T_REC_XST	0
T_REC_TTP	18
T_REC_THO	1
T_REC_SLD	6
T_REC_ALL	186
T_NUM_TAP	161
T_NUM_BRK	4
T_NUM_HLD	15
T_NUM_SLD	6
T_NUM_ALL	186
T_JUDGE_TAP	165
T_JUDGE_HLD	112
T_JUDGE_SLD	6
T_JUDGE_ALL	283
TTM_EACHPAIRS	9
TTM_SCR_TAP	80500
TTM_SCR_BRK	10400
TTM_SCR_HLD	15000
TTM_SCR_SLD	9000
TTM_SCR_ALL	114900
TTM_SCR_S	111100
TTM_SCR_SS	114500
TTM_RAT_ACV	10034

