VERSION	0.00.00	1.04.00
FES_MODE	0
BPM_DEF	180.000	180.000	180.000	180.000
MET_DEF	4	4
RESOLUTION	384
CLK_DEF	384
COMPATIBLE_CODE	MA2

BPM	0	0	180.000
MET	0	0	4	4

NMHLD	1	0	3	384
NMTAP	2	0	4
NMTAP	2	24	3
NMTAP	2	48	4
NMTAP	2	72	3
NMTAP	2	96	4
NMTAP	2	120	3
NMTAP	2	144	4
NMTAP	2	168	3
NMTAP	2	192	4
NMTAP	2	216	3
NMTAP	2	240	4
NMTAP	2	264	3
BXTAP	2	288	2
BXTAP	2	288	4
NMHLD	3	0	1	96
NMHLD	3	0	5	96
NMTTP	3	144	0	B	0	M1
NMTTP	3	144	0	C	1	M1
NMTTP	3	144	0	A	0	M1
NMTTP	3	144	1	A	0	M1
NMTTP	3	144	1	D	0	M1
NMTTP	3	144	2	A	0	M1
NMTTP	3	144	2	D	0	M1
NMTTP	3	144	4	A	0	M1
NMTTP	3	144	5	A	0	M1
NMTTP	3	144	5	D	0	M1
NMTTP	3	144	6	B	0	M1
NMTTP	3	144	6	A	0	M1
NMTTP	3	144	6	D	0	M1
NMHLD	4	0	2	96
NMHLD	4	0	6	96
NMTTP	4	144	0	C	1	M1
NMTTP	4	144	0	E	0	M1
NMTTP	4	144	0	A	0	M1
NMTTP	4	144	1	B	0	M1
NMTTP	4	144	1	E	0	M1
NMTTP	4	144	2	B	0	M1
NMTTP	4	144	3	E	0	M1
NMTTP	4	144	6	B	0	M1
NMTTP	4	144	6	E	0	M1
NMTTP	4	144	7	B	0	M1
NMHLD	5	0	1	96
NMHLD	5	0	5	96
NMTTP	5	144	0	B	0	M1
NMTTP	5	144	0	C	1	M1
NMTTP	5	144	0	A	0	M1
NMTTP	5	144	2	B	0	M1
NMTTP	5	144	2	A	0	M1
NMTTP	5	144	4	B	0	M1
NMTTP	5	144	4	A	0	M1
NMTTP	5	144	6	B	0	M1
NMTTP	5	144	6	A	0	M1
NMHLD	6	0	0	96
NMHLD	6	0	6	96
NMTTP	6	144	0	C	1	M1
NMTTP	6	144	3	B	0	M1
NMTTP	6	144	3	A	0	M1
NMTTP	6	144	7	B	0	M1
NMTTP	6	144	7	A	0	M1
EXTAP	6	240	0
EXTAP	6	288	0
BXTAP	6	336	0
NMHLD	7	0	1	72
NMTAP	7	0	7
NMTAP	7	72	0
NMTAP	7	96	1
NMTAP	7	144	2
NMTAP	7	144	7
NMTAP	7	192	3
NMTAP	7	240	4
EXTAP	7	288	3
EXTAP	7	288	5
NMSTR	7	336	6
NMSI_	7	336	6	96	48	3
NMSTR	8	48	2
NMSCL	8	48	2	96	48	7
NMTAP	8	144	4
NMHLD	8	192	5	96
BRTAP	8	288	0
NMTAP	9	0	7
NMTAP	9	24	1
NMTAP	9	48	7
NMTAP	9	72	1
NMTAP	9	96	6
NMTAP	9	120	2
NMTAP	9	144	5
NMTAP	9	168	3
NMTAP	9	192	4
NMTAP	9	216	2
NMTAP	9	240	4
NMTAP	9	264	2
NMTAP	9	288	5
NMTAP	9	312	1
NMTAP	9	336	6
NMTAP	9	360	0
BXTAP	10	0	7
BXTAP	10	48	7
BXTAP	10	96	7
BXTAP	10	144	7
BXTAP	10	192	7
BXTAP	10	208	0
BXTAP	10	224	7
BXTAP	10	240	0
BXTAP	10	288	1
BXTAP	10	288	6
BRTAP	11	0	3
BRTAP	11	0	4
NMTAP	11	96	3
NMTAP	11	120	4
NMTAP	11	144	3
NMTAP	11	192	3
NMTAP	11	216	4
NMTAP	11	240	2
NMTAP	11	288	2
NMTAP	11	312	3
NMTAP	11	336	2
NMTAP	12	0	2
NMTAP	12	24	3
NMHLD	12	48	1	96
NMTAP	12	96	4
NMHLD	12	144	4	96
NMTAP	12	192	2
NMHLD	12	240	2	96
NMTAP	12	288	6
NMTAP	12	336	6
EXTAP	13	0	3
EXTAP	13	0	6
NMTAP	13	96	4
NMTAP	13	120	3
NMTAP	13	144	4
NMTAP	13	192	4
NMTAP	13	216	3
NMTAP	13	240	5
NMTAP	13	288	5
NMTAP	13	312	4
NMTAP	13	336	5
NMTAP	14	0	5
NMTAP	14	24	4
NMTAP	14	48	6
NMSTR	14	96	6
NMSUL	14	96	6	96	144	3
NMTAP	14	144	3
BXTAP	14	192	3
BRTAP	15	0	1
BRTAP	15	0	4
NMTAP	15	96	0
NMTAP	15	96	5
BXTAP	15	144	0
BXTAP	15	144	5
NMTAP	15	192	1
NMTAP	15	240	2
NMTAP	15	288	3
BXTAP	15	336	2
BXTAP	15	336	4
BXTAP	16	0	1
BXTAP	16	24	0
BXTAP	16	48	1
BXTAP	16	96	2
BXTAP	16	96	7
BXTAP	16	144	6
BXSTR	16	192	3
NMSI_	16	192	3	96	48	0
BXSTR	16	192	5
NMSI_	16	192	5	96	48	0
BXTAP	16	240	4
EXTAP	17	0	1
EXTAP	17	0	7
NMTAP	17	96	1
NMTAP	17	96	7
BXTAP	17	144	1
BXTAP	17	144	7
NMTAP	17	192	6
NMTAP	17	240	5
NMSTR	17	288	3
NMSLL	17	288	3	96	96	7
BXTAP	17	336	4
EXTAP	18	0	5
EXTAP	18	48	5
EXTAP	18	96	5
CNSV_	18	96	7	0	96	4
EXTAP	18	144	5
EXTAP	18	192	6
EXTAP	18	240	6
BRTAP	18	288	3
NMHLD	18	288	7	96
NMTTP	19	0	3	E	0	M1
NMTTP	19	0	3	A	1	M1
NMTTP	19	0	4	E	0	M1
NMTAP	19	96	0
NMTTP	19	96	5	E	0	M1
NMTTP	19	96	5	A	0	M1
NMTTP	19	96	6	E	0	M1
NMSTR	19	192	2
NMSI_	19	192	2	96	48	7
NMTAP	19	240	2
NMSTR	19	288	6
NMSI_	19	288	6	96	48	3
NMTAP	19	336	6
NMSTR	20	0	1
NMSI_	20	0	1	96	48	4
NMTAP	20	48	1
NMSTR	20	96	5
NMSI_	20	96	5	96	48	0
NMTAP	20	144	5
NMTAP	20	192	0
CNSI_	20	240	0	0	48	4
NMTAP	20	240	1
NMTAP	20	288	2
NMTAP	21	0	0
NMTTP	21	0	4	B	0	M1
NMTTP	21	0	5	B	0	M1
NMTTP	21	0	5	E	0	M1
NMTTP	21	96	2	E	0	M1
NMTTP	21	96	2	A	0	M1
NMTTP	21	96	3	E	0	M1
NMTAP	21	96	7
NMSTR	21	192	6
NMSI_	21	192	6	96	48	4
NMTAP	21	240	6
NMSTR	21	288	1
NMSI_	21	288	1	96	48	4
NMTAP	21	336	1
BRTAP	22	0	7
CNSI_	22	48	4	0	48	0
NMTAP	22	144	2
NMTAP	22	144	6
NMTAP	22	192	2
NMSTR	22	192	6
NMSI_	22	192	6	96	48	2
NMTAP	22	240	1
NMTAP	22	240	7
NMTAP	22	288	2
BXTAP	22	288	6
NMTAP	23	0	0
NMTTP	23	0	4	B	0	M1
NMTTP	23	0	5	B	0	M1
NMTTP	23	0	5	E	0	M1
NMTTP	23	96	2	E	0	M1
NMTTP	23	96	2	A	0	M1
NMTTP	23	96	3	E	0	M1
NMTAP	23	96	7
NMSTR	23	192	6
NMSI_	23	192	6	96	48	3
NMSTR	23	240	3
NMSI_	23	240	3	96	48	7
NMTAP	23	288	2
NMTAP	23	336	1
NMSTR	24	0	2
NMSI_	24	0	2	96	48	7
NMTAP	24	48	2
NMSTR	24	96	6
NMSI_	24	96	6	96	48	3
NMTAP	24	144	6
NMTAP	24	192	2
NMTAP	24	240	1
CNSI_	24	240	3	0	48	7
NMHLD	24	288	0	96
NMTTP	25	0	0	C	1	M1
NMTAP	25	96	1
NMTAP	25	96	7
NMTAP	25	144	1
NMTAP	25	144	7
BRTAP	25	192	2
BRTAP	25	240	3
BRTAP	25	288	4
BRTAP	25	336	5
NMTTP	26	0	5	B	0	M1
NMTTP	26	0	5	E	1	M1
NMTTP	26	0	6	B	0	M1
NMTTP	26	0	7	E	0	M1
NMTTP	26	96	0	C	0	M1
NMTTP	26	96	0	A	0	M1
NMTTP	26	96	0	D	0	M1
NMTTP	26	96	1	B	0	M1
NMTTP	26	96	1	A	1	M1
NMTTP	26	96	1	D	0	M1
NMTTP	26	96	2	B	0	M1
NMTTP	26	96	2	A	0	M1
NMTTP	26	192	4	B	0	M1
NMTTP	26	192	4	A	0	M1
NMTTP	26	192	5	B	0	M1
NMTTP	26	192	5	D	0	M1
NMTTP	26	192	6	B	0	M1
NMTTP	26	192	6	E	1	M1
NMTTP	26	192	7	B	0	M1
NMTTP	26	192	7	A	0	M1
NMTTP	26	192	7	D	0	M1
EXTAP	26	288	2
EXTAP	26	288	3
BRTAP	27	0	0
BRTAP	27	0	1
NMTAP	27	48	1
NMTAP	27	72	0
NMTAP	27	96	2
NMTAP	27	144	3
NMTAP	27	144	4
NMTAP	27	192	5
NMTAP	27	216	4
NMTAP	27	240	6
NMTAP	27	288	0
NMTAP	27	288	1
NMTAP	27	336	2
NMTAP	27	360	3
NMTAP	28	0	1
NMTAP	28	48	6
NMTAP	28	48	7
NMTAP	28	96	4
NMTAP	28	96	5
NMTAP	28	144	2
NMTAP	28	144	3
NMSTR	28	192	1
NMSI_	28	192	1	96	48	4
NMTAP	28	192	4
NMTAP	28	240	0
NMTAP	28	288	1
NMTAP	28	288	7
NMTAP	28	336	6
NMTAP	29	0	3
NMTAP	29	0	5
NMTAP	29	48	6
NMTAP	29	72	7
NMTAP	29	96	5
NMTAP	29	144	2
NMTAP	29	144	3
NMTAP	29	192	1
NMTAP	29	216	0
NMTAP	29	240	2
NMTAP	29	288	3
NMTAP	29	288	7
NMTAP	29	336	4
NMTAP	29	336	6
NMTAP	30	0	2
NMTAP	30	24	3
NMTAP	30	48	2
NMTAP	30	96	1
NMTAP	30	96	4
NMSTR	30	144	1
NMSCR	30	144	1	96	48	4
NMTAP	30	168	0
NMTAP	30	216	0
NMTAP	30	240	1
NMTAP	30	288	5
NMTAP	30	336	6
BRTAP	31	0	3
BRTAP	31	0	7
NMTAP	31	48	1
NMTAP	31	72	0
NMTAP	31	96	2
NMTAP	31	144	3
NMTAP	31	144	5
NMTAP	31	192	6
NMTAP	31	216	7
NMTAP	31	240	5
NMTAP	31	288	2
NMTAP	31	288	4
NMTAP	31	336	1
NMTAP	31	360	0
NMTAP	32	0	2
NMTAP	32	48	3
NMTAP	32	48	7
NMTAP	32	96	4
NMTAP	32	96	6
NMTAP	32	144	3
NMTAP	32	144	4
NMSTR	32	192	2
NMSI_	32	192	2	96	48	7
NMTAP	32	192	3
NMTAP	32	240	1
NMTAP	32	288	2
NMTAP	32	288	3
NMTAP	32	336	4
EXSTR	33	0	0
NMSI_	33	0	0	96	48	3
EXSTR	33	0	5
NMSI_	33	0	5	96	48	0
NMTAP	33	96	0
NMTAP	33	96	5
EXTAP	33	192	0
EXTAP	33	192	3
EXTAP	33	264	1
EXTAP	33	264	6
EXTAP	33	336	4
EXTAP	33	336	7
EXTAP	34	0	4
EXTAP	34	0	7
NMTTP	34	72	0	C	0	M1
BXTAP	34	144	2
BXTAP	34	144	7
BXTAP	34	192	2
BXHLD	34	192	7	960
NMTTP	35	0	4	E	0	M1
NMTTP	35	96	6	E	0	M1
NMTTP	35	192	0	E	0	M1
NMTTP	35	288	2	E	0	M1
NMTTP	36	0	4	E	0	M1
NMTTP	36	96	6	E	0	M1
NMTTP	36	192	0	E	0	M1
NMTTP	36	288	2	E	0	M1
NMTTP	37	0	4	E	0	M1
NMTTP	37	48	5	E	0	M1
NMTTP	37	96	6	E	0	M1
NMTTP	37	144	7	E	0	M1
NMTTP	37	192	0	E	0	M1
NMTTP	37	240	1	E	0	M1
NMTTP	37	288	2	E	0	M1
NMTTP	37	336	3	E	0	M1
NMTTP	38	0	4	E	0	M1
EXHLD	38	0	7	240
NMTAP	38	96	0
NMHLD	38	144	0	96
BRTAP	38	288	0
BRTAP	38	288	7
BRTAP	38	336	1
BRTAP	38	336	6
BRSTR	39	0	2
BRSI_	39	0	2	96	48	0
BRSV_	39	0	2	96	48	4
BRTAP	39	0	5
NMTAP	39	96	2
NMTAP	39	192	7
NMSTR	39	240	7
BRSI_	39	240	7	96	48	5
BRSV_	39	240	7	96	48	1
NMTAP	39	336	7
NMTAP	40	48	4
NMSTR	40	96	4
BRSI_	40	96	4	96	48	2
BRSV_	40	96	4	96	48	6
NMSTR	40	192	4
NMSV_	40	192	4	96	48	1
NMSV_	40	192	4	96	48	7
BXSTR	41	0	0
BRSI_	41	0	0	96	48	6
BRSV_	41	0	0	96	48	2
NMTAP	41	96	0
NMTAP	41	192	5
NMSTR	41	240	5
BRSI_	41	240	5	96	48	3
BRSV_	41	240	5	96	48	7
NMTAP	41	336	5
NMTAP	42	48	2
NMSTR	42	96	2
BRSI_	42	96	2	96	48	0
BRSV_	42	96	2	96	48	4
NMTAP	42	192	2
BRTAP	42	288	7
NMSTR	43	0	0
BRSI_	43	0	0	96	48	2
NMSTR	43	0	6
BRSV_	43	0	6	96	48	0
NMTAP	43	96	0
NMTAP	43	96	6
NMTAP	43	192	3
NMSTR	43	240	3
BRSI_	43	240	3	96	48	1
BRSV_	43	240	3	96	48	5
NMTAP	43	336	3
NMTAP	44	48	0
NMSTR	44	96	0
NMSCR	44	96	0	96	48	2
NMSTR	44	96	7
NMSCL	44	96	7	96	48	5
NMSTR	44	192	0
NMSI_	44	192	0	96	72	6
NMSTR	44	192	7
NMSI_	44	192	7	96	72	1
CNSI_	44	360	1	0	120	5
CNSI_	44	360	6	0	120	2
CNSI_	45	96	2	0	192	4
CNSI_	45	96	5	0	192	3
NMSTR	46	0	3
NMSI_	46	0	3	96	48	7
NMSTR	46	0	4
NMSI_	46	0	4	96	48	0
NMTAP	46	96	3
NMTAP	46	96	4
BRTAP	46	192	1
BRTAP	46	192	6
NMTAP	47	0	4
NMTAP	47	96	4
NMTAP	47	192	4
NMTAP	47	288	4
NMTTP	48	0	2	B	0	M1
NMTAP	48	0	4
NMTTP	48	96	3	B	0	M1
NMTAP	48	96	4
NMTAP	48	192	4
NMTTP	48	192	4	B	0	M1
EXTAP	48	288	2
EXTAP	48	288	6
NMTAP	49	0	3
NMTAP	49	96	3
NMTAP	49	192	3
NMTTP	49	192	4	B	0	M1
NMTAP	49	288	3
NMTTP	49	288	3	B	0	M1
BXHLD	50	0	0	144
BXTAP	50	0	6
NMTAP	50	144	7
NMTAP	50	192	7
NMTAP	50	240	0
NMTAP	50	288	1
NMTAP	50	288	6
NMTAP	50	336	2
NMTAP	50	336	5
NMTAP	51	0	3
NMHLD	51	0	4	48
NMTAP	51	96	3
NMHLD	51	96	4	48
NMTAP	51	192	2
NMHLD	51	192	4	48
NMTAP	51	288	2
NMHLD	51	288	4	48
NMTTP	52	0	2	B	0	M1
NMHLD	52	0	4	48
NMTTP	52	96	3	B	0	M1
NMHLD	52	96	4	48
NMTTP	52	192	4	B	0	M1
NMHLD	52	192	4	48
EXTAP	52	288	2
EXTAP	52	288	6
NMHLD	53	0	3	48
NMHLD	53	0	5	48
NMHLD	53	96	3	48
NMHLD	53	96	5	48
NMHLD	53	192	2	48
NMHLD	53	192	4	48
NMHLD	53	288	2	48
NMHLD	53	288	4	48
NMTAP	54	0	1
NMTAP	54	0	5
NMTAP	54	48	1
NMTAP	54	48	5
NMTAP	54	96	2
NMTAP	54	120	3
NMTAP	54	144	2
NMTAP	54	192	5
NMTAP	54	216	4
NMTAP	54	240	5
BRTAP	54	288	2
BRSTR	54	288	7
NMSCL	54	288	7	96	96	3
NMSTR	55	0	3
NMSCL	55	0	3	96	96	7
NMSTR	55	96	7
NMSCL	55	96	7	96	96	3
NMSTR	55	192	3
NMSCL	55	192	3	96	96	7
NMSTR	55	288	7
NMSCL	55	288	7	96	192	7
NMTAP	56	0	3
NMSTR	56	96	7
NMSCL	56	96	7	96	192	7
NMTAP	56	192	3
NMSTR	56	288	7
NMSCL	56	288	7	96	192	7
NMTTP	57	0	2	B	0	M1
NMSTR	57	96	7
NMSCL	57	96	7	96	192	7
NMTTP	57	192	4	B	0	M1
NMSTR	57	288	7
NMSCL	57	288	7	96	192	7
NMTTP	58	0	3	B	0	M1
NMTAP	58	96	7
NMTTP	58	192	0	C	0	M1
NMTAP	58	288	0
NMTAP	58	288	6
NMTAP	58	336	1
NMTAP	58	336	5
NMHLD	59	0	2	72
NMTAP	59	0	4
NMTAP	59	72	3
NMTAP	59	96	2
NMTAP	59	144	1
NMTAP	59	144	4
NMHLD	59	192	5	72
NMTAP	59	264	4
NMTAP	59	288	5
NMTAP	59	336	3
NMTAP	59	336	6
NMHLD	60	0	1	72
NMTAP	60	72	0
NMTAP	60	96	1
NMTAP	60	144	2
NMTAP	60	144	7
NMHLD	60	192	6	72
NMTAP	60	264	7
NMTAP	60	288	6
NMTAP	60	336	0
NMTAP	60	336	5
NMTAP	61	0	1
NMTAP	61	0	4
NMTAP	61	48	2
NMTAP	61	48	5
NMTAP	61	96	3
NMTAP	61	96	6
NMTAP	61	144	5
NMTAP	61	168	4
NMTAP	61	216	2
NMTAP	61	240	3
NMTAP	61	288	1
NMTAP	61	288	4
NMTAP	61	336	0
NMTAP	61	336	5
BRTAP	62	0	7
BRTAP	62	24	6
BRTAP	62	48	7
BRTAP	62	72	6
BRTAP	62	96	7
BRTAP	62	120	6
BRTAP	62	144	7
BRTAP	62	168	6
BRSTR	62	192	7
NMSI_	62	192	7	96	48	3
EXTAP	62	240	0
EXTAP	62	240	6
BRTAP	62	288	7
NMSTR	63	0	1
NMSI_	63	0	1	96	48	4
NMTAP	63	48	2
NMTAP	63	72	3
NMTAP	63	96	1
NMTAP	63	144	7
NMSTR	63	192	6
NMSI_	63	192	6	96	48	2
NMTAP	63	216	4
NMTAP	63	240	5
NMSTR	63	288	0
NMSCR	63	288	0	96	48	3
NMTAP	63	288	6
NMTAP	63	336	1
NMSTR	64	0	7
NMSCL	64	0	7	96	48	4
NMTAP	64	48	6
NMSTR	64	96	1
NMSI_	64	96	1	96	48	5
NMTAP	64	144	2
EXTAP	64	192	7
NMTAP	64	240	7
NMTAP	64	288	0
NMTAP	64	288	6
NMTAP	64	336	1
NMTAP	64	336	5
NMTAP	65	0	2
NMSTR	65	0	6
NMSI_	65	0	6	96	48	3
NMTAP	65	48	5
NMTAP	65	72	4
NMTAP	65	96	6
NMTAP	65	144	0
NMSTR	65	192	1
NMSI_	65	192	1	96	48	4
NMTAP	65	216	3
NMTAP	65	240	2
NMTAP	65	288	1
NMTAP	65	336	5
NMTAP	66	0	6
NMTAP	66	24	7
NMTAP	66	48	6
NMTAP	66	96	0
NMTAP	66	96	5
NMTAP	66	144	2
NMTAP	66	168	3
NMTAP	66	216	5
NMTAP	66	240	4
NMTAP	66	288	2
NMTAP	66	288	6
NMTAP	66	336	0
NMSTR	67	0	1
NMSI_	67	0	1	96	48	4
NMTAP	67	0	4
NMTAP	67	48	2
NMTAP	67	72	3
NMTAP	67	96	1
NMTAP	67	144	7
NMSTR	67	192	6
NMSI_	67	192	6	96	48	2
NMTAP	67	216	4
NMTAP	67	240	5
NMSTR	67	288	0
NMSCR	67	288	0	96	48	3
NMTAP	67	288	6
NMTAP	67	336	1
NMSTR	68	0	7
NMSCL	68	0	7	96	48	4
NMTAP	68	48	6
NMSTR	68	96	1
NMSI_	68	96	1	96	48	5
NMTAP	68	144	2
EXTAP	68	192	7
NMTAP	68	240	6
NMTAP	68	288	4
NMTAP	68	336	3
NMSTR	69	0	2
NMSI_	69	0	2	96	48	4
NMTAP	69	48	2
NMSTR	69	96	6
NMSI_	69	96	6	96	48	0
NMTAP	69	144	6
NMSTR	69	192	1
NMSI_	69	192	1	96	48	5
NMTAP	69	240	1
NMTAP	69	288	7
NMTAP	69	336	7
BRTAP	70	0	3
BRTAP	70	0	6
NMTAP	70	48	5
NMTAP	70	72	4
NMTAP	70	96	6
NMTAP	70	120	4
NMTAP	70	144	5
NMSTR	70	192	0
NMSI_	70	192	0	96	48	4
NMTAP	70	216	7
NMTAP	70	240	1
NMTAP	70	264	6
BRTAP	70	288	0
NMSTR	71	0	5
NMSI_	71	0	5	96	48	0
NMTAP	71	48	6
NMTAP	71	72	7
NMTAP	71	96	5
NMTAP	71	144	1
NMSTR	71	192	2
NMSI_	71	192	2	96	48	6
NMTAP	71	216	3
NMTAP	71	240	1
NMTAP	71	288	2
NMSTR	71	288	4
NMSCR	71	288	4	96	48	7
NMTAP	71	336	5
NMSTR	72	0	3
NMSCL	72	0	3	96	48	0
NMTAP	72	48	2
NMSTR	72	96	5
NMSI_	72	96	5	96	48	1
NMTAP	72	144	6
EXTAP	72	192	3
NMTAP	72	240	2
NMTAP	72	288	0
NMTAP	72	336	1
NMTAP	72	336	7
NMTAP	73	0	2
NMSTR	73	0	6
NMSI_	73	0	6	96	48	2
NMTAP	73	48	3
NMTAP	73	48	5
NMTAP	73	96	2
NMTAP	73	96	6
NMTAP	73	144	1
NMSTR	73	192	0
NMSCR	73	192	0	96	48	3
NMTAP	73	216	7
NMTAP	73	240	1
NMTAP	73	288	0
NMTAP	73	288	6
NMTAP	73	336	5
NMTAP	74	0	6
NMTAP	74	24	7
NMTAP	74	48	6
NMTAP	74	96	0
NMTAP	74	96	5
NMTAP	74	144	2
NMTAP	74	168	3
NMTAP	74	216	6
NMTAP	74	240	4
EXTAP	74	288	0
BRTAP	74	336	0
BRTAP	74	336	7
EXTAP	75	0	1
NMTAP	75	16	2
NMTAP	75	32	3
EXTAP	75	48	6
NMTAP	75	64	5
NMTAP	75	80	4
BRTAP	75	96	0
NMTAP	75	144	7
NMTAP	75	192	0
NMTAP	75	192	6
NMTAP	75	240	0
NMTAP	75	240	6
NMTAP	75	288	1
NMTAP	75	288	5
NMTAP	75	336	1
NMTAP	75	336	5
BRSTR	76	0	2
NMSI_	76	0	2	96	48	4
NMTAP	76	48	2
EXSTR	76	96	5
NMSI_	76	96	5	96	48	1
EXTAP	76	144	5
BRSTR	76	192	0
NMSI_	76	192	0	96	48	4
BXTAP	76	240	0
NMTAP	76	288	4
NMTAP	76	336	5
BXTAP	77	0	6
NMTAP	77	24	7
BXTAP	77	48	6
NMTAP	77	72	7
BXTAP	77	96	4
NMTAP	77	120	3
BXTAP	77	144	4
NMTAP	77	168	3
BXTAP	77	192	0
NMTAP	77	216	1
BXTAP	77	240	5
NMTAP	77	264	4
BXTAP	77	288	6
NMTAP	77	312	7
BXTAP	77	336	3
NMTAP	77	360	2
BRTAP	78	0	1
BRTAP	78	0	4
BRTAP	78	72	3
BRTAP	78	72	6
BRTAP	78	144	0
BRTAP	78	144	1
BRSTR	78	192	0
BRSF_	78	192	0	96	48	4
BRTAP	78	192	1
NMTTP	78	288	0	C	1	M1
NMHLD	79	0	2	96
NMHLD	79	0	6	96
NMTTP	79	144	0	C	1	M1
NMTTP	79	144	1	B	0	M1
NMTTP	79	144	1	A	0	M1
NMTTP	79	144	2	A	0	M1
NMTTP	79	144	2	D	0	M1
NMTTP	79	144	3	A	0	M1
NMTTP	79	144	3	D	0	M1
NMTTP	79	144	5	A	0	M1
NMTTP	79	144	6	A	0	M1
NMTTP	79	144	6	D	0	M1
NMTTP	79	144	7	B	0	M1
NMTTP	79	144	7	A	0	M1
NMTTP	79	144	7	D	0	M1
NMHLD	80	0	1	96
NMHLD	80	0	5	96
NMTTP	80	144	0	B	0	M1
NMTTP	80	144	0	C	1	M1
NMTTP	80	144	0	E	0	M1
NMTTP	80	144	1	B	0	M1
NMTTP	80	144	2	E	0	M1
NMTTP	80	144	5	B	0	M1
NMTTP	80	144	5	E	0	M1
NMTTP	80	144	6	B	0	M1
NMTTP	80	144	7	E	0	M1
NMTTP	80	144	7	A	0	M1
NMHLD	81	0	2	96
NMHLD	81	0	6	96
NMTTP	81	144	0	C	1	M1
NMTTP	81	144	1	B	0	M1
NMTTP	81	144	1	A	0	M1
NMTTP	81	144	3	B	0	M1
NMTTP	81	144	3	A	0	M1
NMTTP	81	144	5	B	0	M1
NMTTP	81	144	5	A	0	M1
NMTTP	81	144	7	B	0	M1
NMTTP	81	144	7	A	0	M1
NMHLD	82	0	1	96
NMHLD	82	0	7	96
NMTTP	82	144	0	B	0	M1
NMTTP	82	144	0	C	1	M1
NMTTP	82	144	0	A	0	M1
NMTTP	82	144	4	B	0	M1
NMTTP	82	144	4	A	0	M1
EXTAP	82	240	7
EXTAP	82	288	7
BXTAP	82	336	7
NMTAP	83	0	0
NMHLD	83	0	6	72
NMTAP	83	72	7
NMTAP	83	96	6
NMTAP	83	144	0
NMTAP	83	144	5
NMTAP	83	192	4
NMTAP	83	240	3
EXTAP	83	288	2
EXTAP	83	288	4
NMSTR	83	336	1
NMSI_	83	336	1	96	48	4
NMTAP	84	0	0
NMSTR	84	48	5
NMSCR	84	48	5	96	48	0
NMTAP	84	96	6
NMTAP	84	144	2
NMSTR	84	192	1
NMSF_	84	192	1	96	48	5
BRTAP	84	288	1
NMSTR	85	0	3
NMSV_	85	0	3	96	48	1
NMSTR	85	0	7
NMSI_	85	0	7	96	48	1
NMTAP	85	96	3
NMTAP	85	96	7
NMTAP	85	192	0
NMTAP	85	192	4
NMSTR	85	240	0
NMSI_	85	240	0	96	48	2
NMSTR	85	240	4
NMSV_	85	240	4	96	48	2
NMTAP	85	336	0
NMTAP	85	336	4
NMTAP	86	48	1
NMTAP	86	48	5
NMSTR	86	96	1
NMSI_	86	96	1	96	48	3
NMSTR	86	96	5
NMSV_	86	96	5	96	48	3
NMSTR	86	192	1
NMSV_	86	192	1	96	48	4
NMSV_	86	192	1	96	48	7
NMTAP	86	192	5

T_REC_TAP	404
T_REC_BRK	47
T_REC_XTP	41
T_REC_BXX	43
T_REC_HLD	45
T_REC_XHO	1
T_REC_BHO	0
T_REC_BXH	2
T_REC_STR	73
T_REC_BST	6
T_REC_XST	3
T_REC_XBS	3
T_REC_TTP	145
T_REC_THO	0
T_REC_SLD	77
T_REC_BSL	17
T_REC_ALL	907
T_NUM_TAP	666
T_NUM_BRK	118
T_NUM_HLD	46
T_NUM_SLD	77
T_NUM_ALL	907
T_JUDGE_TAP	765
T_JUDGE_HLD	109
T_JUDGE_SLD	94
T_JUDGE_ALL	968
TTM_EACHPAIRS	136
TTM_SCR_TAP	333000
TTM_SCR_BRK	306800
TTM_SCR_HLD	46000
TTM_SCR_SLD	115500
TTM_SCR_ALL	801300
TTM_SCR_S	765850
TTM_SCR_SS	789500
TTM_RAT_ACV	10149

