VERSION	0.00.00	1.04.00
FES_MODE	0
BPM_DEF	180.000	180.000	180.000	180.000
MET_DEF	4	4
RESOLUTION	384
CLK_DEF	384
COMPATIBLE_CODE	MA2

BPM	0	0	180.000
MET	0	0	4	4

NMHLD	3	0	2	96
NMHLD	3	0	3	96
NMHLD	3	144	1	144
NMHLD	3	144	4	144
NMHLD	4	0	4	96
NMHLD	4	0	5	96
NMHLD	4	144	3	144
NMHLD	4	144	6	144
NMHLD	5	0	1	96
NMHLD	5	0	3	96
NMHLD	5	144	0	144
NMHLD	5	144	4	144
NMHLD	6	0	4	96
NMHLD	6	0	6	96
NMSTR	6	144	3
NMSI_	6	144	3	96	96	7
NMTAP	6	144	7
NMTAP	7	0	6
NMTAP	7	96	5
NMTAP	7	144	5
NMTAP	7	192	3
NMTAP	7	192	4
NMTAP	7	288	2
NMTAP	7	288	3
NMTAP	8	0	1
NMTAP	8	48	1
NMTAP	8	96	0
NMTAP	8	144	0
NMTAP	8	192	2
NMTAP	8	288	3
NMTAP	8	288	4
NMTAP	9	0	5
NMTAP	9	48	5
NMTAP	9	96	3
NMTAP	9	144	3
NMTAP	9	192	1
NMTAP	9	240	1
NMTAP	9	288	7
NMTAP	9	336	7
NMHLD	10	0	6	192
NMTTP	10	192	0	C	0	M1
BRTAP	10	288	0
BRTAP	10	288	7
EXTAP	11	0	4
EXTAP	11	0	5
NMTAP	11	96	3
NMTAP	11	144	3
NMTAP	11	192	4
NMTAP	11	288	3
NMTAP	11	288	5
NMHLD	12	0	2	96
NMTAP	12	0	4
NMTAP	12	96	3
NMTAP	12	144	3
NMTAP	12	192	2
NMTAP	12	288	3
NMTAP	12	288	5
NMTAP	13	0	2
NMTAP	13	0	4
NMTAP	13	96	5
NMTAP	13	144	5
NMTAP	13	192	4
NMTAP	13	288	3
NMTAP	13	288	5
NMTAP	14	0	2
NMTAP	14	0	4
NMTAP	14	96	3
NMTAP	14	96	5
NMTAP	14	192	2
NMTAP	14	240	2
NMTAP	14	288	3
BRTAP	15	0	1
BRTAP	15	0	5
NMTAP	15	96	4
NMTAP	15	144	4
NMTAP	15	192	3
NMTAP	15	288	2
NMTAP	15	288	4
NMTAP	16	0	3
NMHLD	16	0	5	96
NMTAP	16	96	4
NMTAP	16	144	4
NMTAP	16	192	5
NMTAP	16	288	2
NMTAP	16	288	4
NMTAP	17	0	3
NMTAP	17	0	5
NMTAP	17	96	2
NMTAP	17	144	2
NMTAP	17	192	3
NMTAP	17	288	2
NMTAP	17	288	4
NMTAP	18	0	5
NMTAP	18	48	5
NMTAP	18	96	5
NMTAP	18	144	5
NMSTR	18	192	5
NMSI_	18	192	5	96	48	0
EXTAP	19	0	1
EXTAP	19	0	7
NMTAP	19	96	3
NMTAP	19	96	5
NMTAP	19	192	2
NMTAP	19	240	2
NMTAP	19	288	3
NMTAP	20	0	4
NMTAP	20	0	6
NMTAP	20	96	2
NMTAP	20	96	4
NMTAP	20	192	4
NMTAP	20	192	5
NMTAP	20	288	7
NMTAP	20	336	7
EXTAP	21	0	0
EXTAP	21	0	6
NMTAP	21	96	2
NMTAP	21	96	4
NMTAP	21	192	5
NMTAP	21	240	5
NMTAP	21	288	4
NMTAP	22	0	1
NMTAP	22	0	3
NMTAP	22	96	3
NMTAP	22	96	5
NMTAP	22	192	2
NMTAP	22	192	3
NMTAP	22	288	0
NMTAP	22	336	0
EXTAP	23	0	1
EXTAP	23	0	7
NMTAP	23	96	3
NMTAP	23	96	5
NMTAP	23	192	2
NMTAP	23	240	2
NMTAP	23	288	3
NMTAP	24	0	4
NMTAP	24	0	6
NMTAP	24	96	2
NMTAP	24	96	4
NMTAP	24	192	4
NMTAP	24	192	5
NMTAP	24	288	7
NMTAP	24	336	7
EXHLD	25	0	0	96
EXHLD	25	0	6	96
EXHLD	25	144	1	96
EXHLD	25	144	5	96
EXTAP	25	288	2
EXSTR	25	288	4
NMSCR	25	288	4	96	192	3
BRTAP	26	288	3
BRTAP	26	288	5
EXTAP	27	0	2
EXTAP	27	0	3
NMTAP	27	48	1
NMTAP	27	96	0
NMTAP	27	96	7
NMHLD	27	192	6	72
NMTAP	27	192	7
NMHLD	27	264	5	72
NMTAP	27	336	4
NMSTR	28	0	3
NMSI_	28	0	3	96	48	1
NMTAP	28	0	4
NMTAP	28	96	0
NMSTR	28	144	0
NMSCL	28	144	0	96	48	5
NMTAP	28	240	4
NMTAP	28	288	4
EXTAP	29	0	2
EXTAP	29	0	3
NMTAP	29	48	1
NMTAP	29	96	0
NMTAP	29	96	7
NMHLD	29	192	6	72
NMTAP	29	192	7
NMHLD	29	264	5	72
NMTAP	29	336	4
NMTAP	30	0	2
NMTAP	30	48	2
NMTAP	30	96	3
NMTAP	30	192	0
NMTAP	30	192	1
BRTAP	30	288	2
BRTAP	30	288	7
EXTAP	31	0	4
EXTAP	31	0	5
NMTAP	31	48	6
NMTAP	31	96	0
NMTAP	31	96	7
NMTAP	31	192	0
NMHLD	31	192	1	72
NMHLD	31	264	2	72
NMTAP	31	336	3
NMTAP	32	0	3
NMSTR	32	0	4
NMSI_	32	0	4	96	48	6
NMTAP	32	96	7
NMSTR	32	144	7
NMSCR	32	144	7	96	48	2
NMTAP	32	240	3
NMTAP	32	288	3
NMTAP	33	0	5
NMTAP	33	48	5
NMTAP	33	96	4
NMTAP	33	96	6
NMTAP	33	192	2
NMTAP	33	240	2
NMTAP	33	288	1
NMTAP	33	288	3
EXTAP	34	0	3
EXTAP	34	0	5
EXTAP	34	72	2
EXTAP	34	72	4
EXTAP	34	144	0
EXTAP	34	144	7
EXTAP	34	192	0
EXTAP	34	192	7
BRTAP	34	288	1
BRTAP	34	288	6
NMTAP	35	0	3
NMSTR	35	0	4
NMSCR	35	0	4	96	288	7
CNSUR	36	0	7	0	288	0
CNSCR	36	288	0	0	288	3
NMTAP	38	0	3
NMTAP	38	0	5
NMTAP	38	96	4
NMTAP	38	144	4
NMTAP	38	240	6
NMHLD	38	288	6	480
NMSTR	39	0	7
NMSI_	39	0	7	96	144	1
CNSV_	39	240	1	0	144	3
NMTTP	40	192	0	A	0	M1
NMTTP	40	192	1	B	0	M1
NMTTP	40	192	1	A	0	M1
NMTTP	40	192	1	D	0	M1
NMTTP	40	192	2	B	0	M1
NMHLD	41	0	4	384
NMSTR	41	0	6
NMSI_	41	0	6	96	144	0
CNSV_	41	240	0	0	144	2
NMTTP	42	192	0	B	0	M1
NMTTP	42	192	1	E	0	M1
NMTTP	42	192	1	A	0	M1
NMTTP	42	192	2	B	0	M1
NMTTP	42	192	2	E	0	M1
NMTTP	42	192	2	A	0	M1
BRTAP	42	288	7
NMSTR	43	0	6
NMSI_	43	0	6	96	144	0
NMHLD	43	0	7	384
CNSV_	43	240	0	0	144	2
NMTTP	44	192	0	C	0	M1
NMTTP	44	192	4	B	0	M1
NMTTP	44	192	5	B	0	M1
NMTTP	44	192	6	A	0	M1
NMTTP	44	192	7	B	0	M1
NMTTP	44	192	7	E	0	M1
NMTAP	45	0	2
NMTAP	45	96	3
NMTAP	45	192	5
NMTAP	45	288	4
NMTAP	46	0	2
NMTAP	46	0	3
NMTAP	46	96	4
NMTAP	46	96	5
NMTTP	46	192	0	B	0	M1
NMTTP	46	192	0	C	1	M1
NMTTP	46	192	1	B	0	M1
NMTTP	46	192	1	E	0	M1
NMTTP	46	192	3	B	0	M1
NMTTP	46	192	7	B	0	M1
NMTTP	46	192	7	E	0	M1
NMHLD	48	0	5	768
NMTAP	48	96	4
NMTAP	48	192	4
NMTAP	48	288	4
NMTAP	49	0	6
NMTAP	49	96	6
NMTAP	49	192	6
NMTAP	49	288	6
NMHLD	50	0	4	96
NMHLD	50	96	3	96
NMTAP	50	192	2
BRTAP	50	288	1
BRTAP	50	288	4
NMHLD	51	0	2	1152
NMTAP	51	0	3
NMTAP	51	96	3
NMTAP	51	192	1
NMTAP	51	288	1
NMTAP	52	0	3
NMTAP	52	96	1
NMTAP	52	192	3
NMTAP	52	288	1
NMTAP	53	0	3
NMTAP	53	96	3
NMTAP	53	192	1
NMTAP	53	288	1
NMSTR	54	0	3
NMSXR	54	0	3	96	192	7
BRTAP	54	288	0
NMTAP	55	0	6
NMTAP	55	96	3
NMTAP	55	96	5
NMTAP	55	192	1
NMTAP	55	288	2
NMTAP	55	288	4
NMTAP	56	0	3
NMTAP	56	96	1
NMTAP	56	96	7
NMTAP	56	192	4
NMTAP	56	288	0
NMTAP	56	288	6
NMTAP	57	0	7
NMTAP	57	96	4
NMTAP	57	96	5
NMTAP	57	192	0
NMTAP	57	288	2
NMTAP	57	288	3
NMTAP	58	0	6
NMTAP	58	48	6
NMTAP	58	96	4
NMTAP	58	192	2
NMTAP	58	192	3
BRTAP	58	288	0
BRTAP	58	288	7
NMHLD	59	0	6	72
NMHLD	59	72	5	72
NMTAP	59	144	4
NMHLD	59	192	1	72
NMHLD	59	264	2	72
NMTAP	59	336	3
NMHLD	60	0	7	72
NMHLD	60	72	6	72
NMTAP	60	144	5
NMHLD	60	192	0	72
NMHLD	60	264	1	72
NMTAP	60	336	2
NMTAP	61	0	6
NMTAP	61	48	6
NMTAP	61	96	4
NMTAP	61	144	4
NMTAP	61	192	3
NMTAP	61	240	3
NMTAP	61	288	1
EXTAP	62	0	0
EXTAP	62	0	7
EXTAP	62	48	0
EXTAP	62	48	7
EXTAP	62	96	0
EXTAP	62	96	7
EXTAP	62	144	0
EXTAP	62	144	7
EXTAP	62	192	0
EXTAP	62	192	7
BRTAP	62	288	1
BRTAP	62	288	6
EXTAP	63	0	4
EXTAP	63	0	5
NMTAP	63	48	6
NMTAP	63	96	0
NMTAP	63	96	7
NMTAP	63	192	0
NMHLD	63	192	1	72
NMHLD	63	264	3	72
NMTAP	63	336	5
NMTAP	64	0	5
NMSTR	64	0	6
NMSI_	64	0	6	96	48	0
NMTAP	64	96	1
NMSTR	64	144	1
NMSCR	64	144	1	96	48	4
NMTAP	64	240	5
NMTAP	64	288	5
EXTAP	65	0	6
EXTAP	65	0	7
NMTAP	65	48	0
NMTAP	65	96	1
NMTAP	65	96	3
NMTAP	65	192	3
NMHLD	65	192	4	72
NMHLD	65	264	6	72
NMTAP	65	336	7
NMTAP	66	0	1
NMTAP	66	48	1
NMTAP	66	96	0
NMTAP	66	96	2
NMTAP	66	192	2
NMTAP	66	192	3
NMTAP	66	288	4
NMTAP	66	288	5
BRTAP	67	0	0
BRTAP	67	0	7
EXTAP	67	96	1
EXTAP	67	96	4
NMHLD	67	192	6	72
NMTAP	67	192	7
NMHLD	67	264	4	72
NMTAP	67	336	2
NMSTR	68	0	1
NMSI_	68	0	1	96	48	7
NMTAP	68	0	2
NMTAP	68	96	6
NMSTR	68	144	6
NMSCL	68	144	6	96	48	3
NMTAP	68	240	2
NMTAP	68	288	2
NMSTR	69	0	1
NMSI_	69	0	1	96	48	4
NMTAP	69	48	0
NMTAP	69	96	0
NMSTR	69	192	6
NMSI_	69	192	6	96	48	3
NMTAP	69	240	7
NMTAP	69	288	7
NMHLD	70	0	1	72
NMHLD	70	72	3	72
NMTAP	70	144	4
NMTAP	70	192	4
NMHLD	70	192	5	96
BRTAP	70	288	7
NMTAP	71	0	0
NMTAP	71	0	7
NMTAP	71	48	1
NMTAP	71	96	2
NMTAP	71	96	3
NMTAP	71	192	3
NMHLD	71	192	5	72
NMHLD	71	264	7	72
NMTAP	71	336	0
NMTAP	72	0	1
NMTAP	72	48	1
NMHLD	72	96	1	72
NMHLD	72	168	3	72
NMTAP	72	240	4
NMTAP	72	288	4
NMTAP	72	288	5
EXTAP	73	0	6
EXTAP	73	0	7
NMTAP	73	48	6
NMTAP	73	48	7
NMTAP	73	96	0
NMTAP	73	96	5
EXTAP	73	192	0
EXTAP	73	192	1
NMTAP	73	240	0
NMTAP	73	240	1
NMTAP	73	288	2
NMTAP	73	288	7
BRTAP	73	336	2
BRTAP	73	336	7
EXTAP	74	24	5
NMTAP	74	48	4
NMTAP	74	72	5
NMTAP	74	96	4
EXSTR	74	192	3
NMSI_	74	192	3	96	48	7
EXSTR	74	192	6
NMSI_	74	192	6	96	48	4
EXTAP	75	0	0
EXTAP	75	0	5
NMTAP	75	96	1
NMTAP	75	96	7
NMHLD	75	192	2	72
NMHLD	75	264	3	72
NMTAP	75	336	4
EXTAP	76	0	5
NMTAP	76	48	5
NMTAP	76	96	4
NMTAP	76	144	4
NMTAP	76	144	6
NMTAP	76	240	7
NMTAP	76	288	7
EXTAP	77	0	0
EXTAP	77	0	5
NMTAP	77	96	0
NMTAP	77	96	1
EXTAP	77	144	2
EXTAP	77	144	7
NMTAP	77	240	6
NMTAP	77	240	7
EXTAP	77	288	0
EXTAP	77	288	5
EXTAP	78	0	4
EXTAP	78	0	6
EXTAP	78	72	1
EXTAP	78	72	3
EXTAP	78	144	0
EXTAP	78	144	7
EXTAP	78	192	0
EXTAP	78	192	7
BRTAP	78	288	1
BRTAP	78	288	6
NMSTR	79	0	3
NMSLL	79	0	3	96	192	4
NMSTR	79	0	5
NMSLR	79	0	5	96	192	4
NMSTR	80	0	2
NMSI_	80	0	2	96	96	7
NMSTR	80	0	4
NMSI_	80	0	4	96	96	7
BRTAP	80	288	1
BRTAP	80	288	5
NMSTR	81	0	2
NMSI_	81	0	2	96	96	6
NMSTR	81	0	4
NMSI_	81	0	4	96	96	0
NMTAP	81	288	0
NMTAP	81	288	6
NMSTR	82	0	7
NMSI_	82	0	7	96	96	3
NMTAP	82	192	2
BRTAP	82	288	0
BRTAP	82	288	7
NMTAP	83	0	1
NMTAP	83	96	2
NMTAP	83	144	2
NMTAP	83	192	3
NMTAP	83	192	4
NMTAP	83	288	4
NMTAP	83	288	5
NMTAP	84	0	6
NMTAP	84	48	6
NMTAP	84	96	7
NMTAP	84	144	7
NMTAP	84	192	5
NMTAP	84	288	3
NMTAP	84	288	4
NMTAP	85	0	2
NMTAP	85	48	2
NMTAP	85	96	4
NMTAP	85	144	4
NMTAP	85	192	6
NMTAP	85	240	6
NMTAP	85	288	0
NMTAP	85	336	0
NMSTR	86	0	1
NMSI_	86	0	1	96	96	7
NMSV_	86	0	1	96	96	3
NMTTP	86	288	0	B	0	M1
NMTTP	86	288	0	C	1	M1
NMTTP	86	288	1	B	0	M1
NMTTP	86	288	1	E	0	M1
NMTTP	86	288	3	B	0	M1
NMTTP	86	288	7	B	0	M1
NMTTP	86	288	7	E	0	M1

T_REC_TAP	308
T_REC_BRK	29
T_REC_XTP	61
T_REC_BXX	0
T_REC_HLD	53
T_REC_XHO	4
T_REC_BHO	0
T_REC_BXH	0
T_REC_STR	25
T_REC_BST	0
T_REC_XST	3
T_REC_XBS	0
T_REC_TTP	32
T_REC_THO	0
T_REC_SLD	29
T_REC_BSL	0
T_REC_ALL	544
T_NUM_TAP	429
T_NUM_BRK	29
T_NUM_HLD	57
T_NUM_SLD	29
T_NUM_ALL	544
T_JUDGE_TAP	458
T_JUDGE_HLD	178
T_JUDGE_SLD	29
T_JUDGE_ALL	665
TTM_EACHPAIRS	136
TTM_SCR_TAP	214500
TTM_SCR_BRK	75400
TTM_SCR_HLD	57000
TTM_SCR_SLD	43500
TTM_SCR_ALL	390400
TTM_SCR_S	375900
TTM_SCR_SS	387500
TTM_RAT_ACV	10074

