VERSION	0.00.00	1.03.00
FES_MODE	0
BPM_DEF	180.000	180.000	180.000	180.000
MET_DEF	4	4
RESOLUTION	384
CLK_DEF	384
COMPATIBLE_CODE	MA2

BPM	0	0	180.000
MET	0	0	4	4

TAP	1	0	4
HLD	1	48	4	384
TAP	1	144	3
TAP	1	240	3
TAP	1	336	3
HLD	2	48	3	96
TAP	2	144	4
STR	2	192	5
SI_	2	192	5	96	48	2
TAP	2	240	3
TAP	2	288	2
TAP	3	0	3
HLD	3	48	3	336
TAP	3	144	4
TAP	3	240	4
TAP	3	336	5
STR	4	0	5
SUL	4	0	5	96	144	3
BRK	4	240	0
BRK	4	288	0
TAP	5	0	1
TAP	5	48	5
TAP	5	72	4
TAP	5	96	5
TAP	5	144	6
TAP	5	192	2
TAP	5	216	3
TAP	5	240	2
TAP	5	288	1
TAP	5	336	5
TAP	5	360	4
TAP	6	0	5
TAP	6	48	6
TAP	6	96	3
TAP	6	120	4
TAP	6	144	3
STR	6	192	2
SI_	6	192	2	96	48	4
TAP	6	240	4
TAP	6	288	2
TAP	6	288	5
TAP	7	0	5
TAP	7	48	1
TAP	7	72	3
STR	7	96	2
SLR	7	96	2	96	120	0
TAP	7	144	4
TAP	7	192	5
TAP	7	240	5
TAP	7	288	6
TAP	7	336	6
STR	8	0	1
SI_	8	0	1	96	48	7
TAP	8	48	3
STR	8	96	1
SXL	8	96	1	96	144	5
TAP	8	144	5
TAP	8	192	1
HLD	9	0	6	48
TAP	9	48	2
TAP	9	72	3
TAP	9	96	2
HLD	9	144	1	48
TAP	9	192	5
TAP	9	216	4
TAP	9	240	5
HLD	9	288	6	48
TAP	9	336	2
TAP	9	360	3
TAP	10	0	2
HLD	10	48	1	48
TAP	10	96	4
TAP	10	120	3
TAP	10	144	4
STR	10	192	5
SI_	10	192	5	96	48	2
TAP	10	240	3
TAP	10	288	2
TAP	10	288	5
HLD	11	0	0	48
TAP	11	48	6
TAP	11	72	4
TAP	11	96	6
HLD	11	144	7	48
TAP	11	192	1
TAP	11	216	3
TAP	11	240	1
STR	11	288	0
SXL	11	288	0	96	192	4
TAP	11	336	4
BRK	12	0	5
BRK	12	48	5
BRK	12	96	5
BRK	12	144	5
BRK	12	192	5
TAP	12	288	4
STR	12	288	6
SCR	12	288	6	96	1152	4
TTP	13	0	0	C	1	M1
HLD	17	0	4	384
TTP	17	192	5	E	0	M1
HLD	18	0	3	384
TTP	18	192	3	E	0	M1
HLD	19	0	4	672
TTP	19	192	5	E	0	M1
HLD	20	0	3	288
STR	21	0	2
SCR	21	0	2	96	288	5
TAP	21	192	7
TAP	21	240	7
TAP	21	288	7
STR	22	0	6
SUL	22	0	6	96	288	1
TAP	22	192	7
TAP	22	240	7
TAP	22	288	7
STR	23	0	0
SUL	23	0	0	96	288	7
TAP	23	192	4
TAP	23	240	4
TAP	23	288	4
TTP	24	0	5	B	0	M1
TTP	24	96	4	B	0	M1
TTP	24	192	3	B	0	M1
TTP	24	288	2	B	0	M1
STR	25	0	1
SCR	25	0	1	96	192	5
TAP	25	192	7
TAP	25	240	7
TAP	25	288	7
STR	26	0	6
SCL	26	0	6	96	192	2
TAP	26	192	0
TAP	26	240	0
TAP	26	288	0
STR	27	0	1
SCR	27	0	1	96	240	6
TAP	27	192	7
TAP	27	240	7
STR	27	288	7
SCL	27	288	7	96	384	0
BRK	28	0	0
TTP	29	0	0	C	1	M1
BRK	29	288	1
BRK	29	288	7
STR	30	0	0
SI_	30	0	0	96	48	4
TAP	30	48	7
TAP	30	96	0
TAP	30	144	5
STR	30	192	6
SCL	30	192	6	96	48	3
TAP	30	240	3
TAP	30	288	6
TAP	30	336	2
STR	31	0	1
SI_	31	0	1	96	48	4
TAP	31	48	3
TAP	31	96	1
TAP	31	144	0
TAP	31	192	7
TAP	31	240	0
HLD	31	240	6	96
TAP	31	336	4
TAP	31	360	5
TAP	32	0	4
TAP	32	48	6
TAP	32	96	6
TAP	32	96	7
TAP	32	144	0
TAP	32	144	5
TAP	32	192	1
TAP	32	192	4
TAP	32	240	2
TAP	32	264	3
STR	32	288	1
SI_	32	288	1	96	48	3
TAP	32	336	5
STR	33	0	1
SI_	33	0	1	96	48	7
TAP	33	48	7
STR	33	96	1
SI_	33	96	1	96	48	5
TAP	33	144	3
TAP	33	192	1
XTP	33	288	2
XTP	33	288	6
STR	34	0	7
SI_	34	0	7	96	48	3
TAP	34	48	0
TAP	34	96	7
TAP	34	144	2
STR	34	192	1
SCR	34	192	1	96	48	4
TAP	34	240	0
TAP	34	288	1
TAP	34	336	5
STR	35	0	6
SI_	35	0	6	96	48	2
TAP	35	48	4
TAP	35	96	6
TAP	35	144	7
TAP	35	192	0
HLD	35	240	1	96
TAP	35	240	7
TAP	35	336	3
TAP	35	360	2
TAP	36	0	3
TAP	36	48	1
TAP	36	96	0
TAP	36	96	1
TAP	36	144	2
TAP	36	144	7
TAP	36	192	3
TAP	36	192	6
TAP	36	240	5
TAP	36	264	4
STR	36	288	6
SCL	36	288	6	96	48	3
TAP	36	336	0
STR	37	0	6
SI_	37	0	6	96	48	2
TAP	37	48	2
TAP	37	96	6
TAP	37	144	1
STR	37	192	0
SI_	37	192	0	96	48	4
TAP	37	192	3
BRK	37	288	0
BRK	37	288	7
TAP	38	0	5
TAP	38	24	3
TAP	38	48	5
TAP	38	72	3
TAP	38	96	6
TAP	38	120	4
TAP	38	144	6
TAP	38	168	4
TAP	38	192	7
TAP	38	216	6
TAP	38	240	5
TAP	38	264	4
TAP	38	288	2
TAP	38	288	3
TAP	38	336	1
TAP	38	360	0
TAP	39	0	2
TAP	39	24	7
HLD	39	48	3	48
TAP	39	96	6
TAP	39	120	4
TAP	39	144	5
TAP	39	168	3
HLD	39	192	4	48
TAP	39	240	2
TAP	39	264	3
HLD	39	288	1	48
TAP	39	336	5
TAP	39	360	4
TAP	40	0	6
TAP	40	24	3
HLD	40	48	7	48
TAP	40	96	1
TAP	40	120	0
TAP	40	144	2
TAP	40	168	7
HLD	40	192	3	48
TAP	40	240	6
TAP	40	264	4
TAP	40	288	5
TAP	40	336	3
TAP	40	336	7
STR	41	0	2
SI_	41	0	2	96	48	5
STR	41	0	6
SI_	41	0	6	96	48	1
TAP	41	48	1
TAP	41	48	5
TAP	41	96	2
TAP	41	96	6
BRK	41	192	3
BRK	41	192	7
TAP	41	288	1
TAP	41	288	5
TAP	42	0	2
TAP	42	24	4
TAP	42	48	2
TAP	42	72	4
TAP	42	96	1
TAP	42	120	3
TAP	42	144	1
TAP	42	168	3
TAP	42	192	0
TAP	42	216	1
TAP	42	240	2
TAP	42	264	3
TAP	42	288	4
TAP	42	288	5
TAP	42	336	6
TAP	42	360	7
TAP	43	0	5
TAP	43	24	0
HLD	43	48	4	48
TAP	43	96	1
TAP	43	120	3
TAP	43	144	2
TAP	43	168	4
HLD	43	192	3	48
TAP	43	240	5
TAP	43	264	4
HLD	43	288	6	48
TAP	43	336	2
TAP	43	360	3
TAP	44	0	1
TAP	44	24	4
HLD	44	48	0	48
TAP	44	96	5
TAP	44	120	4
TAP	44	144	6
TAP	44	168	3
HLD	44	192	7	48
TAP	44	240	1
TAP	44	264	0
STR	44	288	2
SI_	44	288	2	96	48	7
TAP	44	336	1
TAP	44	336	3
BRK	45	0	2
BRK	45	0	4
TAP	45	96	5
TAP	45	144	5
STR	45	192	4
SI_	45	192	4	96	48	7
TAP	45	240	5
TAP	45	288	3
TTP	46	0	2	E	0	M1
TTP	46	48	3	E	0	M1
TTP	46	96	4	E	0	M1
TAP	46	144	5
TAP	46	192	5
TAP	46	240	4
TTP	46	288	7	E	0	M1
TTP	46	336	6	E	0	M1
TTP	47	0	5	E	0	M1
TAP	47	48	3
TAP	47	96	3
TAP	47	144	4
TTP	47	192	3	B	0	M1
TTP	47	192	3	E	0	M1
TTP	47	240	0	C	0	M1
TTP	47	288	0	B	0	M1
TTP	47	288	1	E	0	M1
TAP	48	0	7
HLD	48	48	7	48
TAP	48	96	4
HLD	48	144	4	48
TTP	48	192	7	E	0	M1
TTP	48	240	6	E	0	M1
TTP	48	288	5	E	0	M1
TAP	48	336	1
STR	49	0	0
SI_	49	0	0	96	48	3
STR	49	48	3
SLL	49	48	3	96	96	7
TAP	49	96	0
TAP	49	144	4
TAP	49	192	5
TAP	49	240	6
TTP	50	0	6	E	0	M1
TTP	50	48	5	E	0	M1
TTP	50	96	4	E	0	M1
TAP	50	144	2
TAP	50	192	2
TAP	50	240	3
TTP	50	288	1	E	0	M1
TTP	50	336	2	E	0	M1
TTP	51	0	3	E	0	M1
TAP	51	48	4
TAP	51	96	4
TAP	51	144	3
TTP	51	192	4	B	0	M1
TTP	51	192	5	E	0	M1
TTP	51	240	0	C	0	M1
TTP	51	288	7	B	0	M1
TTP	51	288	7	E	0	M1
STR	52	0	0
SCR	52	0	0	96	48	3
TAP	52	48	0
TAP	52	96	3
TAP	52	144	4
STR	52	192	5
SCR	52	192	5	96	48	0
TAP	52	240	5
TAP	52	288	1
TAP	52	336	2
STR	53	0	3
SF_	53	0	3	96	48	7
TAP	53	96	3
BRK	53	192	1
BRK	53	192	5
HLD	54	0	2	48
HLD	54	0	4	48
HLD	54	72	2	48
HLD	54	72	4	48
STR	54	144	2
SI_	54	144	2	96	48	4
TAP	54	144	4
TAP	54	240	5
TAP	54	288	5
HLD	55	0	3	48
HLD	55	0	5	48
HLD	55	72	3	48
HLD	55	72	5	48
TAP	55	144	3
STR	55	144	5
SI_	55	144	5	96	48	3
TAP	55	240	2
TAP	55	288	2
HLD	56	0	1	48
HLD	56	0	3	48
HLD	56	72	1	48
HLD	56	72	3	48
STR	56	144	1
SI_	56	144	1	96	48	4
TAP	56	144	3
TAP	56	240	5
TAP	56	288	5
HLD	57	0	4	48
HLD	57	0	6	48
HLD	57	72	4	48
HLD	57	72	6	48
TAP	57	144	4
STR	57	144	6
SI_	57	144	6	96	48	3
TAP	57	240	1
TAP	57	288	1
HLD	58	0	0	24
HLD	58	0	3	48
HLD	58	72	0	48
HLD	58	72	3	24
STR	58	144	0
SI_	58	144	0	96	48	4
TAP	58	144	3
TAP	58	240	3
TAP	58	288	5
HLD	59	0	4	48
HLD	59	0	7	24
HLD	59	72	4	24
HLD	59	72	7	48
TAP	59	144	4
STR	59	144	7
SI_	59	144	7	96	48	3
TAP	59	240	4
TAP	59	288	2
HLD	60	0	0	48
HLD	60	0	1	24
HLD	60	72	0	24
HLD	60	72	1	48
TAP	60	144	0
STR	60	144	1
SI_	60	144	1	96	48	4
TAP	60	240	3
TAP	60	288	6
HLD	61	0	6	24
HLD	61	0	7	48
HLD	61	72	6	48
HLD	61	72	7	24
STR	61	144	6
SI_	61	144	6	96	48	3
TAP	61	144	7
TAP	61	240	4
STR	61	288	1
SCR	61	288	1	96	192	6
HLD	62	0	7	384
TTP	64	0	7	B	0	M1
XHO	64	0	7	288
TTP	65	0	6	B	0	M1
XHO	65	0	6	288
BRK	66	0	5
TTP	66	0	5	B	0	M1
TAP	66	96	5
TAP	66	192	5
TAP	66	288	5
BRK	67	0	4
TTP	67	0	4	B	0	M1
TAP	67	96	4
TAP	67	192	4
TAP	67	288	4
BRK	68	0	3
TTP	68	0	3	B	0	M1
TAP	68	48	3
TAP	68	96	3
TAP	68	144	3
BRK	68	192	2
TTP	68	192	2	B	0	M1
TAP	68	240	2
TAP	68	288	2
TAP	68	336	2
BRK	69	0	1
TTP	69	0	1	B	0	M1
TAP	69	48	1
TAP	69	96	1
TAP	69	144	1
BRK	69	192	0
TTP	69	192	0	B	0	M1
TAP	69	240	0
TAP	69	288	0
TAP	69	336	0
XTP	70	0	0
TTP	70	0	0	C	1	M1
XTP	70	12	1
XTP	70	24	2
XTP	70	36	3
XTP	70	48	4
XTP	70	60	5
XTP	70	72	6
XTP	70	84	7
XTP	70	96	0
XTP	70	108	1
XTP	70	120	2
XTP	70	132	3
XTP	70	144	4
XTP	70	156	5
XTP	70	168	6
XTP	70	180	7
XTP	70	192	0
TTP	70	192	0	C	1	M1
XTP	70	204	1
XTP	70	216	2
XTP	70	228	3
XTP	70	240	4
XTP	70	252	5
XTP	70	264	6
XTP	70	276	7
XTP	70	288	0
XTP	70	300	1
XTP	70	312	2
XTP	70	324	3
XTP	70	336	4
XTP	70	348	5
XTP	70	360	6
XTP	70	372	7
XTP	71	0	0
TTP	71	0	0	C	1	M1
XTP	71	12	1
XTP	71	24	2
XTP	71	36	3
XTP	71	48	4
XTP	71	60	5
XTP	71	72	6
XTP	71	84	7
XTP	71	96	0
XTP	71	108	1
XTP	71	120	2
XTP	71	132	3
XTP	71	144	4
XTP	71	156	5
XTP	71	168	6
XTP	71	180	7
XTP	71	192	0
XTP	71	204	1
XTP	71	216	2
XTP	71	228	3
XTP	71	240	4
XTP	71	252	5
XTP	71	264	6
XTP	71	276	7
BST	71	288	0
SI_	71	288	0	96	48	4
TAP	72	0	0
STR	72	0	5
SI_	72	0	5	96	48	0
TAP	72	48	6
STR	72	96	3
SI_	72	96	3	96	48	7
TAP	72	96	5
TAP	72	144	2
STR	72	192	1
SI_	72	192	1	96	48	4
TAP	72	192	3
TAP	72	240	0
TAP	72	288	1
TAP	72	288	4
TAP	72	336	5
STR	73	0	6
SI_	73	0	6	96	48	2
STR	73	48	7
SI_	73	48	7	96	48	3
STR	73	96	6
SCL	73	96	6	96	48	3
TAP	73	144	7
TAP	73	192	6
HLD	73	240	1	96
TAP	73	336	7
TAP	73	360	0
STR	74	0	6
SI_	74	0	6	96	48	3
TAP	74	48	4
TAP	74	48	5
TAP	74	96	3
TAP	74	96	6
TAP	74	144	2
TAP	74	192	1
TAP	74	192	4
TAP	74	240	5
TAP	74	264	4
STR	74	288	6
SI_	74	288	6	96	48	2
STR	74	336	7
SI_	74	336	7	96	48	3
STR	75	0	6
SCL	75	0	6	96	48	3
STR	75	48	7
SCR	75	48	7	96	48	2
STR	75	96	6
SI_	75	96	6	96	48	2
TAP	75	144	7
TAP	75	192	6
BRK	75	288	1
BST	75	288	7
SI_	75	288	7	96	48	3
STR	76	0	2
SI_	76	0	2	96	48	7
TAP	76	0	7
TAP	76	48	1
TAP	76	96	2
STR	76	96	4
SI_	76	96	4	96	48	0
TAP	76	144	5
TAP	76	192	4
STR	76	192	6
SI_	76	192	6	96	48	3
TAP	76	240	7
TAP	76	288	3
TAP	76	288	6
TAP	76	336	2
STR	77	0	1
SI_	77	0	1	96	48	5
STR	77	48	0
SI_	77	48	0	96	48	4
STR	77	96	1
SCR	77	96	1	96	48	4
TAP	77	144	0
TAP	77	192	1
HLD	77	240	6	96
TAP	77	336	0
TAP	77	360	7
STR	78	0	1
SI_	78	0	1	96	48	4
TAP	78	48	2
TAP	78	48	3
TAP	78	96	1
TAP	78	96	4
TAP	78	144	5
TAP	78	192	3
TAP	78	192	6
TAP	78	240	2
TAP	78	264	3
STR	78	288	1
SI_	78	288	1	96	48	5
STR	78	336	0
SI_	78	336	0	96	48	4
STR	79	0	1
SCR	79	0	1	96	48	4
STR	79	48	0
SCL	79	48	0	96	48	5
STR	79	96	1
SI_	79	96	1	96	48	5
TAP	79	144	0
TAP	79	192	1
BRK	79	288	3
BRK	79	288	7
TAP	80	0	5
TAP	80	24	2
TAP	80	48	4
TAP	80	72	3
TAP	80	96	6
TAP	80	120	3
TAP	80	144	5
TAP	80	168	4
TAP	80	192	6
TAP	80	216	7
TAP	80	240	5
TAP	80	264	0
HLD	80	288	3	48
TAP	80	336	1
TAP	80	360	4
TAP	81	0	2
TAP	81	24	3
HLD	81	48	1	48
TAP	81	96	0
TAP	81	120	2
TAP	81	144	7
TAP	81	168	3
HLD	81	192	5	48
TAP	81	240	7
TAP	81	264	6
TAP	81	288	7
TAP	81	336	6
TAP	81	336	7
TAP	81	360	0
TAP	81	360	5
TAP	82	0	1
TAP	82	0	4
TAP	82	48	0
TAP	82	48	1
TAP	82	72	2
TAP	82	72	7
TAP	82	96	3
TAP	82	96	6
TAP	82	144	1
TAP	82	144	4
TAP	82	192	2
TAP	82	216	3
TAP	82	240	0
TAP	82	264	7
TAP	82	288	4
TAP	82	336	3
TAP	82	336	5
STR	83	0	2
SCR	83	0	2	96	48	5
STR	83	0	6
SCR	83	0	6	96	48	1
TAP	83	48	0
TAP	83	48	4
TAP	83	96	2
TAP	83	96	6
XTP	83	192	2
XTP	83	192	6
BRK	83	288	0
BRK	83	288	4
TAP	84	0	2
TAP	84	24	5
TAP	84	48	3
TAP	84	72	4
TAP	84	96	1
TAP	84	120	4
TAP	84	144	2
TAP	84	168	3
TAP	84	192	1
TAP	84	216	0
TAP	84	240	2
TAP	84	264	7
HLD	84	288	4	48
TAP	84	336	6
TAP	84	360	3
TAP	85	0	5
TAP	85	24	4
HLD	85	48	6	48
TAP	85	96	7
TAP	85	120	5
TAP	85	144	0
TAP	85	168	4
HLD	85	192	2	48
TAP	85	240	0
TAP	85	264	1
TAP	85	288	0
TAP	85	336	0
TAP	85	336	1
TAP	85	360	2
TAP	85	360	7
TAP	86	0	3
TAP	86	0	6
TAP	86	48	6
TAP	86	48	7
TAP	86	72	0
TAP	86	72	5
TAP	86	96	1
TAP	86	96	4
TAP	86	144	3
TAP	86	144	6
TAP	86	192	5
TAP	86	216	2
TAP	86	240	4
TAP	86	264	0
STR	86	288	3
SF_	86	288	3	96	48	7
TAP	86	336	1
TAP	86	336	5
BRK	87	0	3
TTP	87	12	0	C	1	M1
XTP	87	192	0
XTP	87	192	6
XTP	87	240	1
XTP	87	240	5
XTP	87	288	2
XTP	87	288	4
HLD	88	0	3	48
TAP	88	48	4
HLD	88	96	3	48
TAP	88	144	4
HLD	88	192	2	48
TAP	88	240	3
HLD	88	288	2	48
TAP	88	336	3
HLD	89	0	1	48
TAP	89	48	2
HLD	89	96	1	48
TAP	89	144	2
STR	89	192	0
SI_	89	192	0	96	48	2
TAP	89	240	0
TAP	89	288	3
HLD	90	0	4	48
TAP	90	48	3
HLD	90	96	4	48
TAP	90	144	3
HLD	90	192	5	48
TAP	90	240	4
HLD	90	288	5	48
TAP	90	336	4
HLD	91	0	6	48
TAP	91	48	5
HLD	91	96	6	48
TAP	91	144	5
STR	91	192	7
SI_	91	192	7	96	48	2
SI_	91	192	7	96	48	4
TAP	91	240	7
HLD	92	0	3	48
TAP	92	48	4
HLD	92	96	3	48
TTP	92	144	4	B	0	M1
HLD	92	192	2	48
TAP	92	240	3
HLD	92	288	2	48
TTP	92	336	3	B	0	M1
HLD	93	0	1	48
TAP	93	48	2
HLD	93	96	1	48
TTP	93	144	2	B	0	M1
STR	93	192	0
SI_	93	192	0	96	48	4
TAP	93	240	1
TAP	93	288	7
HLD	94	0	6	48
TAP	94	48	4
HLD	94	96	6	48
TTP	94	144	4	B	0	M1
HLD	94	192	6	48
TAP	94	240	5
HLD	94	288	6	48
TTP	94	336	5	B	0	M1
STR	95	0	7
SI_	95	0	7	96	48	5
TAP	95	48	6
STR	95	96	2
SLR	95	96	2	96	96	0
TAP	95	144	3
TAP	95	192	7
TAP	95	240	7
HLD	96	0	1	48
HLD	96	48	4	48
HLD	96	96	1	48
TAP	96	144	4
STR	96	192	2
SCR	96	192	2	96	48	4
STR	96	192	3
SCL	96	192	3	96	48	1
TAP	96	240	2
TAP	96	240	3
STR	97	0	0
SI_	97	0	0	96	48	2
STR	97	0	5
SI_	97	0	5	96	48	3
TAP	97	48	0
TAP	97	48	5
XTP	97	192	1
XTP	97	192	4
XTP	97	240	1
XTP	97	240	4
XTP	97	288	1
XTP	97	288	4
HLD	98	0	3	48
HLD	98	48	6	48
HLD	98	96	3	48
TAP	98	144	6
STR	98	192	4
SCR	98	192	4	96	48	6
STR	98	192	5
SCL	98	192	5	96	48	3
TAP	98	240	4
TAP	98	240	5
STR	99	0	2
SI_	99	0	2	96	48	4
STR	99	0	7
SI_	99	0	7	96	48	5
TAP	99	48	2
TAP	99	48	7
STR	99	192	2
SI_	99	192	2	96	48	0
STR	99	192	7
SI_	99	192	7	96	48	3
TAP	99	240	2
TAP	99	240	7
HLD	100	0	4	48
HLD	100	48	0	48
HLD	100	96	4	48
TAP	100	144	0
STR	100	192	1
SI_	100	192	1	96	48	4
STR	100	192	3
SI_	100	192	3	96	48	0
TAP	100	240	1
TAP	100	240	3
STR	101	0	3
SI_	101	0	3	96	48	6
STR	101	0	7
SI_	101	0	7	96	48	4
TAP	101	48	3
TAP	101	48	7
XTP	101	192	3
XTP	101	192	7
XTP	101	240	3
XTP	101	240	7
XTP	101	288	3
XTP	101	288	7
TAP	102	0	6
HLD	102	48	6	48
TAP	102	96	4
HLD	102	144	4	48
TAP	102	192	3
HLD	102	240	3	48
TAP	102	288	1
HLD	102	336	1	48
HLD	103	0	7	96
XTP	103	96	0
XTP	103	108	1
XTP	103	120	2
XTP	103	132	3
XTP	103	144	4
XTP	103	156	5
XTP	103	168	6
XTP	103	180	7
BST	103	192	0
SF_	103	192	0	96	48	4
TTP	103	288	0	C	1	M1

T_REC_TAP	472
T_REC_BRK	30
T_REC_XTP	86
T_REC_HLD	104
T_REC_XHO	2
T_REC_STR	92
T_REC_BST	3
T_REC_XST	0
T_REC_TTP	52
T_REC_THO	0
T_REC_SLD	96
T_REC_ALL	937
T_NUM_TAP	702
T_NUM_BRK	33
T_NUM_HLD	106
T_NUM_SLD	96
T_NUM_ALL	937
T_JUDGE_TAP	735
T_JUDGE_HLD	174
T_JUDGE_SLD	96
T_JUDGE_ALL	1005
TTM_EACHPAIRS	110
TTM_SCR_TAP	351000
TTM_SCR_BRK	85800
TTM_SCR_HLD	106000
TTM_SCR_SLD	144000
TTM_SCR_ALL	686800
TTM_SCR_S	663000
TTM_SCR_SS	683500
TTM_RAT_ACV	10048

