VERSION	0.00.00	1.03.00
FES_MODE	0
BPM_DEF	180.000	180.000	180.000	180.000
MET_DEF	4	4
RESOLUTION	384
CLK_DEF	384
COMPATIBLE_CODE	MA2

BPM	0	0	180.000
MET	0	0	4	4

TAP	1	0	4
HLD	1	48	4	480
TAP	1	144	3
TAP	1	240	3
TAP	1	336	5
TAP	2	48	5
TAP	2	144	3
TAP	2	192	3
TAP	2	288	2
TAP	2	288	4
TAP	3	0	3
HLD	3	48	3	192
TAP	3	144	4
STR	3	240	5
SUL	3	240	5	96	240	3
XTP	4	240	0
XTP	4	288	0
TAP	5	0	1
TAP	5	0	5
TAP	5	96	3
TAP	5	96	6
TAP	5	192	2
TAP	5	192	4
HLD	5	288	7	96
TAP	6	0	5
TAP	6	96	2
STR	6	192	0
SI_	6	192	0	96	48	4
TAP	6	192	3
TAP	7	0	6
TAP	7	96	1
TAP	7	96	4
TAP	7	192	3
TAP	7	192	5
HLD	7	288	0	96
TAP	8	0	2
TAP	8	96	5
TAP	8	192	4
STR	8	192	7
SI_	8	192	7	96	48	3
TAP	9	0	1
TAP	9	96	3
TAP	9	96	6
TAP	9	192	2
TAP	9	192	4
HLD	9	288	7	96
TAP	10	0	5
TAP	10	96	2
STR	10	192	0
SI_	10	192	0	96	48	4
TAP	10	192	3
TAP	11	0	6
TAP	11	96	1
TAP	11	96	4
TAP	11	192	3
TAP	11	192	5
STR	11	288	0
SCL	11	288	0	96	240	1
TTP	12	0	0	C	1	M1
THO	13	0	0	1152	C	0	M1
TTP	17	0	0	E	0	M1
TTP	18	0	1	E	0	M1
TTP	18	0	7	E	0	M1
TTP	19	0	2	E	0	M1
TTP	19	0	6	E	0	M1
TTP	20	0	3	E	0	M1
TTP	20	0	4	E	0	M1
TTP	20	0	5	E	0	M1
TAP	21	0	4
TAP	21	96	4
HLD	21	192	4	480
TAP	22	0	3
TAP	22	96	3
TAP	22	192	3
HLD	22	288	3	384
TAP	23	0	4
TAP	23	96	4
HLD	23	192	4	480
TAP	24	0	3
TAP	24	96	3
TAP	24	192	3
HLD	24	288	3	384
TAP	25	0	4
TAP	25	96	4
TAP	25	192	5
TAP	25	240	5
HLD	25	288	5	384
TAP	26	0	2
TAP	26	96	4
TAP	26	192	3
TAP	26	240	3
HLD	26	288	3	384
TAP	27	0	4
TAP	27	96	5
TAP	27	192	5
TAP	27	288	4
TAP	28	0	3
TAP	28	48	3
TAP	28	96	5
TAP	28	144	5
TAP	28	192	1
TAP	28	240	1
STR	28	288	7
SSR	28	288	7	96	192	3
TAP	29	288	2
TAP	29	336	2
TAP	30	0	3
TAP	30	48	0
TAP	30	96	5
TAP	30	144	5
TAP	30	192	4
TAP	30	240	7
TAP	30	288	0
TAP	30	336	0
TAP	31	0	3
TAP	31	96	2
TAP	31	96	4
TAP	31	192	1
TAP	31	192	5
TAP	31	240	1
TAP	31	240	5
TAP	31	336	6
TAP	32	0	6
TAP	32	48	4
TAP	32	96	7
TAP	32	144	7
TAP	32	192	2
TAP	32	240	3
HLD	32	288	1	288
TAP	33	0	0
TAP	33	96	6
TAP	33	192	4
TAP	33	288	5
TAP	33	336	5
TAP	34	0	4
TAP	34	48	7
TAP	34	96	2
TAP	34	144	2
TAP	34	192	3
TAP	34	240	0
TAP	34	288	7
TAP	34	336	7
TAP	35	0	4
TAP	35	96	3
TAP	35	96	5
TAP	35	192	2
TAP	35	192	6
TAP	35	240	2
TAP	35	240	6
TAP	35	336	1
TAP	36	0	1
TAP	36	48	3
TAP	36	96	0
TAP	36	144	0
TAP	36	192	5
TAP	36	240	4
HLD	36	288	6	96
TAP	37	0	7
TAP	37	96	2
TAP	37	96	4
BRK	37	192	1
BRK	37	192	5
TAP	37	288	2
TAP	37	336	2
TAP	38	0	3
TAP	38	48	0
TAP	38	96	5
TAP	38	144	5
TAP	38	192	4
TAP	38	240	7
TAP	38	288	0
TAP	38	336	0
TAP	39	0	3
TAP	39	48	3
TAP	39	96	2
TAP	39	144	2
TAP	39	192	4
TAP	39	240	5
TAP	39	288	3
TAP	39	336	3
TAP	40	0	6
TAP	40	48	4
TAP	40	96	3
TAP	40	144	7
TAP	40	192	2
TAP	40	240	3
HLD	40	288	1	288
TAP	41	0	0
TAP	41	96	6
TAP	41	192	4
TAP	41	288	5
TAP	41	336	5
TAP	42	0	4
TAP	42	48	7
TAP	42	96	2
TAP	42	144	2
TAP	42	192	3
TAP	42	240	0
TAP	42	288	7
TAP	42	336	7
TAP	43	0	4
TAP	43	48	4
TAP	43	96	5
TAP	43	144	5
TAP	43	192	3
TAP	43	240	2
TAP	43	288	4
TAP	43	336	4
TAP	44	0	1
TAP	44	48	3
TAP	44	96	4
TAP	44	144	0
TAP	44	192	5
TAP	44	240	4
STR	44	288	6
SCR	44	288	6	96	240	4
TTP	45	0	0	C	1	M1
TAP	46	0	2
TAP	46	0	6
TAP	46	96	1
TAP	46	96	4
TAP	46	192	3
TAP	46	192	5
HLD	46	288	0	96
TAP	47	0	2
TAP	47	96	5
STR	47	192	4
SI_	47	192	4	96	48	0
TAP	47	192	6
TAP	48	0	7
TAP	48	96	3
TAP	48	96	6
TAP	48	192	2
TAP	48	192	4
HLD	48	288	7	96
TAP	49	0	5
TAP	49	96	2
TAP	49	192	1
STR	49	192	3
SI_	49	192	3	96	48	7
TAP	50	0	0
TAP	50	96	1
TAP	50	96	4
TAP	50	192	3
TAP	50	192	5
HLD	50	288	0	96
TAP	51	0	2
TAP	51	96	5
STR	51	192	4
SI_	51	192	4	96	48	0
TAP	51	192	6
TAP	52	0	7
TAP	52	96	3
TAP	52	96	6
TAP	52	192	2
TAP	52	192	4
STR	52	288	1
SUL	52	288	1	96	240	7
TAP	52	288	5
HLD	54	0	5	240
TAP	54	240	4
TAP	54	288	4
HLD	55	0	6	240
TAP	55	240	7
TAP	55	288	7
HLD	56	0	1	240
TAP	56	240	0
TAP	56	288	0
HLD	57	0	2	240
TAP	57	240	3
TAP	57	288	3
HLD	58	0	4	192
HLD	58	192	1	192
HLD	59	0	0	192
HLD	59	192	2	192
HLD	60	0	3	192
HLD	60	192	7	192
HLD	61	0	5	192
HLD	61	192	4	192
HLD	62	0	6	192
TAP	62	192	1
TAP	63	0	0
TAP	63	0	7
HLD	63	96	0	96
HLD	63	96	7	96
XTP	63	288	1
XTP	63	288	6
HLD	64	0	7	384
HLD	65	0	6	384
TAP	66	0	5
HLD	66	96	5	288
TAP	67	0	4
HLD	67	96	4	288
TAP	68	0	3
TAP	68	96	3
TAP	68	192	2
TAP	68	288	2
TAP	69	0	1
TAP	69	96	1
BRK	69	192	0
TTP	70	0	0	C	1	M1
TTP	70	0	1	B	0	M1
TTP	70	0	6	B	0	M1
TAP	71	288	4
TAP	71	336	3
HLD	72	0	2	96
TAP	72	0	5
HLD	72	96	0	96
HLD	72	192	7	96
HLD	72	288	5	96
STR	73	0	4
SI_	73	0	4	96	48	0
STR	73	96	6
SI_	73	96	6	96	48	2
XTP	73	192	1
XTP	73	288	0
HLD	74	0	1	96
HLD	74	96	3	96
HLD	74	192	4	96
STR	74	288	6
SI_	74	288	6	96	48	2
TAP	74	336	6
STR	75	0	0
SI_	75	0	0	96	48	4
TAP	75	48	0
STR	75	96	7
SI_	75	96	7	96	48	3
TAP	75	144	7
TAP	75	192	1
XTP	75	288	1
TAP	76	0	2
HLD	76	0	5	96
HLD	76	96	7	96
HLD	76	192	0	96
HLD	76	288	2	96
STR	77	0	3
SI_	77	0	3	96	48	7
STR	77	96	1
SI_	77	96	1	96	48	5
XTP	77	192	6
TAP	77	288	7
HLD	78	0	6	96
HLD	78	96	4	96
HLD	78	192	3	96
STR	78	288	1
SI_	78	288	1	96	48	5
TAP	78	336	1
STR	79	0	7
SI_	79	0	7	96	48	3
TAP	79	48	7
STR	79	96	0
SI_	79	96	0	96	48	4
TAP	79	144	0
TAP	79	192	6
BRK	79	288	7
TAP	80	0	5
TAP	80	48	5
TAP	80	96	2
TAP	80	144	2
TAP	80	192	3
TAP	80	240	0
TAP	80	288	7
TAP	80	336	7
TAP	81	0	4
TAP	81	48	4
TAP	81	96	5
TAP	81	144	5
TAP	81	192	3
TAP	81	240	2
TAP	81	288	4
TAP	81	336	4
TAP	82	0	1
TAP	82	48	3
TAP	82	96	4
TAP	82	144	0
TAP	82	192	5
TAP	82	240	4
STR	82	288	6
SI_	82	288	6	96	48	2
TAP	82	336	6
STR	83	0	0
SI_	83	0	0	96	48	4
TAP	83	48	0
STR	83	96	7
SI_	83	96	7	96	48	3
TAP	83	144	7
TAP	83	192	1
TAP	83	288	2
TAP	83	336	2
TAP	84	0	3
TAP	84	48	0
TAP	84	96	5
TAP	84	144	5
TAP	84	192	4
TAP	84	240	7
TAP	84	288	0
TAP	84	336	0
TAP	85	0	3
TAP	85	48	3
TAP	85	96	2
TAP	85	144	2
TAP	85	192	4
TAP	85	240	5
TAP	85	288	3
TAP	85	336	3
TAP	86	0	6
TAP	86	48	4
TAP	86	96	3
TAP	86	144	7
TAP	86	192	2
TAP	86	240	3
STR	86	288	1
SCL	86	288	1	96	240	3
TTP	87	0	0	C	1	M1
TAP	88	0	3
HLD	88	48	3	480
TAP	88	144	4
TAP	88	240	4
TAP	88	336	2
TAP	89	48	2
TAP	89	144	4
TAP	89	192	4
TAP	89	288	2
TAP	89	288	5
TAP	90	0	4
HLD	90	48	4	480
TAP	90	144	3
TAP	90	240	3
TAP	90	336	5
TAP	91	48	5
TAP	91	144	3
BRK	91	192	3
BRK	91	288	1
BRK	91	288	5
TAP	92	0	0
HLD	92	48	0	480
TAP	92	144	7
TAP	92	240	7
TAP	92	336	2
TAP	93	48	2
TAP	93	144	7
TAP	93	192	7
TAP	93	288	1
TAP	93	288	6
TAP	94	0	7
HLD	94	48	7	384
TAP	94	144	0
TAP	94	240	0
TAP	94	336	5
TAP	95	48	3
STR	95	96	3
SI_	95	96	3	96	48	0
SI_	95	96	3	96	48	6
TAP	96	0	3
HLD	96	48	3	144
TAP	96	144	4
TTP	96	240	6	B	0	M1
TTP	96	240	6	E	0	M1
TTP	96	288	1	B	0	M1
TTP	96	288	2	E	0	M1
TAP	97	0	2
HLD	97	48	2	144
TAP	97	144	5
TAP	97	192	5
TAP	97	288	3
TAP	97	288	6
TAP	98	0	5
HLD	98	48	5	144
TAP	98	144	4
TTP	98	240	2	B	0	M1
TTP	98	240	3	E	0	M1
TTP	98	288	4	B	0	M1
TTP	98	288	5	E	0	M1
TAP	99	0	6
HLD	99	48	6	144
TAP	99	144	3
TAP	99	192	3
TAP	99	288	2
TAP	99	288	7
TAP	100	0	1
HLD	100	48	1	144
TAP	100	144	2
TTP	100	240	5	B	0	M1
TTP	100	240	5	E	0	M1
TTP	100	288	3	B	0	M1
TTP	100	288	3	E	0	M1
TAP	101	0	0
HLD	101	48	0	144
TAP	101	144	3
TAP	101	192	3
TAP	101	288	1
TAP	101	288	4
TAP	102	0	5
HLD	102	48	5	288
TAP	102	144	4
TAP	102	240	4
TAP	102	336	3
TAP	103	0	3
TAP	103	96	2
STR	103	96	6
SLL	103	96	6	96	192	0

T_REC_TAP	343
T_REC_BRK	7
T_REC_XTP	8
T_REC_HLD	61
T_REC_XHO	0
T_REC_STR	27
T_REC_BST	0
T_REC_XST	0
T_REC_TTP	26
T_REC_THO	1
T_REC_SLD	28
T_REC_ALL	501
T_NUM_TAP	404
T_NUM_BRK	7
T_NUM_HLD	62
T_NUM_SLD	28
T_NUM_ALL	501
T_JUDGE_TAP	411
T_JUDGE_HLD	294
T_JUDGE_SLD	28
T_JUDGE_ALL	733
TTM_EACHPAIRS	46
TTM_SCR_TAP	202000
TTM_SCR_BRK	18200
TTM_SCR_HLD	62000
TTM_SCR_SLD	42000
TTM_SCR_ALL	324200
TTM_SCR_S	313800
TTM_SCR_SS	323500
TTM_RAT_ACV	10021

