VERSION	0.00.00	1.03.00
FES_MODE	0
BPM_DEF	180.000	180.000	180.000	180.000
MET_DEF	4	4
RESOLUTION	384
CLK_DEF	384
COMPATIBLE_CODE	MA2

BPM	0	0	180.000
MET	0	0	4	4

STR	1	0	6
SCL	1	0	6	96	192	3
TAP	2	0	2
TAP	2	192	2
TAP	2	192	3
STR	3	0	1
SCR	3	0	1	96	192	4
HLD	4	0	5	96
TAP	4	192	4
TAP	4	192	5
TAP	5	0	5
TAP	5	96	5
TAP	5	192	4
TAP	5	288	4
TAP	6	0	3
TAP	6	96	3
XTP	6	192	2
XTP	6	192	4
TAP	7	0	1
TAP	7	96	1
TAP	7	192	0
TAP	7	288	0
TAP	8	0	7
TAP	8	96	7
XTP	8	192	0
XTP	8	192	7
TAP	9	0	6
TAP	9	96	6
TAP	9	192	7
TAP	9	288	7
TAP	10	0	0
TAP	10	96	0
XTP	10	192	1
XTP	10	192	7
TAP	11	0	2
TAP	11	96	2
TAP	11	192	3
TAP	11	288	3
XHO	12	0	3	192
XHO	12	0	4	192
STR	13	0	2
SI_	13	0	2	96	192	7
STR	14	0	6
SI_	14	0	6	96	192	3
STR	15	0	2
SI_	15	0	2	96	192	7
TAP	16	0	6
TAP	16	192	4
TAP	16	192	5
STR	17	0	5
SCR	17	0	5	96	192	0
STR	18	0	1
SUR	18	0	1	96	192	5
STR	19	0	6
SUL	19	0	6	96	192	2
TAP	20	0	1
TAP	20	192	0
TAP	20	192	7
HLD	21	0	6	192
TAP	21	192	7
HLD	22	0	1	192
TAP	22	192	0
HLD	23	0	6	192
TAP	23	192	7
HLD	24	0	0	96
HLD	24	0	1	96
TAP	24	192	0
TAP	24	192	1
HLD	25	0	2	192
TAP	25	192	3
HLD	26	0	5	192
TAP	26	192	4
HLD	27	0	2	192
TAP	27	192	3
STR	28	0	3
SCL	28	0	3	96	192	0
STR	28	0	4
SCR	28	0	4	96	192	7
TTP	29	0	0	C	0	L1
XTP	30	0	7
XTP	30	96	7
TAP	30	192	0
TAP	30	192	7
TAP	31	0	1
TAP	31	96	1
TAP	31	192	0
TAP	31	192	1
TAP	32	0	2
TAP	32	96	2
TAP	32	192	3
TAP	32	288	3
TAP	33	0	2
TAP	33	0	3
TAP	33	96	2
TAP	33	96	3
TAP	33	192	1
TAP	33	192	4
TAP	34	0	5
TAP	34	96	5
TAP	34	192	4
TAP	34	192	5
TAP	35	0	2
TAP	35	96	2
TAP	35	192	2
TAP	35	192	3
TAP	36	0	1
TAP	36	96	1
TAP	36	192	0
TAP	36	288	0
TAP	37	0	0
TAP	37	0	1
TAP	37	96	0
TAP	37	96	1
BRK	37	192	2
BRK	37	192	7
TAP	38	0	6
TAP	38	48	6
TAP	38	96	6
TAP	38	192	6
TAP	38	192	7
TAP	38	288	6
TAP	38	288	7
TAP	39	0	5
TAP	39	48	5
TAP	39	96	5
TAP	39	192	4
TAP	39	192	5
TAP	39	288	4
TAP	39	288	5
TAP	40	0	2
TAP	40	48	2
TAP	40	96	2
TAP	40	192	2
TAP	40	192	3
TAP	40	288	2
TAP	40	288	3
TAP	41	0	0
TAP	41	0	1
TAP	41	96	0
TAP	41	96	1
TAP	41	192	2
TAP	41	192	7
TAP	42	0	1
TAP	42	48	1
TAP	42	96	1
TAP	42	192	0
TAP	42	192	1
TAP	42	288	0
TAP	42	288	1
TAP	43	0	2
TAP	43	48	2
TAP	43	96	2
TAP	43	192	2
TAP	43	192	3
TAP	43	288	2
TAP	43	288	3
TAP	44	0	5
TAP	44	48	5
TAP	44	96	5
TAP	44	192	4
TAP	44	192	5
TAP	44	288	3
TAP	44	288	6
BRK	45	0	2
BRK	45	0	7
TTP	46	0	2	E	0	L1
TTP	46	96	2	B	0	L1
TTP	46	192	3	B	0	L1
TTP	47	0	6	E	0	L1
TTP	47	96	5	B	0	L1
TTP	47	192	4	B	0	L1
TTP	48	0	1	B	0	L1
TTP	48	96	2	B	0	L1
TTP	48	192	3	E	0	L1
TTP	49	0	6	B	0	L1
TTP	49	96	5	B	0	L1
TTP	49	192	5	E	0	L1
TTP	50	0	2	E	0	L1
TTP	50	96	1	B	0	L1
TTP	50	192	0	B	0	L1
TTP	51	0	6	E	0	L1
TTP	51	96	6	B	0	L1
TTP	51	192	7	B	0	L1
TTP	52	0	3	E	0	L1
TTP	52	96	2	B	0	L1
TTP	52	192	1	B	0	L1
TTP	53	0	0	C	1	L1
TTP	53	0	3	B	0	L1
TTP	53	0	4	B	0	L1
STR	54	0	6
SCL	54	0	6	96	192	3
TAP	55	0	2
TAP	55	96	2
TAP	55	192	2
TAP	55	192	3
STR	56	0	1
SCR	56	0	1	96	192	4
TAP	57	0	5
TAP	57	96	5
TAP	57	192	4
TAP	57	192	5
STR	58	0	5
SCR	58	0	5	96	192	0
TAP	59	0	1
TAP	59	96	1
TAP	59	192	0
TAP	59	192	1
STR	60	0	2
SCL	60	0	2	96	192	7
TAP	61	0	6
TAP	61	96	6
TAP	61	192	4
TAP	61	192	5
STR	62	0	3
SXR	62	0	3	96	480	0
STR	62	0	4
SXL	62	0	4	96	480	7
XTP	64	0	7
TAP	64	96	7
TAP	64	192	0
TAP	64	192	7
XTP	65	0	6
TAP	65	96	6
TAP	65	192	6
TAP	65	192	7
XTP	66	0	5
TAP	66	96	5
TAP	66	192	4
TAP	66	192	5
XTP	67	0	4
TAP	67	96	3
TAP	67	96	4
TAP	67	192	3
TAP	67	192	4
XTP	68	0	3
TAP	68	96	3
XTP	68	192	2
TAP	68	288	2
XTP	69	0	1
TAP	69	96	1
XTP	69	192	0
TTP	70	0	0	C	1	L1
TTP	70	0	2	B	0	L1
TTP	70	0	5	B	0	L1
TAP	71	0	0
TAP	71	0	7
TAP	71	96	0
TAP	71	96	7
TAP	71	192	1
TAP	71	192	6
BRK	72	0	5
TAP	72	96	4
TAP	72	96	5
TAP	72	192	3
TAP	72	192	6
TAP	73	0	2
TAP	73	96	2
TAP	73	96	3
TAP	73	192	1
TAP	73	192	4
TAP	74	0	1
TAP	74	96	1
TAP	74	192	0
TAP	74	288	0
TAP	75	0	7
TAP	75	96	7
TAP	75	192	0
TAP	75	192	6
TAP	76	0	1
TAP	76	96	0
TAP	76	96	1
TAP	76	192	2
TAP	76	192	7
TAP	77	0	6
TAP	77	96	6
TAP	77	96	7
TAP	77	192	0
TAP	77	192	5
TAP	78	0	5
TAP	78	96	5
TAP	78	192	4
TAP	78	288	4
TAP	79	0	3
TAP	79	0	4
TAP	79	96	3
TAP	79	96	4
BRK	79	192	2
BRK	79	192	5
TAP	80	0	6
TAP	80	48	6
TAP	80	96	6
TAP	80	192	6
TAP	80	192	7
TAP	80	288	0
TAP	80	288	5
TAP	81	0	1
TAP	81	48	1
TAP	81	96	1
TAP	81	192	0
TAP	81	192	1
TAP	81	288	2
TAP	81	288	7
TAP	82	0	6
TAP	82	48	6
TAP	82	96	6
TAP	82	192	5
TAP	82	240	5
TAP	82	288	5
TAP	83	0	4
TAP	83	0	5
TAP	83	96	4
TAP	83	96	5
TAP	83	192	3
TAP	83	192	6
TAP	84	0	2
TAP	84	48	2
TAP	84	96	2
TAP	84	192	2
TAP	84	192	3
TAP	84	288	1
TAP	84	288	4
TAP	85	0	5
TAP	85	48	5
TAP	85	96	5
TAP	85	192	4
TAP	85	192	5
TAP	85	288	3
TAP	85	288	6
TAP	86	0	2
TAP	86	48	2
TAP	86	96	2
TAP	86	192	1
TAP	86	240	1
TAP	86	288	1
BST	87	0	0
SCR	87	0	0	96	192	3
BST	87	0	7
SCL	87	0	7	96	192	4
HLD	88	0	5	384
HLD	89	0	4	384
HLD	90	0	3	384
TAP	91	0	2
TAP	91	192	2
TAP	91	192	3
HLD	92	0	1	384
HLD	93	0	0	384
HLD	94	0	7	384
TAP	95	0	6
TAP	95	192	0
TAP	95	192	7
STR	96	0	6
SI_	96	0	6	96	192	3
TAP	97	0	2
TAP	97	96	2
TAP	97	192	3
STR	98	0	2
SI_	98	0	2	96	192	7
TAP	99	0	6
TAP	99	96	6
TAP	99	192	7
STR	100	0	5
SI_	100	0	5	96	192	0
TAP	101	0	1
TAP	101	96	1
TAP	101	192	0
TAP	102	0	7
TAP	102	96	7
TAP	102	192	0
TAP	102	288	0
BST	103	0	0
SCR	103	0	0	96	192	3
BST	103	0	7
SCL	103	0	7	96	192	4

T_REC_TAP	259
T_REC_BRK	7
T_REC_XTP	16
T_REC_HLD	15
T_REC_XHO	2
T_REC_STR	19
T_REC_BST	4
T_REC_XST	0
T_REC_TTP	28
T_REC_THO	0
T_REC_SLD	23
T_REC_ALL	373
T_NUM_TAP	322
T_NUM_BRK	11
T_NUM_HLD	17
T_NUM_SLD	23
T_NUM_ALL	373
T_JUDGE_TAP	333
T_JUDGE_HLD	86
T_JUDGE_SLD	23
T_JUDGE_ALL	442
TTM_EACHPAIRS	77
TTM_SCR_TAP	161000
TTM_SCR_BRK	28600
TTM_SCR_HLD	17000
TTM_SCR_SLD	34500
TTM_SCR_ALL	241100
TTM_SCR_S	232800
TTM_SCR_SS	240000
TTM_RAT_ACV	10045

