VERSION	0.00.00	1.03.00
FES_MODE	0
BPM_DEF	180.000	180.000	180.000	180.000
MET_DEF	4	4
RESOLUTION	384
CLK_DEF	384
COMPATIBLE_CODE	MA2

BPM	0	0	180.000
MET	0	0	4	4

TAP	5	0	0
TAP	6	0	0
TAP	7	0	0
TAP	9	0	7
TAP	10	0	7
TAP	11	0	7
BRK	13	0	0
TAP	14	0	1
TAP	15	0	2
TAP	16	0	3
TAP	17	0	4
TAP	18	0	5
TAP	19	0	6
TAP	20	0	7
STR	21	0	7
SI_	21	0	7	96	288	4
STR	23	0	0
SI_	23	0	0	96	288	3
STR	25	0	7
SI_	25	0	7	96	288	3
STR	27	0	0
SI_	27	0	0	96	288	4
BRK	29	0	7
TAP	30	0	7
TAP	30	192	7
TAP	31	0	7
TAP	32	0	6
TAP	32	192	6
TAP	33	0	6
TAP	34	0	5
TAP	34	192	5
TAP	35	0	5
TAP	36	0	4
TAP	36	192	4
TAP	37	0	3
TAP	37	0	4
TAP	38	0	3
TAP	38	192	3
TAP	39	0	2
TAP	39	192	2
TAP	40	0	1
TAP	40	192	1
TAP	41	0	0
TAP	41	0	7
TAP	42	0	0
TAP	42	192	0
TAP	43	0	1
TAP	43	192	1
TAP	44	0	2
TAP	44	192	2
TAP	45	0	3
TAP	45	0	4
HLD	46	0	4	384
HLD	48	0	5	384
HLD	50	0	6	384
HLD	52	0	0	384
HLD	52	0	7	384
TTP	54	0	7	B	0	L1
TTP	55	0	0	B	0	L1
TTP	56	0	6	B	0	L1
TTP	57	0	1	B	0	L1
TTP	58	0	5	B	0	L1
TTP	59	0	2	B	0	L1
TTP	60	0	4	B	0	L1
TTP	61	0	3	B	0	L1
THO	62	0	0	384	C	0	L1
TTP	64	0	6	B	0	L1
TTP	64	0	7	B	0	L1
TTP	65	0	4	B	0	L1
TTP	65	0	5	B	0	L1
TTP	66	0	2	B	0	L1
TTP	66	0	3	B	0	L1
TTP	67	0	0	B	0	L1
TTP	67	0	1	B	0	L1
THO	68	0	0	768	C	1	L1
TAP	72	0	0
TAP	72	192	0
TAP	73	0	1
TAP	73	96	1
TAP	73	192	1
TAP	74	0	2
TAP	74	192	2
TAP	75	0	3
TAP	75	96	3
TAP	75	192	3
TAP	75	192	4
TAP	76	0	4
TAP	76	192	4
TAP	77	0	5
TAP	77	96	5
TAP	77	192	5
TAP	78	0	6
TAP	78	192	6
TAP	79	0	7
TAP	79	96	7
TAP	79	192	0
TAP	79	192	7
TAP	80	0	7
TAP	80	96	7
TAP	80	192	7
TAP	81	0	6
TAP	81	96	6
TAP	81	192	6
TAP	82	0	5
TAP	82	96	5
TAP	82	192	5
TAP	83	0	4
TAP	83	96	4
TAP	83	192	3
TAP	83	192	4
TAP	84	0	3
TAP	84	96	3
TAP	84	192	3
TAP	85	0	2
TAP	85	96	2
TAP	85	192	2
TAP	86	0	1
TAP	86	96	1
TAP	86	192	1
BRK	87	0	0
BRK	87	0	7
HLD	88	0	0	384
HLD	88	0	1	384
HLD	90	0	2	384
HLD	90	0	3	384
HLD	92	0	4	384
HLD	92	0	5	384
HLD	94	0	6	384
HLD	94	0	7	384
TAP	96	0	7
TAP	96	192	7
HLD	97	0	6	192
TAP	98	0	5
TAP	98	192	5
HLD	99	0	4	192
TAP	100	0	3
TAP	100	192	3
HLD	101	0	2	192
TAP	102	0	1
TAP	102	192	1
HLD	103	0	0	192
HLD	103	0	7	192

T_REC_TAP	94
T_REC_BRK	4
T_REC_XTP	0
T_REC_HLD	18
T_REC_XHO	0
T_REC_STR	4
T_REC_BST	0
T_REC_XST	0
T_REC_TTP	16
T_REC_THO	2
T_REC_SLD	4
T_REC_ALL	142
T_NUM_TAP	114
T_NUM_BRK	4
T_NUM_HLD	20
T_NUM_SLD	4
T_NUM_ALL	142
T_JUDGE_TAP	118
T_JUDGE_HLD	148
T_JUDGE_SLD	4
T_JUDGE_ALL	270
TTM_EACHPAIRS	13
TTM_SCR_TAP	57000
TTM_SCR_BRK	10400
TTM_SCR_HLD	20000
TTM_SCR_SLD	6000
TTM_SCR_ALL	93400
TTM_SCR_S	90250
TTM_SCR_SS	93000
TTM_RAT_ACV	10043

