VERSION	0.00.00	1.03.00
FES_MODE	0
BPM_DEF	160.000	160.000	160.000	160.000
MET_DEF	4	4
RESOLUTION	384
CLK_DEF	384
COMPATIBLE_CODE	MA2

BPM	0	0	160.000
MET	0	0	4	4
CLK	0	0
CLK	0	96
CLK	0	192
CLK	0	288

XTP	1	0	3
XTP	1	0	4
TAP	1	96	3
TAP	1	96	4
TAP	1	192	3
TAP	1	192	4
TAP	1	288	3
TAP	1	288	4
TAP	2	0	3
TAP	2	0	4
TAP	2	96	3
TAP	2	96	4
TAP	2	192	3
TAP	2	192	4
TAP	2	288	3
TAP	2	288	4
TAP	3	0	2
TAP	3	0	3
TAP	3	96	1
TAP	3	96	2
TAP	3	192	0
TAP	3	192	1
TAP	3	288	0
TAP	3	288	7
TAP	4	0	6
TAP	4	0	7
TAP	4	96	5
TAP	4	96	6
TAP	4	192	4
TAP	4	192	5
TAP	4	288	4
TAP	4	312	3
TAP	4	336	4
TAP	4	360	3
TAP	5	0	4
TAP	5	96	1
TAP	5	96	3
TAP	5	192	3
TAP	5	192	4
TAP	5	288	4
TAP	5	288	6
TAP	6	0	3
TAP	6	0	4
TAP	6	96	1
TAP	6	96	3
TAP	6	192	3
TAP	6	192	4
TAP	6	288	4
TAP	6	288	6
TAP	7	0	3
TAP	7	0	4
TAP	7	96	0
TAP	7	96	2
TAP	7	192	3
TAP	7	192	4
TAP	7	288	5
TAP	7	288	7
TAP	8	0	4
TAP	8	24	3
TAP	8	48	4
TAP	8	96	1
TAP	8	120	3
TAP	8	144	1
TAP	8	192	6
TAP	8	216	4
TAP	8	240	6
TAP	8	288	0
TAP	8	312	7
TAP	8	336	0
TAP	8	360	7
BST	9	0	1
SI_	9	0	1	96	24	5
BRK	9	0	6
STR	9	72	4
SI_	9	72	4	96	48	0
TAP	9	96	4
STR	9	168	2
SI_	9	168	2	96	48	7
TAP	9	192	2
STR	9	264	6
SI_	9	264	6	96	48	2
TAP	9	288	6
TAP	9	360	0
STR	10	0	0
SI_	10	0	0	96	48	4
XTP	10	96	0
XTP	10	96	7
TAP	10	192	4
TAP	10	192	5
TAP	10	240	7
TAP	10	288	2
TAP	10	288	3
TAP	10	336	0
XTP	11	0	1
XST	11	0	6
SI_	11	0	6	96	24	2
STR	11	72	3
SI_	11	72	3	96	48	7
TAP	11	96	3
STR	11	168	5
SI_	11	168	5	96	48	0
TAP	11	192	5
STR	11	264	1
SI_	11	264	1	96	48	5
TAP	11	288	1
TAP	11	360	7
STR	12	0	7
SCL	12	0	7	96	48	4
SCR	12	0	7	96	48	2
XTP	12	96	7
TAP	12	192	1
TAP	12	192	3
TAP	12	240	2
TAP	12	288	4
TAP	12	288	6
TAP	12	336	5
XST	13	0	1
SI_	13	0	1	96	24	5
XTP	13	0	3
STR	13	72	0
SI_	13	72	0	96	48	4
TAP	13	96	0
STR	13	168	7
SI_	13	168	7	96	48	3
TAP	13	192	7
STR	13	264	6
SI_	13	264	6	96	48	2
TAP	13	288	6
STR	13	360	5
SCR	13	360	5	96	120	3
TAP	14	0	5
TAP	14	72	4
HLD	14	96	4	96
TAP	14	288	3
TAP	14	288	7
TAP	14	336	2
TAP	14	336	6
TAP	15	0	1
STR	15	0	5
SI_	15	0	5	96	24	3
STR	15	72	0
SI_	15	72	0	96	48	4
TAP	15	96	0
STR	15	168	7
SI_	15	168	7	96	48	2
TAP	15	192	7
STR	15	264	1
SI_	15	264	1	96	48	5
TAP	15	288	1
TAP	15	360	6
HLD	16	0	6	96
TAP	16	72	4
HLD	16	96	4	96
TAP	16	168	2
HLD	16	192	2	96
TAP	16	264	0
HLD	16	288	0	72
TAP	16	360	7
BRK	17	0	1
BST	17	0	6
SI_	17	0	6	96	24	2
STR	17	72	3
SI_	17	72	3	96	48	7
TAP	17	96	3
STR	17	168	5
SI_	17	168	5	96	48	0
TAP	17	192	5
STR	17	264	1
SI_	17	264	1	96	48	5
TAP	17	288	1
TAP	17	360	7
STR	18	0	7
SI_	18	0	7	96	48	3
XTP	18	96	0
XTP	18	96	7
TAP	18	192	2
TAP	18	192	3
TAP	18	240	0
TAP	18	288	4
TAP	18	288	5
TAP	18	336	7
XST	19	0	1
SI_	19	0	1	96	24	5
XTP	19	0	6
STR	19	72	4
SI_	19	72	4	96	48	0
TAP	19	96	4
STR	19	168	2
SI_	19	168	2	96	48	7
TAP	19	192	2
STR	19	264	6
SI_	19	264	6	96	48	2
TAP	19	288	6
TAP	19	360	0
STR	20	0	0
SCL	20	0	0	96	48	5
SCR	20	0	0	96	48	3
XTP	20	96	0
TAP	20	192	2
TAP	20	192	4
TAP	20	240	3
TAP	20	240	5
TAP	20	288	1
TAP	20	288	4
TAP	20	336	3
TAP	20	336	6
STR	21	0	1
SI_	21	0	1	96	24	3
TAP	21	0	5
STR	21	72	7
SI_	21	72	7	96	24	5
TAP	21	96	7
STR	21	168	0
SI_	21	168	0	96	24	4
TAP	21	192	0
TAP	21	264	5
HLD	21	288	5	72
STR	21	360	0
SI_	21	360	0	96	24	2
TAP	22	0	0
STR	22	72	6
SI_	22	72	6	96	24	4
TAP	22	96	6
STR	22	168	7
SI_	22	168	7	96	24	3
TAP	22	192	7
TAP	22	264	4
TAP	22	288	4
TAP	22	360	0
TAP	22	360	5
STR	23	0	0
SI_	23	0	0	96	48	4
STR	23	0	5
SI_	23	0	5	96	48	7
XTP	23	96	0
XTP	23	96	5
STR	23	192	2
SI_	23	192	2	96	48	0
STR	23	192	7
SI_	23	192	7	96	48	3
XTP	23	288	2
XTP	23	288	7
BRK	24	0	0
BRK	24	0	4
XTP	24	72	1
XTP	24	72	5
XST	24	96	1
SXL	24	96	1	96	96	7
XST	24	96	5
SXL	24	96	5	96	96	3
HLD	25	0	2	48
TAP	25	48	3
TAP	25	72	2
TAP	25	96	3
HLD	25	144	5	48
TAP	25	192	4
TAP	25	216	5
TAP	25	240	4
HLD	25	288	2	48
TAP	25	336	3
TAP	25	360	2
TAP	26	0	3
HLD	26	48	5	48
TAP	26	96	4
TAP	26	120	5
TAP	26	144	4
TAP	26	192	2
TAP	26	216	3
TAP	26	240	1
XTP	26	288	0
XTP	26	288	4
HLD	27	0	5	48
TAP	27	48	4
TAP	27	72	5
TAP	27	96	4
HLD	27	144	2	48
TAP	27	192	3
TAP	27	216	2
TAP	27	240	3
HLD	27	288	5	48
TAP	27	336	4
TAP	27	360	5
TAP	28	0	4
HLD	28	48	2	48
TAP	28	96	3
TAP	28	120	2
TAP	28	144	3
TAP	28	192	6
TAP	28	216	7
TAP	28	240	6
XTP	28	288	0
XTP	28	288	5
XTP	28	336	0
XTP	28	336	5
HLD	29	0	1	48
TAP	29	48	3
TAP	29	72	2
TAP	29	96	3
HLD	29	144	6	48
TAP	29	192	4
TAP	29	216	5
TAP	29	240	4
HLD	29	288	1	48
TAP	29	336	3
TAP	29	360	2
TAP	30	0	3
HLD	30	48	6	48
TAP	30	96	4
TAP	30	120	5
TAP	30	144	4
TAP	30	192	2
TAP	30	216	3
TAP	30	240	1
XTP	30	288	0
XTP	30	288	4
TAP	31	0	6
TAP	31	24	4
TAP	31	48	5
TAP	31	96	1
TAP	31	120	3
TAP	31	144	2
TAP	31	192	4
TAP	31	216	3
TAP	31	240	5
TAP	31	264	2
TAP	31	288	6
TAP	31	312	1
TAP	31	336	7
TAP	31	360	0
XHO	32	0	1	48
XHO	32	0	7	48
XHO	32	72	2	48
XHO	32	72	6	48
XHO	32	144	3	48
XHO	32	144	5	48
XHO	32	216	4	48
XTP	32	288	2
XTP	32	300	1
XTP	32	312	0
XTP	32	324	7
XTP	32	336	6
XTP	32	348	5
XTP	32	360	4
XTP	32	372	3
XST	33	0	2
SCL	33	0	2	96	1248	3
TTP	33	192	2	B	0	M1
TTP	34	0	1	B	0	M1
TTP	34	192	0	B	0	M1
TTP	35	0	7	B	0	M1
TTP	35	192	6	B	0	M1
TTP	36	0	5	B	0	M1
TTP	36	192	3	B	0	M1
TTP	36	192	4	B	0	M1
STR	37	0	5
SCR	37	0	5	96	1248	4
TTP	37	192	2	B	0	M1
TTP	38	0	0	B	0	M1
TTP	38	192	4	E	0	M1
TTP	39	0	6	B	0	M1
TTP	39	192	0	C	0	M1
TTP	40	0	2	E	0	M1
TTP	40	192	3	B	0	M1
TTP	40	192	4	B	0	M1
HLD	41	0	3	192
TAP	41	0	4
TTP	41	96	0	C	0	M1
HLD	41	192	4	192
TTP	41	288	0	C	0	M1
HLD	42	0	2	192
TTP	42	96	2	B	0	M1
TTP	42	96	3	B	0	M1
HLD	42	192	5	192
TTP	42	288	5	B	0	M1
TTP	42	288	6	B	0	M1
HLD	43	0	1	192
TTP	43	96	1	B	0	M1
TTP	43	96	2	B	0	M1
TTP	43	96	2	E	0	M1
HLD	43	192	6	192
TTP	43	288	5	B	0	M1
TTP	43	288	6	E	0	M1
TTP	43	288	6	B	0	M1
HLD	44	0	0	192
TTP	44	96	0	C	0	M1
TTP	44	96	3	B	0	M1
TTP	44	96	4	B	0	M1
TAP	44	192	7
TAP	44	288	2
TAP	44	288	5
TAP	45	0	0
HLD	45	0	7	192
TTP	45	96	0	C	0	M1
HLD	45	192	6	192
TTP	45	288	0	C	0	M1
HLD	46	0	5	192
TTP	46	96	0	B	0	M1
TTP	46	96	0	E	0	M1
HLD	46	192	4	192
TTP	46	288	5	B	0	M1
TTP	46	288	6	B	0	M1
HLD	47	0	3	192
TTP	47	96	0	E	0	M1
TTP	47	96	0	B	0	M1
TTP	47	96	7	B	0	M1
HLD	47	192	2	192
TTP	47	288	3	B	0	M1
TTP	47	288	4	B	0	M1
TTP	47	288	4	E	0	M1
HLD	48	0	1	192
TTP	48	96	1	B	0	M1
TTP	48	96	2	E	0	M1
TTP	48	96	2	B	0	M1
HLD	48	192	0	96
TAP	48	288	7
TTP	49	0	0	B	0	M1
THO	49	0	0	384	C	0	M1
TTP	49	0	3	B	0	M1
TTP	49	0	4	B	0	M1
TTP	49	0	7	B	0	M1
HLD	50	288	2	72
TAP	50	360	3
TAP	51	0	2
HLD	51	48	2	72
TAP	51	120	3
TAP	51	144	2
HLD	51	192	2	72
TAP	51	264	3
TAP	51	288	2
HLD	51	336	2	72
TAP	52	24	3
TAP	52	48	2
TAP	52	96	3
TAP	52	96	4
TAP	52	144	3
TAP	52	144	4
HLD	52	192	5	72
TAP	52	264	4
TAP	52	288	5
HLD	52	336	5	72
TAP	53	24	4
TAP	53	48	5
HLD	53	96	5	72
TAP	53	168	4
TAP	53	192	5
HLD	53	240	5	72
TAP	53	312	4
TAP	53	336	5
TAP	54	0	3
TAP	54	0	4
TAP	54	48	2
TAP	54	48	5
STR	54	96	1
SI_	54	96	1	96	48	4
STR	54	96	6
SI_	54	96	6	96	48	3
TAP	54	288	2
TAP	54	288	4
TAP	54	336	3
TAP	54	336	5
TAP	55	0	1
TAP	55	24	4
TAP	55	48	2
TAP	55	72	5
TAP	55	96	3
TAP	55	120	6
TAP	55	144	4
TAP	55	192	2
TAP	55	216	3
TAP	55	240	1
TAP	55	288	5
TAP	55	312	4
TAP	55	336	6
TAP	56	0	2
TAP	56	0	3
TAP	56	72	3
TAP	56	96	2
TAP	56	144	4
TAP	56	192	2
TAP	56	216	4
TAP	56	240	3
TAP	56	288	2
TAP	56	288	5
TAP	56	360	5
TAP	57	0	2
TAP	57	48	4
BRK	57	96	2
TAP	57	120	4
TAP	57	144	3
BRK	57	192	2
TAP	57	192	4
TAP	57	240	3
TAP	57	288	4
TAP	57	288	5
TAP	57	360	4
TAP	58	0	5
TAP	58	48	3
TAP	58	96	5
TAP	58	120	3
TAP	58	144	4
TAP	58	192	2
TAP	58	192	5
TAP	58	264	2
TAP	58	288	5
TAP	58	336	3
BRK	59	0	5
TAP	59	24	3
TAP	59	48	4
TAP	59	96	3
BRK	59	96	5
TAP	59	144	4
TAP	59	192	2
TAP	59	192	3
TAP	59	264	3
TAP	59	288	2
TAP	59	336	4
TAP	60	0	2
TAP	60	24	4
TAP	60	48	3
TAP	60	96	2
TAP	60	96	5
TAP	60	168	5
TAP	60	192	2
TAP	60	240	4
BRK	60	288	2
TAP	60	312	4
TAP	60	336	3
BRK	61	0	2
TAP	61	0	4
TAP	61	48	3
TAP	61	96	4
TAP	61	96	5
TAP	61	144	5
TAP	61	168	4
TAP	61	192	5
TAP	61	240	3
TAP	61	240	5
TAP	61	288	5
TAP	61	312	3
TAP	61	336	5
TAP	62	0	2
TAP	62	0	5
TAP	62	48	5
TAP	62	72	2
TAP	62	96	5
TAP	62	144	3
TAP	62	144	5
TAP	62	192	5
TAP	62	216	3
TAP	62	240	5
XTP	62	288	1
XTP	62	288	6
BRK	63	0	0
TTP	63	72	0	C	1	M1
TTP	63	72	3	B	0	M1
TTP	63	72	7	B	0	M1
TTP	63	144	0	C	1	M1
TTP	63	144	2	B	0	M1
TTP	63	144	6	B	0	M1
TTP	63	216	0	C	1	M1
TTP	63	216	1	B	0	M1
TTP	63	216	5	B	0	M1
TTP	63	288	0	B	0	M1
TTP	63	288	0	C	1	M1
TTP	63	288	4	B	0	M1
TTP	63	360	0	C	1	M1
TTP	63	360	3	B	0	M1
TTP	63	360	7	B	0	M1
TTP	64	48	0	C	1	M1
TTP	64	48	2	B	0	M1
TTP	64	48	6	B	0	M1
TTP	64	120	0	C	1	M1
TTP	64	120	1	B	0	M1
TTP	64	120	5	B	0	M1
XTP	64	192	0
XTP	64	192	7
TTP	64	288	0	B	0	M1
TTP	64	288	0	C	1	M1
TTP	64	288	4	B	0	M1
TTP	64	360	0	C	1	M1
TTP	64	360	1	B	0	M1
TTP	64	360	5	B	0	M1
TTP	65	48	0	C	1	M1
TTP	65	48	2	B	0	M1
TTP	65	48	6	B	0	M1
TTP	65	120	0	C	1	M1
TTP	65	120	3	B	0	M1
TTP	65	120	7	B	0	M1
TTP	65	192	0	B	0	M1
TTP	65	192	0	C	1	M1
TTP	65	192	4	B	0	M1
TTP	65	264	0	C	1	M1
TTP	65	264	1	B	0	M1
TTP	65	264	5	B	0	M1
TTP	65	336	0	C	1	M1
TTP	65	336	2	B	0	M1
TTP	65	336	6	B	0	M1
TTP	66	24	0	C	1	M1
TTP	66	24	3	B	0	M1
TTP	66	24	7	B	0	M1
XTP	66	96	0
XTP	66	96	7
TTP	66	192	0	C	1	M1
TTP	66	192	3	E	0	M1
TTP	66	192	7	E	0	M1
TTP	66	264	0	C	1	M1
TTP	66	264	2	E	0	M1
TTP	66	264	6	E	0	M1
TTP	66	336	0	C	1	M1
TTP	66	336	1	E	0	M1
TTP	66	336	5	E	0	M1
TTP	67	24	0	E	0	M1
TTP	67	24	0	C	1	M1
TTP	67	24	4	E	0	M1
TTP	67	96	0	C	1	M1
TTP	67	96	3	E	0	M1
TTP	67	96	7	E	0	M1
TTP	67	168	0	C	1	M1
TTP	67	168	2	E	0	M1
TTP	67	168	6	E	0	M1
TTP	67	240	0	C	1	M1
TTP	67	240	1	E	0	M1
TTP	67	240	5	E	0	M1
TTP	67	312	0	E	0	M1
TTP	67	312	0	C	1	M1
TTP	67	312	4	E	0	M1
XTP	68	0	7
XTP	68	24	7
XTP	68	48	7
XTP	68	72	7
XTP	68	96	7
XTP	68	108	6
XTP	68	120	5
XTP	68	132	4
XTP	68	144	3
XTP	68	156	2
XTP	68	168	1
XTP	68	180	0
XTP	68	192	3
XHO	68	192	7	96
XTP	68	288	0
XTP	68	312	0
XTP	68	336	0
XTP	68	360	0
XTP	69	0	0
XTP	69	48	3
XTP	69	48	4
XTP	69	96	2
XST	69	96	7
SI_	69	96	7	96	24	3
XST	69	168	1
SI_	69	168	1	96	24	4
XTP	69	168	7
XTP	69	240	1
XST	69	240	6
SI_	69	240	6	96	24	2
XST	69	312	0
SF_	69	312	0	96	24	4
XTP	69	312	6
XTP	70	0	0
XTP	70	96	2
XTP	70	96	6
TAP	70	144	1
TAP	70	168	0
TAP	70	192	2
TAP	70	240	6
TAP	70	264	7
TAP	70	288	5
TAP	70	336	2
TAP	70	360	3
TAP	71	0	1
TAP	71	48	5
TAP	71	72	4
TAP	71	96	6
TAP	71	144	1
TAP	71	168	0
TAP	71	192	3
TAP	71	240	6
TAP	71	264	7
TAP	71	288	4
TAP	71	336	1
TAP	71	336	5
TAP	72	0	2
TAP	72	0	6
TAP	72	48	3
TAP	72	48	7
STR	72	96	0
SI_	72	96	0	96	48	4
XTP	72	96	2
TAP	72	144	1
TAP	72	192	0
TAP	72	192	7
XTP	72	288	5
STR	72	288	7
SI_	72	288	7	96	48	3
TAP	72	336	6
TAP	73	0	0
TAP	73	0	7
STR	73	96	2
SCL	73	96	2	96	96	3
TAP	73	96	5
TAP	73	168	7
HLD	73	192	7	96
TAP	74	0	2
TAP	74	0	6
TAP	74	48	1
TAP	74	48	5
TAP	74	96	0
HLD	74	96	4	192
TTP	74	144	7	B	0	M1
TTP	74	160	6	B	0	M1
TTP	74	176	6	E	0	M1
TTP	74	240	0	B	0	M1
TTP	74	256	1	B	0	M1
TTP	74	272	2	E	0	M1
TAP	74	336	4
TAP	75	0	1
TAP	75	0	5
TAP	75	48	2
TAP	75	48	6
HLD	75	96	3	192
TAP	75	96	7
TTP	75	144	0	B	0	M1
TTP	75	160	1	B	0	M1
TTP	75	176	2	E	0	M1
TTP	75	240	7	B	0	M1
TTP	75	256	6	B	0	M1
TTP	75	272	6	E	0	M1
TAP	75	336	3
TAP	76	0	1
TAP	76	24	0
TAP	76	48	1
TAP	76	72	0
STR	76	96	1
SI_	76	96	1	96	24	3
STR	76	168	7
SI_	76	168	7	96	24	5
TAP	76	192	7
STR	76	264	0
SI_	76	264	0	96	24	4
TAP	76	288	0
TAP	76	360	6
HLD	77	0	6	288
TTP	77	96	7	E	0	M1
TTP	77	112	6	B	0	M1
TTP	77	128	5	B	0	M1
TTP	77	144	5	E	0	M1
TTP	77	192	1	E	0	M1
TTP	77	208	1	B	0	M1
TTP	77	224	2	B	0	M1
TTP	77	240	3	E	0	M1
TTP	77	288	0	E	0	M1
TTP	77	304	0	C	0	M1
TTP	77	320	4	E	0	M1
BRK	78	0	1
BRK	78	0	6
XTP	78	96	0
XTP	78	96	5
TAP	78	144	6
TAP	78	168	7
TAP	78	192	5
TAP	78	240	1
TAP	78	264	0
TAP	78	288	2
TAP	78	336	5
TAP	78	360	4
TAP	79	0	6
TAP	79	48	2
TAP	79	72	3
TAP	79	96	1
TAP	79	144	6
TAP	79	168	7
TAP	79	192	4
TAP	79	240	1
TAP	79	264	0
TAP	79	288	3
TAP	79	336	2
TAP	79	336	6
TAP	80	0	1
TAP	80	0	5
TAP	80	48	0
TAP	80	48	4
XTP	80	96	5
STR	80	96	7
SF_	80	96	7	96	48	3
TAP	80	144	6
TAP	80	192	7
STR	80	288	0
SF_	80	288	0	96	48	4
XTP	80	288	2
TAP	80	336	1
TAP	81	0	0
TAP	81	96	2
STR	81	96	5
SCR	81	96	5	96	96	4
TAP	81	168	0
HLD	81	192	0	96
TAP	82	0	1
TAP	82	0	5
TAP	82	48	2
TAP	82	48	6
HLD	82	96	3	192
TAP	82	96	7
TTP	82	144	0	E	0	M1
TTP	82	160	0	B	0	M1
TTP	82	176	1	B	0	M1
TTP	82	192	2	E	0	M1
TTP	82	240	4	E	0	M1
TTP	82	256	4	B	0	M1
TTP	82	272	5	B	0	M1
TTP	82	288	6	E	0	M1
TAP	82	336	3
TAP	83	0	2
TAP	83	0	6
TAP	83	48	1
TAP	83	48	5
TAP	83	96	0
HLD	83	96	4	192
TTP	83	144	0	E	0	M1
TTP	83	160	7	B	0	M1
TTP	83	176	6	B	0	M1
TTP	83	192	6	E	0	M1
TTP	83	240	4	E	0	M1
TTP	83	256	3	B	0	M1
TTP	83	272	2	B	0	M1
TTP	83	288	2	E	0	M1
TAP	83	336	4
TAP	84	0	6
TAP	84	24	7
TAP	84	48	6
TAP	84	72	7
STR	84	96	6
SI_	84	96	6	96	16	4
STR	84	168	0
SI_	84	168	0	96	24	2
TAP	84	192	0
STR	84	264	7
SI_	84	264	7	96	24	3
TAP	84	288	7
TAP	84	360	1
HLD	85	0	1	288
TTP	85	96	1	E	0	M1
TTP	85	112	1	B	0	M1
TTP	85	128	2	B	0	M1
TTP	85	144	3	E	0	M1
TTP	85	192	7	E	0	M1
TTP	85	208	6	B	0	M1
TTP	85	224	5	B	0	M1
TTP	85	240	5	E	0	M1
TTP	85	288	0	E	0	M1
TTP	85	304	0	C	0	M1
TTP	85	320	4	E	0	M1
TTP	86	0	0	C	1	M1
TTP	86	0	2	E	0	M1
TTP	86	0	6	E	0	M1
XTP	86	96	0
XTP	86	96	7
BST	86	168	1
SCR	86	168	1	96	168	7
BST	86	168	6
SCL	86	168	6	96	168	0
BRK	86	192	1
BRK	86	192	6
XTP	87	96	2
TAP	87	120	3
TAP	87	144	1
XTP	87	192	5
TAP	87	216	4
TAP	87	240	6
XTP	87	288	2
TAP	87	312	3
TAP	87	336	1
TAP	87	360	4
XTP	88	0	0
TAP	88	24	5
TAP	88	48	7
TAP	88	72	6
XTP	88	96	1
TAP	88	120	0
TAP	88	144	2
TAP	88	168	7
XTP	88	192	3
TAP	88	216	6
TAP	88	240	4
TAP	88	264	5
XTP	88	288	7
TAP	88	304	0
TAP	88	320	1
XTP	88	336	6
TAP	88	352	5
TAP	88	368	4
XTP	89	0	0
TAP	89	16	1
TAP	89	32	2
XTP	89	48	5
TAP	89	64	4
TAP	89	80	3
TTP	89	96	0	B	0	M1
TTP	89	96	0	C	1	M1
TTP	89	96	7	B	0	M1

T_REC_TAP	440
T_REC_BRK	15
T_REC_XTP	84
T_REC_HLD	49
T_REC_XHO	8
T_REC_STR	49
T_REC_BST	4
T_REC_XST	10
T_REC_TTP	175
T_REC_THO	1
T_REC_SLD	65
T_REC_ALL	900
T_NUM_TAP	758
T_NUM_BRK	19
T_NUM_HLD	58
T_NUM_SLD	65
T_NUM_ALL	900
T_JUDGE_TAP	777
T_JUDGE_HLD	147
T_JUDGE_SLD	65
T_JUDGE_ALL	989
TTM_EACHPAIRS	126
TTM_SCR_TAP	379000
TTM_SCR_BRK	49400
TTM_SCR_HLD	58000
TTM_SCR_SLD	97500
TTM_SCR_ALL	583900
TTM_SCR_S	564550
TTM_SCR_SS	582000
TTM_RAT_ACV	10032

