VERSION	0.00.00	1.03.00
FES_MODE	0
BPM_DEF	160.000	160.000	160.000	160.000
MET_DEF	4	4
RESOLUTION	384
CLK_DEF	384
COMPATIBLE_CODE	MA2

BPM	0	0	160.000
MET	0	0	4	4
MET	49	0	4	7
MET	68	96	4	4

TAP	1	0	4
TAP	1	96	3
TAP	1	96	4
TAP	1	192	3
TAP	1	288	3
TAP	1	288	4
TAP	2	0	5
TAP	2	96	3
TAP	2	96	4
TAP	2	192	2
TAP	2	288	3
TAP	2	288	4
TAP	3	0	6
TAP	3	96	3
TAP	3	96	4
TAP	3	192	1
TAP	3	288	3
TAP	3	288	4
TTP	4	0	3	B	0	M1
TTP	4	0	4	B	0	M1
TTP	4	96	0	C	0	M1
TTP	4	192	1	B	0	M1
TTP	4	192	6	B	0	M1
TAP	4	288	0
TAP	4	312	7
TAP	4	336	0
TAP	4	360	7
TAP	5	0	0
TTP	5	96	4	B	0	M1
TTP	5	96	5	B	0	M1
TAP	5	192	7
TTP	5	288	2	B	0	M1
TTP	5	288	3	B	0	M1
TAP	6	0	0
TTP	6	96	4	B	0	M1
TTP	6	96	6	B	0	M1
TAP	6	192	7
TTP	6	288	1	B	0	M1
TTP	6	288	3	B	0	M1
TAP	7	0	0
TTP	7	96	5	E	0	M1
TTP	7	96	7	E	0	M1
TAP	7	192	7
TTP	7	288	1	E	0	M1
TTP	7	288	3	E	0	M1
TAP	8	0	6
TAP	8	24	7
TAP	8	48	6
TAP	8	96	1
TAP	8	120	0
TAP	8	144	1
STR	8	192	0
SI_	8	192	0	96	48	4
STR	8	192	7
SI_	8	192	7	96	48	3
BRK	9	0	1
BRK	9	0	6
TAP	9	72	5
TAP	9	96	4
TAP	9	168	6
TAP	9	192	7
TAP	9	264	5
TAP	9	288	4
TAP	9	360	6
STR	10	0	7
SI_	10	0	7	96	48	2
SI_	10	0	7	96	48	4
TAP	10	240	6
TAP	10	288	5
TAP	10	288	7
TAP	10	336	0
TAP	10	336	4
TAP	11	0	1
TAP	11	0	3
TAP	11	72	2
TAP	11	96	3
TAP	11	168	1
TAP	11	192	0
TAP	11	264	2
TAP	11	288	3
TAP	11	360	1
STR	12	0	0
SI_	12	0	0	96	48	3
SI_	12	0	0	96	48	5
TAP	12	288	1
TAP	12	288	6
TAP	13	0	3
TAP	13	0	4
TAP	13	72	5
TAP	13	96	4
TAP	13	168	6
TAP	13	192	7
TAP	13	264	5
TAP	13	288	4
TAP	13	360	6
STR	14	0	7
SI_	14	0	7	96	48	2
SI_	14	0	7	96	48	4
TAP	14	288	1
TAP	14	288	6
STR	15	0	0
SI_	15	0	0	96	48	4
TAP	15	96	5
STR	15	192	7
SI_	15	192	7	96	48	3
TAP	15	288	2
STR	16	0	1
SI_	16	0	1	96	48	4
STR	16	96	6
SI_	16	96	6	96	48	3
TAP	16	192	0
XTP	16	288	0
XTP	16	288	7
BRK	17	0	2
BRK	17	0	5
TAP	17	72	1
TAP	17	96	3
TAP	17	168	1
TAP	17	192	0
TAP	17	264	1
TAP	17	288	3
TAP	17	360	1
STR	18	0	0
SI_	18	0	0	96	48	3
SI_	18	0	0	96	48	5
TAP	18	240	2
TAP	18	288	1
TAP	18	288	3
TAP	18	336	0
TAP	18	336	4
TAP	19	0	5
TAP	19	0	7
TAP	19	72	6
TAP	19	96	4
TAP	19	168	6
TAP	19	192	7
TAP	19	264	6
TAP	19	288	4
TAP	19	360	6
STR	20	0	7
SI_	20	0	7	96	48	2
SI_	20	0	7	96	48	4
TAP	20	288	3
TAP	20	288	4
TAP	21	0	1
TAP	21	0	6
TAP	21	72	5
TAP	21	96	4
TAP	21	168	5
HLD	21	192	7	96
XTP	21	288	0
TAP	22	0	1
TAP	22	0	6
TAP	22	72	2
TAP	22	96	3
TAP	22	168	2
HLD	22	192	0	96
XTP	22	288	7
STR	23	0	6
SI_	23	0	6	96	48	3
TAP	23	96	7
STR	23	192	1
SI_	23	192	1	96	48	4
TAP	23	288	0
TAP	24	0	7
STR	24	96	0
SCR	24	96	0	96	96	3
STR	24	96	7
SCL	24	96	7	96	96	4
TAP	25	0	1
TAP	25	48	2
TAP	25	96	3
HLD	25	144	4	96
TTP	25	240	4	B	0	M1
HLD	25	288	5	96
TTP	26	0	0	C	0	M1
HLD	26	48	6	96
TTP	26	144	0	B	0	M1
HLD	26	192	7	96
XTP	26	288	4
TAP	27	0	6
TAP	27	48	5
TAP	27	96	4
HLD	27	144	3	96
TTP	27	240	3	B	0	M1
HLD	27	288	2	96
TTP	28	0	0	C	0	M1
HLD	28	48	1	96
TTP	28	144	7	B	0	M1
HLD	28	192	0	96
XTP	28	288	3
TAP	29	0	1
TAP	29	48	2
TAP	29	96	3
HLD	29	144	4	96
TTP	29	240	4	B	0	M1
HLD	29	288	5	96
TTP	30	0	0	C	0	M1
HLD	30	48	6	96
TTP	30	144	0	B	0	M1
HLD	30	192	7	96
XTP	30	288	4
TAP	31	0	6
TAP	31	48	5
TAP	31	96	4
HLD	31	144	2	96
HLD	31	144	3	96
TTP	31	288	0	C	1	M1
XTP	32	0	0
XTP	32	0	7
XTP	32	72	1
XTP	32	72	6
XTP	32	144	2
XTP	32	144	5
XTP	32	216	3
XTP	32	216	4
XTP	32	288	1
XTP	32	288	6
TAP	33	0	3
TAP	33	0	5
STR	33	96	5
SCL	33	96	5	96	96	3
TAP	34	0	2
TAP	34	0	4
STR	34	96	5
SCL	34	96	5	96	96	2
TAP	35	0	3
TAP	35	0	5
STR	35	96	6
SCL	35	96	6	96	96	3
TAP	36	0	2
STR	36	0	5
SUL	36	0	5	96	192	2
TAP	37	0	2
TAP	37	0	4
STR	37	96	2
SI_	37	96	2	96	96	4
TAP	38	0	3
TAP	38	0	5
STR	38	96	2
SI_	38	96	2	96	96	5
TAP	39	0	2
TAP	39	0	4
STR	39	96	1
SI_	39	96	1	96	96	4
STR	40	0	1
SXR	40	0	1	96	168	5
TAP	40	0	6
STR	41	0	6
SI_	41	0	6	96	48	4
TAP	41	96	3
STR	41	192	1
SI_	41	192	1	96	48	3
TAP	41	288	4
STR	42	0	6
SI_	42	0	6	96	48	3
TAP	42	96	2
STR	42	192	1
SI_	42	192	1	96	48	4
TAP	42	288	5
STR	43	0	6
SI_	43	0	6	96	48	3
TAP	43	96	2
STR	43	192	1
SI_	43	192	1	96	48	4
TAP	43	288	6
STR	44	0	7
SI_	44	0	7	96	48	3
TAP	44	96	0
XTP	44	192	1
XTP	44	192	6
STR	45	0	0
SI_	45	0	0	96	48	3
TAP	45	96	7
STR	45	192	7
SI_	45	192	7	96	48	4
TAP	45	288	0
STR	46	0	0
SUR	46	0	0	96	48	4
TAP	46	96	7
STR	46	192	7
SUL	46	192	7	96	48	3
TAP	46	288	0
STR	47	0	0
SUR	47	0	0	96	48	5
TAP	47	96	7
STR	47	192	7
SUL	47	192	7	96	48	2
TAP	47	288	0
STR	48	0	0
SUR	48	0	0	96	48	6
TAP	48	96	7
STR	48	192	7
SI_	48	192	7	96	48	3
TAP	48	288	0
BRK	49	0	1
BRK	49	0	5
HLD	50	288	2	96
TTP	51	0	2	B	0	M1
HLD	51	48	2	96
TTP	51	144	3	B	0	M1
HLD	51	192	2	96
TTP	51	288	4	B	0	M1
HLD	51	336	2	96
TTP	52	48	5	E	0	M1
TAP	52	96	2
HLD	52	192	5	96
TTP	52	288	5	B	0	M1
HLD	52	336	5	96
TTP	53	48	4	B	0	M1
HLD	53	96	5	96
TTP	53	192	3	B	0	M1
HLD	53	240	5	96
TTP	53	336	3	E	0	M1
TAP	54	0	5
HLD	54	96	1	96
STR	54	96	6
SI_	54	96	6	96	48	3
TAP	54	288	1
TAP	54	336	0
TAP	55	0	7
STR	55	48	1
SI_	55	48	1	96	48	4
HLD	55	48	6	96
TAP	55	240	6
TAP	55	288	7
TAP	55	336	0
HLD	56	0	1	96
TTP	56	96	1	B	0	M1
HLD	56	144	6	96
TTP	56	240	6	B	0	M1
HLD	56	288	1	96
TTP	57	0	1	B	0	M1
HLD	57	48	6	96
TTP	57	144	6	B	0	M1
TAP	57	192	1
HLD	57	288	2	96
TTP	58	0	2	B	0	M1
HLD	58	48	5	96
TTP	58	144	5	B	0	M1
HLD	58	192	2	96
TTP	58	288	2	B	0	M1
HLD	58	336	5	96
TTP	59	48	5	B	0	M1
TAP	59	96	2
HLD	59	192	4	96
TTP	59	288	4	B	0	M1
HLD	59	336	6	96
TTP	60	48	6	B	0	M1
HLD	60	96	0	96
TTP	60	192	0	B	0	M1
HLD	60	240	2	96
TTP	60	336	2	B	0	M1
TAP	61	0	4
HLD	61	96	6	96
TTP	61	192	6	B	0	M1
HLD	61	240	4	96
TTP	61	336	4	B	0	M1
HLD	62	0	2	96
STR	62	96	0
SI_	62	96	0	96	48	4
TAP	62	288	3
TAP	62	288	5
BRK	63	0	1
BRK	63	0	6
TTP	63	72	0	E	0	M1
TTP	63	144	1	E	0	M1
TTP	63	216	2	E	0	M1
TTP	63	288	3	E	0	M1
TTP	63	360	4	E	0	M1
TTP	64	48	5	E	0	M1
TTP	64	120	6	E	0	M1
TTP	64	192	7	E	0	M1
TTP	64	264	0	B	0	M1
TTP	64	264	7	B	0	M1
TTP	64	360	3	B	0	M1
TTP	65	48	2	B	0	M1
TTP	65	120	1	B	0	M1
TTP	65	192	0	B	0	M1
TTP	65	264	7	B	0	M1
TTP	65	336	6	B	0	M1
TTP	66	24	5	B	0	M1
TTP	66	96	3	B	0	M1
TTP	66	96	4	B	0	M1
TTP	66	192	7	B	0	M1
TTP	66	192	7	E	0	M1
TTP	66	264	6	B	0	M1
TTP	66	264	6	E	0	M1
TTP	66	336	5	E	0	M1
TTP	66	336	5	B	0	M1
TTP	67	24	4	B	0	M1
TTP	67	24	4	E	0	M1
TTP	67	96	3	E	0	M1
TTP	67	96	3	B	0	M1
TTP	67	168	2	B	0	M1
TTP	67	168	2	E	0	M1
TTP	67	240	1	E	0	M1
TTP	67	240	1	B	0	M1
TTP	67	312	0	B	0	M1
TTP	67	312	7	B	0	M1
THO	68	0	0	384	C	0	M1
TTP	68	0	2	B	0	M1
TTP	68	0	5	B	0	M1
XTP	69	96	0
XTP	69	96	6
XTP	69	168	1
XTP	69	168	7
XTP	69	240	2
XTP	69	240	4
XTP	69	312	3
XTP	69	312	5
BRK	70	0	0
BRK	70	0	7
BRK	70	48	0
BRK	70	48	7
TTP	70	96	0	C	1	M1
TTP	70	96	1	B	0	M1
TTP	70	96	6	B	0	M1
TTP	70	288	0	C	1	M1
TTP	70	288	2	B	0	M1
TTP	70	288	5	B	0	M1
TTP	71	96	0	C	1	M1
TTP	71	96	1	B	0	M1
TTP	71	96	2	B	0	M1
TTP	71	96	2	E	0	M1
TTP	71	96	5	B	0	M1
TTP	71	96	6	B	0	M1
TTP	71	96	6	E	0	M1
TAP	71	336	0
TAP	72	0	1
TAP	72	0	7
TAP	72	48	2
TAP	72	48	6
TAP	72	96	3
TAP	72	96	5
TAP	72	168	6
TAP	72	192	4
TAP	72	264	4
TAP	72	288	3
TAP	72	360	3
TAP	73	0	1
TAP	73	72	1
STR	73	96	0
SI_	73	96	0	96	48	3
SI_	73	96	0	96	48	5
TAP	74	0	0
TAP	74	0	7
TAP	74	96	2
TAP	74	96	5
TAP	74	168	1
TAP	74	192	3
TAP	74	264	3
TAP	74	288	4
TAP	74	360	4
TAP	75	0	6
TAP	75	72	6
STR	75	96	7
SI_	75	96	7	96	48	2
SI_	75	96	7	96	48	4
TAP	76	0	2
TAP	76	0	5
TAP	76	96	3
TAP	76	96	4
TAP	76	168	5
TAP	76	192	7
TAP	76	264	7
TAP	76	288	0
TAP	76	360	0
TAP	77	0	2
STR	77	96	5
SI_	77	96	5	96	48	0
STR	77	192	2
SI_	77	192	2	96	48	7
STR	77	288	6
SI_	77	288	6	96	48	3
TAP	78	0	1
BRK	78	96	1
BRK	78	96	4
TAP	78	168	1
TAP	78	192	3
TAP	78	264	3
TAP	78	288	4
TAP	78	360	4
TAP	79	0	6
TAP	79	72	6
STR	79	96	7
SI_	79	96	7	96	48	2
SI_	79	96	7	96	48	4
TAP	79	336	2
TAP	80	0	1
TAP	80	0	3
TAP	80	48	0
TAP	80	48	4
TAP	80	96	5
TAP	80	96	7
TAP	80	168	6
TAP	80	192	4
TAP	80	264	4
TAP	80	288	3
TAP	80	360	3
TAP	81	0	1
TAP	81	72	1
STR	81	96	0
SI_	81	96	0	96	48	3
SI_	81	96	0	96	48	5
XTP	82	0	0
XTP	82	0	7
TAP	82	96	3
TAP	82	96	4
TAP	82	168	5
TAP	82	192	7
TAP	82	264	7
STR	82	288	0
SI_	82	288	0	96	48	4
BRK	83	0	1
TAP	83	96	3
TAP	83	96	4
TAP	83	168	2
TAP	83	192	0
TAP	83	264	0
STR	83	288	7
SI_	83	288	7	96	48	3
BRK	84	0	6
STR	84	96	0
SI_	84	96	0	96	48	4
TAP	84	96	5
TAP	84	192	6
TAP	84	288	1
STR	84	288	7
SI_	84	288	7	96	48	3
TAP	85	0	0
STR	85	96	0
SI_	85	96	0	96	48	3
STR	85	96	7
SI_	85	96	7	96	48	4
TAP	85	288	1
TAP	85	288	6
TAP	86	0	3
TAP	86	0	4
TAP	86	72	1
TAP	86	72	6
TAP	86	96	1
TAP	86	96	6
TAP	86	168	0
TAP	86	168	7
BST	86	192	0
SCR	86	192	0	96	96	3
BST	86	192	7
SCL	86	192	7	96	96	4
STR	87	96	6
SI_	87	96	6	96	48	3
STR	87	192	2
SI_	87	192	2	96	48	7
STR	87	288	4
SI_	87	288	4	96	48	1
SI_	87	288	4	96	48	7
TAP	88	96	2
TAP	88	144	5
TAP	88	168	4
TAP	88	192	5
TAP	88	240	2
TAP	88	264	3
TAP	88	288	2
TAP	88	336	7
TAP	88	360	0
TAP	89	0	7
TAP	89	24	0
TAP	89	48	7
TAP	89	72	0
XST	89	96	7
SF_	89	96	7	96	288	3

T_REC_TAP	255
T_REC_BRK	16
T_REC_XTP	29
T_REC_HLD	41
T_REC_XHO	0
T_REC_STR	57
T_REC_BST	2
T_REC_XST	1
T_REC_TTP	99
T_REC_THO	1
T_REC_SLD	70
T_REC_ALL	571
T_NUM_TAP	441
T_NUM_BRK	18
T_NUM_HLD	42
T_NUM_SLD	70
T_NUM_ALL	571
T_JUDGE_TAP	459
T_JUDGE_HLD	90
T_JUDGE_SLD	70
T_JUDGE_ALL	619
TTM_EACHPAIRS	72
TTM_SCR_TAP	220500
TTM_SCR_BRK	46800
TTM_SCR_HLD	42000
TTM_SCR_SLD	105000
TTM_SCR_ALL	414300
TTM_SCR_S	400150
TTM_SCR_SS	412500
TTM_RAT_ACV	10043

