VERSION	0.00.00	1.03.00
FES_MODE	0
BPM_DEF	160.000	160.000	160.000	160.000
MET_DEF	4	4
RESOLUTION	384
CLK_DEF	384
COMPATIBLE_CODE	MA2

BPM	0	0	160.000
MET	0	0	4	4
MET	49	0	4	7
MET	68	96	4	4

TAP	1	0	2
TAP	1	96	3
TAP	1	192	3
TAP	2	0	4
TAP	2	96	5
TAP	2	192	5
TAP	3	0	6
TAP	3	96	5
TAP	3	192	5
TAP	4	0	4
TAP	4	96	4
TAP	4	192	3
TAP	4	192	5
TAP	5	0	1
TAP	5	96	2
TAP	5	192	2
TAP	6	0	3
TAP	6	96	4
TAP	6	192	4
TAP	7	0	6
TAP	7	96	5
TAP	7	192	5
TAP	8	0	3
TAP	8	0	4
TAP	8	96	3
TAP	8	96	4
XTP	8	192	2
XTP	8	192	5
TAP	9	0	2
TAP	9	96	2
TAP	9	96	3
TAP	9	192	4
TAP	9	288	3
TAP	9	288	4
TAP	10	0	2
TAP	10	96	2
TAP	10	96	3
TAP	10	192	1
TAP	10	192	4
TAP	11	0	5
TAP	11	96	4
TAP	11	96	5
TAP	11	192	3
TAP	11	288	3
TAP	11	288	4
TAP	12	0	5
TAP	12	96	4
TAP	12	96	5
TAP	12	192	3
TAP	12	192	6
TAP	13	0	2
TAP	13	96	3
TAP	13	192	1
TAP	13	192	4
TAP	14	0	5
TAP	14	96	4
TAP	14	192	3
TAP	14	192	6
TAP	15	0	6
TAP	15	96	6
TAP	15	96	7
TAP	15	192	1
TAP	15	288	0
TAP	15	288	1
TAP	16	0	0
TAP	16	0	7
TAP	16	96	0
TAP	16	96	7
XTP	16	192	1
XTP	16	192	6
TAP	17	0	6
TAP	17	96	6
TAP	17	96	7
TAP	17	192	1
TAP	17	288	0
TAP	17	288	1
TAP	18	0	6
TAP	18	96	6
TAP	18	96	7
TAP	18	192	0
TAP	18	192	5
TAP	19	0	1
TAP	19	96	0
TAP	19	96	1
TAP	19	192	6
TAP	19	288	6
TAP	19	288	7
TAP	20	0	1
TAP	20	96	0
TAP	20	96	1
TAP	20	192	2
TAP	20	192	7
TAP	21	0	5
TAP	21	96	4
TAP	21	192	3
TAP	21	192	6
TAP	22	0	2
TAP	22	96	3
TAP	22	192	1
TAP	22	192	4
TAP	23	0	6
TAP	23	96	6
TAP	23	96	7
TAP	23	192	1
TAP	23	288	0
TAP	23	288	1
TAP	24	0	0
TAP	24	0	7
HLD	24	96	1	192
HLD	24	96	6	192
XTP	25	0	1
XTP	25	0	6
TAP	25	96	2
TAP	25	144	2
TAP	25	240	3
TAP	25	288	3
TAP	26	0	4
TAP	26	48	4
TAP	26	144	3
XTP	26	192	3
XTP	26	288	3
XTP	26	288	4
XTP	27	0	2
XTP	27	0	5
TAP	27	96	6
TAP	27	144	6
TAP	27	240	5
TAP	27	288	5
TAP	28	0	4
TAP	28	48	4
TAP	28	144	3
XTP	28	192	3
XTP	28	288	2
XTP	28	288	5
XTP	29	0	1
XTP	29	0	6
TAP	29	96	0
TAP	29	144	0
TAP	29	240	1
TAP	29	288	1
TAP	30	0	2
TAP	30	48	2
TAP	30	144	3
TAP	30	192	3
XTP	30	288	4
XTP	30	288	5
XTP	31	0	3
XTP	31	0	4
TAP	31	96	2
TAP	31	96	3
TAP	31	144	2
TAP	31	144	3
TAP	31	240	4
TAP	31	240	5
TAP	31	288	4
TAP	31	288	5
XST	32	0	3
SI_	32	0	3	96	192	7
HLD	33	0	6	192
HLD	33	192	7	192
HLD	34	0	0	192
HLD	34	192	1	192
HLD	35	0	2	192
HLD	35	192	3	192
HLD	36	0	4	192
TAP	36	192	3
HLD	37	0	2	192
HLD	37	192	3	192
HLD	38	0	4	192
HLD	38	192	5	192
HLD	39	0	6	192
HLD	39	192	7	192
HLD	40	0	0	192
TAP	40	192	7
TAP	41	0	0
TAP	41	96	0
TAP	41	192	1
TAP	41	288	1
HLD	42	0	2	96
TAP	42	96	3
TAP	42	192	2
TAP	42	192	3
TAP	43	0	4
TAP	43	96	4
TAP	43	192	5
TAP	43	288	5
HLD	44	0	6	96
TAP	44	96	7
TAP	44	192	6
TAP	44	192	7
TAP	45	0	6
TAP	45	96	6
TAP	45	192	5
TAP	45	288	5
HLD	46	0	4	96
TAP	46	96	3
TAP	46	192	3
TAP	46	192	4
TAP	47	0	2
TAP	47	96	2
TAP	47	192	1
TAP	47	288	1
HLD	48	0	0	96
TAP	48	96	7
TAP	48	192	0
TAP	48	192	7
TAP	48	288	1
TAP	48	288	6
XHO	49	0	2	672
XHO	49	0	5	672
TTP	52	192	2	B	0	L1
TTP	53	0	3	B	0	L1
TTP	53	192	4	B	0	L1
TTP	54	0	2	B	0	L1
TTP	54	0	5	B	0	L1
THO	54	192	0	288	C	0	L1
TTP	56	0	5	E	0	L1
TTP	56	192	4	E	0	L1
TTP	57	0	3	E	0	L1
TTP	57	192	0	C	0	L1
TTP	58	0	7	E	0	L1
TTP	58	192	0	E	0	L1
TTP	59	0	1	E	0	L1
TTP	59	192	0	C	0	L1
TTP	60	0	3	E	0	L1
TTP	60	0	5	E	0	L1
TTP	60	192	2	B	0	L1
TTP	60	192	5	B	0	L1
TTP	61	0	1	B	0	L1
TTP	61	0	6	B	0	L1
THO	61	192	0	384	C	0	L1
XTP	63	72	2
XTP	63	144	2
XTP	63	216	2
XTP	63	288	2
XTP	63	360	2
XTP	64	48	2
XTP	64	48	3
XTP	64	120	2
XTP	64	120	3
XTP	64	192	2
XTP	64	192	3
XTP	64	288	5
XTP	64	360	5
XTP	65	48	5
XTP	65	120	5
XTP	65	192	5
XTP	65	264	5
XTP	65	336	4
XTP	65	336	5
XTP	66	24	4
XTP	66	24	5
XTP	66	96	4
XTP	66	96	5
XTP	66	192	6
XTP	66	264	6
XTP	66	336	6
XTP	67	24	6
XTP	67	96	6
XTP	67	168	6
XTP	67	168	7
XTP	67	240	6
XTP	67	240	7
XTP	67	312	6
XTP	67	312	7
XTP	68	0	0
XTP	68	0	5
XHO	68	96	1	192
XHO	68	96	6	192
THO	69	96	0	384	C	1	L1
XTP	71	0	0
XTP	71	0	7
TAP	71	96	0
TAP	71	96	7
TAP	71	192	1
TAP	71	192	6
TAP	71	288	2
TAP	71	288	5
TAP	72	96	2
TAP	72	192	2
TAP	72	192	3
TAP	72	288	1
TAP	73	0	0
TAP	73	0	1
TAP	73	96	6
TAP	73	96	7
TAP	73	192	0
TAP	73	192	5
TAP	73	288	1
TAP	73	288	4
HLD	74	96	5	96
TAP	74	192	4
TAP	74	288	3
TAP	74	288	6
TAP	75	0	2
TAP	75	0	7
HLD	75	96	2	96
TAP	75	192	3
TAP	75	288	1
TAP	75	288	4
HLD	76	96	6	96
TAP	76	192	4
HLD	76	288	1	96
TAP	77	0	3
TAP	77	96	3
TAP	77	96	4
TAP	77	192	2
TAP	77	192	5
XTP	77	288	1
XTP	77	288	6
TAP	78	96	2
TAP	78	192	1
TAP	78	192	3
TAP	78	288	6
TAP	79	0	5
TAP	79	0	7
TAP	79	96	0
TAP	79	96	1
TAP	79	192	2
TAP	79	192	7
TAP	79	288	3
TAP	79	288	6
TAP	80	0	4
TAP	80	0	5
TAP	80	96	3
TAP	80	192	2
TAP	80	192	4
TAP	80	288	5
TAP	81	0	4
TAP	81	0	6
TAP	81	96	0
TAP	81	96	1
TAP	81	192	2
TAP	81	192	7
TAP	81	288	3
TAP	81	288	6
HLD	82	96	5	96
TAP	82	192	4
TAP	82	288	3
TAP	82	288	6
TAP	83	0	2
TAP	83	0	7
HLD	83	96	1	96
TAP	83	192	0
TAP	83	288	2
TAP	83	288	7
TAP	84	0	3
TAP	84	0	6
TAP	84	96	5
TAP	84	192	3
TAP	84	192	4
TAP	84	288	2
TAP	85	0	3
TAP	85	0	4
TAP	85	96	6
TAP	85	96	7
TAP	85	192	0
TAP	85	192	5
TAP	85	288	0
TAP	85	288	1
TAP	86	0	2
TAP	86	0	7
STR	86	96	0
SXL	86	96	0	96	480	3
STR	86	96	7
SXR	86	96	7	96	480	4
TAP	88	96	2
TAP	88	144	2
TAP	88	192	2
TAP	88	288	5
TAP	88	336	5
TAP	89	0	5
BRK	89	96	1
BRK	89	96	6

T_REC_TAP	254
T_REC_BRK	2
T_REC_XTP	60
T_REC_HLD	26
T_REC_XHO	4
T_REC_STR	2
T_REC_BST	0
T_REC_XST	1
T_REC_TTP	19
T_REC_THO	3
T_REC_SLD	3
T_REC_ALL	374
T_NUM_TAP	336
T_NUM_BRK	2
T_NUM_HLD	33
T_NUM_SLD	3
T_NUM_ALL	374
T_JUDGE_TAP	338
T_JUDGE_HLD	142
T_JUDGE_SLD	3
T_JUDGE_ALL	483
TTM_EACHPAIRS	99
TTM_SCR_TAP	168000
TTM_SCR_BRK	5200
TTM_SCR_HLD	33000
TTM_SCR_SLD	4500
TTM_SCR_ALL	210700
TTM_SCR_S	204200
TTM_SCR_SS	210500
TTM_RAT_ACV	10009

