VERSION	0.00.00	1.03.00
FES_MODE	0
BPM_DEF	160.000	160.000	160.000	160.000
MET_DEF	4	4
RESOLUTION	384
CLK_DEF	384
COMPATIBLE_CODE	MA2

BPM	0	0	160.000
MET	0	24	4	4
MET	49	0	4	7
MET	68	96	4	4

TAP	9	0	0
TAP	9	192	0
TAP	10	0	0
TAP	11	0	1
TAP	11	192	1
TAP	12	0	1
TAP	13	0	2
TAP	13	192	2
TAP	14	0	2
TAP	15	0	3
TAP	15	192	3
BRK	16	0	3
TAP	17	0	4
TAP	17	192	4
TAP	18	0	4
TAP	19	0	5
TAP	19	192	5
TAP	20	0	5
TAP	21	0	6
TAP	21	192	6
TAP	22	0	6
TAP	23	0	7
TAP	23	192	7
BRK	24	0	0
BRK	24	0	7
STR	25	0	0
SI_	25	0	0	96	288	4
STR	27	0	7
SI_	27	0	7	96	288	3
STR	29	0	1
SI_	29	0	1	96	288	4
STR	31	0	6
SI_	31	0	6	96	288	3
TTP	33	0	2	B	0	L1
TTP	34	0	1	B	0	L1
TTP	35	0	0	B	0	L1
TTP	36	0	7	B	0	L1
TTP	37	0	6	B	0	L1
TTP	38	0	5	B	0	L1
TTP	39	0	4	B	0	L1
TTP	40	0	3	B	0	L1
TTP	41	0	3	E	0	L1
TTP	42	0	2	E	0	L1
TTP	43	0	1	E	0	L1
TTP	44	0	0	E	0	L1
TTP	45	0	7	E	0	L1
TTP	46	0	6	E	0	L1
TTP	47	0	5	E	0	L1
TTP	48	0	4	E	0	L1
THO	49	0	0	672	C	0	L1
TAP	52	192	0
TAP	53	0	0
TAP	53	192	0
TAP	54	96	7
HLD	54	288	7	288
TAP	56	0	7
TAP	56	192	7
XTP	57	0	7
TAP	57	288	6
TAP	58	96	6
XTP	58	288	6
TAP	59	192	5
TAP	60	0	5
XTP	60	192	5
TAP	61	96	4
TAP	61	288	4
HLD	62	96	3	216
HLD	62	96	4	216
TTP	63	72	3	B	0	L1
TTP	63	72	4	B	0	L1
TTP	64	288	2	B	0	L1
TTP	64	288	5	B	0	L1
TTP	66	192	1	B	0	L1
TTP	66	192	6	B	0	L1
THO	68	96	0	768	C	1	L1
TAP	72	96	1
TAP	72	192	1
TAP	72	288	1
HLD	73	96	1	192
TAP	74	96	2
TAP	74	192	2
TAP	74	288	2
HLD	75	96	2	192
TAP	76	96	3
TAP	76	192	3
TAP	76	288	3
TAP	77	96	4
TAP	77	192	4
BRK	77	288	4
TAP	78	96	5
TAP	78	192	5
TAP	78	288	5
HLD	79	96	5	192
TAP	80	96	6
TAP	80	192	6
TAP	80	288	6
HLD	81	96	6	192
TAP	82	96	7
TAP	82	192	7
TAP	82	288	7
TAP	83	96	0
TAP	83	192	0
TAP	83	288	0
TAP	84	96	7
TAP	84	192	7
TAP	84	288	6
TAP	85	0	6
TAP	85	96	5
TAP	85	192	5
TAP	85	288	4
TAP	86	0	4
STR	86	96	3
SI_	86	96	3	96	288	0
TAP	88	96	7
TAP	88	192	0
TAP	88	288	7
BRK	89	96	1
BRK	89	96	6

T_REC_TAP	68
T_REC_BRK	6
T_REC_XTP	3
T_REC_HLD	7
T_REC_XHO	0
T_REC_STR	5
T_REC_BST	0
T_REC_XST	0
T_REC_TTP	22
T_REC_THO	2
T_REC_SLD	5
T_REC_ALL	118
T_NUM_TAP	98
T_NUM_BRK	6
T_NUM_HLD	9
T_NUM_SLD	5
T_NUM_ALL	118
T_JUDGE_TAP	104
T_JUDGE_HLD	62
T_JUDGE_SLD	5
T_JUDGE_ALL	171
TTM_EACHPAIRS	3
TTM_SCR_TAP	49000
TTM_SCR_BRK	15600
TTM_SCR_HLD	9000
TTM_SCR_SLD	7500
TTM_SCR_ALL	81100
TTM_SCR_S	78100
TTM_SCR_SS	80500
TTM_RAT_ACV	10074

