VERSION	0.00.00	1.04.00
FES_MODE	0
BPM_DEF	148.000	148.000	148.000	148.000
MET_DEF	4	4
RESOLUTION	384
CLK_DEF	384
COMPATIBLE_CODE	MA2

BPM	0	0	148.000

BXHLD	1	0	2	336
BXTAP	1	0	4
NMTAP	1	336	4
NMTAP	1	360	5
NMHLD	2	0	6	336
BXTAP	2	336	4
BXHLD	3	0	3	240
NMTTP	3	240	3	E	0	M1
NMTTP	3	288	4	E	0	M1
NMTTP	3	336	5	E	0	M1
NMHLD	4	0	5	216
EXTAP	4	216	0
NMTAP	4	288	2
NMTAP	4	288	7
NMTAP	4	336	2
NMTAP	4	336	7
BRTAP	5	0	3
BRTAP	5	0	5
NMTAP	5	48	5
NMTAP	5	72	4
NMTAP	5	120	4
NMTAP	5	144	6
NMTAP	5	192	2
NMTAP	5	240	2
NMTAP	5	264	3
NMTAP	5	312	3
NMTAP	5	336	1
NMTAP	6	0	6
NMTAP	6	48	6
NMTAP	6	72	4
NMTAP	6	120	4
NMTAP	6	144	5
NMTAP	6	192	1
NMTAP	6	240	1
NMTAP	6	264	3
NMTAP	6	312	3
NMTAP	6	336	2
BRTAP	7	0	1
BRTAP	7	0	3
NMTAP	7	48	2
BRTAP	7	96	4
BRTAP	7	96	6
NMTAP	7	144	5
BRTAP	7	192	1
BRTAP	7	192	3
NMTAP	7	240	2
BRTAP	7	288	4
BRTAP	7	288	6
NMTAP	7	336	7
NMTAP	8	0	7
NMTAP	8	24	6
NMTAP	8	48	5
NMTAP	8	72	4
NMTAP	8	96	3
NMTAP	8	120	2
NMTAP	8	144	1
NMTAP	8	168	0
NMTAP	8	192	1
NMTAP	8	204	2
NMTAP	8	216	3
NMTAP	8	228	4
NMTAP	8	240	5
NMTAP	8	252	6
NMTAP	8	264	7
NMTAP	8	276	0
NMTAP	8	288	1
NMTAP	8	300	2
NMTAP	8	312	3
NMTAP	8	324	4
NMTAP	8	336	5
NMTAP	8	348	6
NMTAP	8	360	7
NMTAP	8	372	0
BRTAP	9	0	1
NMTAP	9	48	6
NMTAP	9	72	4
NMTAP	9	120	1
NMTAP	9	144	3
NMTAP	9	192	6
NMTAP	9	216	7
NMHLD	9	240	5	48
NMTAP	9	288	4
NMTAP	9	336	3
NMTAP	9	336	4
NMTAP	10	0	1
NMTAP	10	0	3
NMTAP	10	48	1
NMTAP	10	72	3
NMTAP	10	120	6
NMTAP	10	144	4
NMTAP	10	192	1
NMTAP	10	216	0
NMHLD	10	240	2	48
NMTAP	10	288	3
NMTAP	10	336	3
NMSTR	10	336	5
NMSI_	10	336	5	96	48	0
NMHLD	11	0	5	72
NMSTR	11	144	2
NMSI_	11	144	2	96	48	7
NMHLD	11	192	2	72
NMTAP	11	336	5
NMTAP	12	0	5
NMTAP	12	48	6
NMTAP	12	72	7
NMTAP	12	120	1
NMTAP	12	144	0
NMTAP	12	192	2
NMTAP	12	192	3
NMTAP	12	240	4
NMTAP	12	240	5
NMSTR	12	288	6
NMSCL	12	288	6	96	48	3
NMHLD	12	288	7	96
NMTAP	13	0	6
NMTAP	13	48	7
NMTAP	13	60	0
NMTAP	13	72	1
NMTAP	13	84	2
BRTAP	13	96	3
BRTAP	13	96	7
NMTAP	13	192	4
NMTAP	13	192	5
NMTAP	13	240	2
NMTAP	13	240	3
NMHLD	13	288	0	96
NMSTR	13	288	1
NMSCR	13	288	1	96	48	4
NMTAP	14	0	1
NMTAP	14	48	0
NMTAP	14	60	7
NMTAP	14	72	6
NMTAP	14	84	5
BRTAP	14	96	0
BRTAP	14	96	4
NMTAP	14	192	2
NMTAP	14	192	3
NMTAP	14	240	3
NMTAP	14	240	4
NMTAP	14	288	4
NMTAP	14	288	5
NMTAP	14	336	3
NMTAP	14	336	6
NMTAP	15	0	3
NMHLD	15	0	6	72
NMTAP	15	72	4
NMTAP	15	120	7
NMTAP	15	144	0
NMHLD	15	192	1	72
NMTAP	15	192	4
NMTAP	15	264	3
NMTAP	15	312	0
NMTAP	15	336	7
NMTAP	16	0	6
NMTAP	16	48	4
NMTAP	16	48	5
NMTAP	16	96	1
NMTAP	16	144	2
NMTAP	16	144	3
NMTAP	16	192	5
NMTAP	16	216	5
NMTAP	16	240	7
NMTAP	16	264	7
NMTAP	16	288	0
NMTAP	16	312	0
NMTAP	16	336	2
NMTAP	16	360	2
NMHLD	17	0	5	384
NMTAP	17	240	7
NMHLD	18	0	7	384
NMTAP	18	336	1
NMHLD	19	0	1	384
NMTAP	19	240	3
NMHLD	20	0	3	240
NMTAP	20	240	5
NMTAP	20	288	6
NMTAP	20	336	7
NMHLD	21	0	7	192
NMTTP	21	96	4	B	0	M1
NMTTP	21	96	5	B	0	M1
NMTTP	21	96	5	E	0	M1
NMHLD	21	192	0	192
NMTTP	21	288	2	B	0	M1
NMTTP	21	288	3	B	0	M1
NMTTP	21	288	3	E	0	M1
NMHLD	22	0	7	192
NMTTP	22	96	5	B	0	M1
NMTTP	22	96	6	B	0	M1
NMTTP	22	96	6	E	0	M1
NMHLD	22	192	0	192
NMTTP	22	288	1	B	0	M1
NMTTP	22	288	2	B	0	M1
NMTTP	22	288	2	E	0	M1
NMTAP	23	0	5
NMTAP	23	48	5
NMTAP	23	96	6
NMTAP	23	96	7
NMTAP	23	144	6
NMTAP	23	144	7
NMTAP	23	192	0
NMTAP	23	240	1
NMTAP	23	288	2
NMTAP	23	288	3
NMTAP	23	336	4
NMTAP	23	336	5
BRHLD	24	0	7	192
NMTAP	24	192	3
NMTAP	24	216	3
NMTAP	24	240	3
NMTAP	24	288	2
NMTAP	24	288	4
NMTAP	25	0	1
NMTAP	25	24	4
NMTAP	25	48	1
NMTAP	25	72	4
NMTAP	25	96	2
NMTAP	25	120	3
NMTAP	25	144	2
NMTAP	25	168	3
NMTAP	25	192	0
NMTAP	25	216	6
NMTAP	25	240	0
NMTAP	25	264	6
NMTAP	25	288	1
NMTAP	25	304	2
NMTAP	25	320	3
NMTAP	25	336	6
NMTAP	25	352	5
NMTAP	25	368	4
NMTAP	26	0	1
NMTAP	26	24	0
NMTAP	26	48	1
NMTAP	26	72	0
NMTAP	26	96	2
NMTAP	26	120	7
NMTAP	26	144	2
NMTAP	26	168	7
NMTAP	26	192	3
NMTAP	26	216	5
NMTAP	26	240	3
NMTAP	26	264	5
NMTAP	26	288	1
NMTAP	26	304	2
NMTAP	26	320	3
NMTAP	26	336	6
NMTAP	26	352	5
NMTAP	26	368	4
NMTAP	27	0	1
NMTAP	27	24	0
NMTAP	27	48	1
NMTAP	27	72	0
NMTAP	27	96	2
NMTAP	27	120	3
NMTAP	27	144	1
NMTAP	27	168	1
NMTAP	27	192	6
NMTAP	27	216	7
NMTAP	27	240	6
NMTAP	27	264	7
NMTAP	27	288	5
NMTAP	27	312	4
NMTAP	27	336	6
NMTAP	27	360	6
NMTAP	28	0	1
NMTAP	28	24	3
NMTAP	28	48	1
NMTAP	28	72	3
NMTAP	28	96	0
NMTAP	28	120	7
NMTAP	28	144	0
NMTAP	28	168	7
NMTAP	28	192	0
NMTAP	28	208	1
NMTAP	28	224	2
NMTAP	28	240	3
NMTAP	28	256	4
NMTAP	28	272	5
NMTAP	28	288	1
NMTAP	28	304	2
NMTAP	28	320	3
NMTAP	28	336	4
NMTAP	28	352	5
NMTAP	28	368	6
NMSTR	29	0	7
BRSI_	29	0	7	96	48	2
BRSI_	29	0	7	96	48	4
BRTAP	29	96	7
NMTAP	29	192	0
NMTAP	29	208	1
NMTAP	29	224	2
NMTAP	29	240	3
NMTAP	29	256	4
NMTAP	29	272	5
NMTAP	29	288	1
NMTAP	29	304	2
NMTAP	29	320	3
NMTAP	29	336	4
NMTAP	29	352	5
NMTAP	29	368	6
NMSTR	30	0	7
BRSI_	30	0	7	96	48	2
BRSI_	30	0	7	96	48	4
BRTAP	30	96	7
NMTAP	30	192	2
NMTAP	30	216	4
NMTAP	30	240	2
NMTAP	30	264	4
NMTAP	30	288	3
NMTAP	30	312	5
NMTAP	30	336	3
NMTAP	30	360	5
BRTAP	31	0	4
NMHLD	31	72	3	72
NMHLD	31	72	6	72
BRTAP	31	192	2
NMHLD	31	264	1	72
NMHLD	31	264	4	72
NMTTP	32	0	4	E	1	M1
NMTAP	32	0	5
NMTAP	32	48	6
NMTTP	32	96	3	E	1	M1
NMTAP	32	96	7
NMTAP	32	144	0
NMTAP	32	192	1
NMTTP	32	192	5	E	1	M1
NMTAP	32	240	2
NMTAP	32	288	3
NMTAP	32	288	4
NMTAP	33	0	2
NMTAP	33	0	5
NMTAP	33	48	3
NMTAP	33	72	3
NMTAP	33	96	4
NMTAP	33	120	2
NMTAP	33	144	5
NMTAP	33	168	5
NMSTR	33	192	3
BRSF_	33	192	3	96	48	7
NMTAP	33	216	4
NMTAP	33	240	2
BXTAP	34	0	0
BXTAP	34	0	6
NMTAP	34	48	1
NMTAP	34	72	3
NMTAP	34	120	6
NMTAP	34	144	4
NMTAP	34	192	1
NMTAP	34	216	3
NMHLD	34	240	2	48
NMTAP	34	288	7
NMTAP	34	336	7
NMTAP	35	0	4
NMTAP	35	0	6
NMTAP	35	48	6
NMTAP	35	72	4
NMTAP	35	120	1
NMTAP	35	144	3
NMTAP	35	192	6
NMTAP	35	216	4
NMHLD	35	240	5	48
NMTAP	35	288	0
NMSTR	35	336	1
NMSCR	35	336	1	96	48	4
NMHLD	36	0	1	72
NMSTR	36	144	6
NMSCL	36	144	6	96	48	3
NMHLD	36	192	6	72
NMTAP	36	336	2
NMTAP	37	0	2
NMTAP	37	48	1
NMTAP	37	72	0
NMTAP	37	120	6
NMTAP	37	144	7
NMTAP	37	192	4
NMTAP	37	192	5
NMTTP	37	288	7	E	0	M1
NMTTP	37	304	6	E	0	M1
NMTTP	37	320	5	E	0	M1
NMTTP	37	336	1	E	0	M1
NMTTP	37	352	2	E	0	M1
NMTTP	37	368	3	E	0	M1
NMTAP	38	0	6
NMTAP	38	48	6
NMTAP	38	72	4
NMTAP	38	120	4
NMTAP	38	144	3
NMTAP	38	192	3
NMTAP	38	216	1
NMTAP	38	264	1
NMTTP	38	288	7	E	0	M1
NMTTP	38	304	6	E	0	M1
NMTTP	38	320	5	E	0	M1
NMTTP	38	336	1	E	0	M1
NMTTP	38	352	2	E	0	M1
NMTTP	38	368	3	E	0	M1
NMTAP	39	0	5
NMTAP	39	48	5
NMTAP	39	72	7
NMTAP	39	120	7
NMTAP	39	144	0
NMTAP	39	192	0
NMTAP	39	216	2
NMTAP	39	264	2
NMTAP	39	288	3
NMTAP	39	336	1
NMTAP	39	336	4
NMHLD	40	0	1	72
NMTAP	40	0	4
NMTAP	40	72	3
NMTAP	40	120	0
NMTAP	40	144	7
NMTAP	40	192	3
NMHLD	40	192	6	72
NMTAP	40	264	4
NMTAP	40	312	7
NMTAP	40	336	0
NMTAP	41	0	1
NMTAP	41	48	2
NMTAP	41	48	3
NMTAP	41	96	6
NMTAP	41	144	4
NMTAP	41	144	5
BRTAP	41	192	0
NMTAP	41	216	3
NMTAP	41	240	2
NMTAP	41	264	2
BRTAP	41	288	7
NMTAP	41	312	4
NMTAP	41	336	5
NMTAP	41	360	5
BRTAP	42	0	0
NMTAP	42	48	1
NMTAP	42	72	3
NMTAP	42	120	6
NMTAP	42	144	4
NMTAP	42	192	1
NMTAP	42	216	0
NMHLD	42	240	2	48
NMTAP	42	288	3
NMTAP	42	336	3
NMTAP	42	336	4
NMTAP	43	0	4
NMTAP	43	0	6
NMTAP	43	48	6
NMTAP	43	72	4
NMTAP	43	120	1
NMTAP	43	144	3
NMTAP	43	192	6
NMTAP	43	216	7
NMHLD	43	240	5	48
NMTAP	43	288	4
NMSTR	43	336	2
NMSLL	43	336	2	96	48	6
NMTAP	43	336	4
NMHLD	44	0	2	72
NMSTR	44	144	5
NMSLR	44	144	5	96	48	1
NMHLD	44	192	5	72
NMTAP	44	336	2
NMTAP	45	0	2
NMTAP	45	48	1
NMTAP	45	72	0
NMTAP	45	120	6
NMTAP	45	144	7
NMTAP	45	192	4
NMTAP	45	192	5
NMTAP	45	240	2
NMTAP	45	240	3
NMHLD	45	288	0	96
NMSTR	45	288	1
NMSCR	45	288	1	96	24	4
NMTAP	46	0	1
NMTAP	46	48	0
NMTAP	46	60	7
NMTAP	46	72	6
NMTAP	46	84	5
BRTAP	46	96	0
BRTAP	46	96	4
NMTAP	46	192	2
NMTAP	46	192	3
NMTAP	46	240	4
NMTAP	46	240	5
NMSTR	46	288	6
NMSCL	46	288	6	96	48	3
NMHLD	46	288	7	96
NMTAP	47	0	6
NMTAP	47	48	7
NMTAP	47	60	0
NMTAP	47	72	1
NMTAP	47	84	2
BRTAP	47	96	3
BRTAP	47	96	7
NMTAP	47	192	4
NMTAP	47	192	5
NMTAP	47	240	3
NMTAP	47	240	4
NMTAP	47	288	2
NMTAP	47	288	3
NMTAP	47	336	0
NMTAP	47	336	5
NMTAP	48	0	0
NMHLD	48	0	5	72
NMTAP	48	72	7
NMTAP	48	120	4
NMTAP	48	144	3
NMHLD	48	192	2	72
NMTAP	48	192	7
NMTAP	48	264	0
NMTAP	48	312	3
NMTAP	48	336	4
NMTAP	49	0	5
NMTAP	49	48	6
NMTAP	49	48	7
NMTAP	49	96	2
NMTAP	49	144	0
NMTAP	49	144	1
NMTAP	49	192	6
NMTAP	49	216	6
NMTAP	49	240	4
NMTAP	49	264	4
NMTAP	49	288	3
NMTAP	49	312	3
NMTAP	49	336	1
NMTAP	49	360	1
BRHLD	50	0	7	384
NMTAP	50	336	4
NMTAP	50	360	3
NMHLD	51	0	2	384
NMHLD	52	0	4	240
NMTTP	52	240	5	E	0	M1
NMTTP	52	288	4	E	0	M1
NMTTP	52	336	3	E	0	M1
NMTTP	53	0	2	E	0	M1
NMTAP	53	288	1
NMTAP	53	288	5
NMTAP	54	0	2
NMTAP	54	24	4
NMTAP	54	48	2
NMTAP	54	72	4
NMTAP	54	96	2
NMTAP	54	120	4
NMTAP	54	144	2
NMTAP	54	168	4
NMTAP	54	192	2
NMTAP	54	216	4
NMTAP	54	240	2
NMTAP	54	264	4
NMTAP	54	288	2
NMTAP	54	312	4
NMTAP	54	336	2
NMTAP	54	360	4
NMTAP	55	0	1
NMTAP	55	24	5
NMTAP	55	48	1
NMTAP	55	72	5
NMTAP	55	96	1
NMTAP	55	120	5
NMTAP	55	144	1
NMTAP	55	168	5
NMTAP	55	192	1
NMTAP	55	216	5
NMTAP	55	240	1
NMTAP	55	264	5
NMTAP	55	288	1
NMTAP	55	312	5
NMTAP	55	336	1
NMTAP	55	360	5
NMTAP	56	0	2
NMTAP	56	24	4
NMTAP	56	48	2
NMTAP	56	72	4
NMTAP	56	96	2
NMTAP	56	120	4
NMTAP	56	144	2
NMTAP	56	168	4
NMTAP	56	192	3
NMTAP	56	216	3
NMTAP	56	240	3
NMTAP	56	264	3
NMSTR	56	288	3
NMSCL	56	288	3	96	144	4
NMTAP	56	312	3
NMTAP	56	336	3
NMTAP	56	360	3
NMTAP	57	216	2
NMTAP	57	216	5
NMTAP	57	288	0
NMTAP	57	288	7
NMTAP	57	336	0
NMTAP	57	336	7
NMHLD	58	0	3	48
NMHLD	58	0	5	48
NMHLD	58	72	2	48
NMHLD	58	72	4	48
NMHLD	58	144	1	48
NMHLD	58	144	3	48
NMHLD	58	216	4	48
NMHLD	58	216	6	48
NMTAP	58	288	3
NMTAP	58	288	7
NMTAP	58	336	3
NMTAP	58	336	7
NMTAP	59	0	1
NMTAP	59	0	5
NMTAP	59	48	2
NMTAP	59	72	3
NMHLD	59	96	1	48
NMTAP	59	144	5
NMTAP	59	168	4
NMHLD	59	192	6	48
NMTAP	59	240	4
NMTAP	59	264	5
NMTAP	59	288	3
NMTAP	59	312	4
NMTAP	59	336	2
NMHLD	60	0	0	48
NMHLD	60	0	1	48
NMHLD	60	72	2	48
NMHLD	60	72	4	48
NMTAP	60	144	3
NMTAP	60	144	5
NMHLD	60	192	6	48
NMHLD	60	192	7	48
NMHLD	60	264	3	48
NMHLD	60	264	5	48
NMTAP	60	336	2
NMTAP	60	336	4
NMTAP	61	0	1
NMTAP	61	24	1
NMTAP	61	48	3
NMTAP	61	72	2
NMTAP	61	96	6
NMTAP	61	120	6
NMTAP	61	144	4
NMTAP	61	168	5
NMTAP	61	192	2
NMTAP	61	216	2
NMTAP	61	240	3
NMTAP	61	264	0
NMSTR	61	288	5
NMSXL	61	288	5	96	192	3
NMTAP	61	312	5
NMTAP	61	336	4
NMTAP	61	360	7
EXTAP	62	240	0
EXTAP	62	288	7
EXTAP	62	336	6
NMHLD	63	0	6	96
NMHLD	63	96	4	96
NMHLD	63	192	3	96
NMTAP	63	288	1
NMTAP	64	0	0
NMTAP	64	0	7
NMTAP	64	48	2
NMTAP	64	72	3
NMHLD	64	96	1	48
NMTAP	64	144	7
NMTAP	64	168	0
NMHLD	64	192	6	48
NMTAP	64	240	4
NMTAP	64	264	5
NMHLD	64	288	2	48
NMTAP	64	336	4
NMTAP	64	360	3
NMTAP	65	0	5
NMTAP	65	24	2
NMTAP	65	48	5
NMTAP	65	72	2
NMTAP	65	96	7
NMTAP	65	120	0
NMTAP	65	144	7
NMTAP	65	168	0
NMTAP	65	192	5
NMTAP	65	216	3
NMTAP	65	240	5
NMTAP	65	264	3
NMTAP	65	288	6
NMTAP	65	312	2
NMTAP	65	336	6
NMTAP	65	360	2
BRTAP	66	0	7
EXTAP	66	48	0
EXTAP	66	48	1
NMTAP	66	72	2
NMTAP	66	96	3
NMTAP	66	96	4
NMTAP	66	120	5
NMHLD	66	144	6	48
EXTAP	66	192	7
EXTAP	66	240	6
EXTAP	66	240	7
NMTAP	66	264	5
NMTAP	66	288	3
NMTAP	66	288	4
NMTAP	66	312	2
NMHLD	66	336	1	48
EXTAP	67	0	0
EXTAP	67	48	2
EXTAP	67	48	3
NMTAP	67	72	1
NMTAP	67	96	0
NMTAP	67	96	7
NMTAP	67	120	6
NMHLD	67	144	5	48
EXTAP	67	192	4
EXTAP	67	240	4
EXTAP	67	240	5
NMTAP	67	264	6
NMTAP	67	288	0
NMTAP	67	288	7
NMTAP	67	312	1
NMHLD	67	336	2	48
EXTAP	68	0	3
EXTAP	68	48	0
EXTAP	68	48	1
NMTAP	68	72	2
NMTAP	68	96	3
NMTAP	68	96	4
NMTAP	68	120	5
NMHLD	68	144	6	48
EXTAP	68	192	7
EXTAP	68	240	6
EXTAP	68	240	7
NMTAP	68	264	5
NMTAP	68	288	3
NMTAP	68	288	4
NMTAP	68	312	2
NMHLD	68	336	1	48
EXTAP	69	0	0
EXTAP	69	48	2
EXTAP	69	48	3
NMTAP	69	72	1
NMTAP	69	96	0
NMTAP	69	96	7
NMTAP	69	120	6
NMHLD	69	144	5	48
EXTAP	69	192	3
EXTAP	69	216	3
NMTAP	69	264	2
NMTAP	69	264	4
NMTAP	69	288	2
NMTAP	69	288	4
BRTAP	69	336	0
BRTAP	69	336	6
BRTAP	70	0	1
BRTAP	70	0	5
EXTAP	70	48	2
EXTAP	70	48	4
NMTAP	70	72	5
NMTAP	70	96	6
NMTAP	70	96	7
NMTAP	70	120	0
NMHLD	70	144	1	48
EXTAP	70	192	3
EXTAP	70	240	2
EXTAP	70	240	4
NMTAP	70	264	1
NMTAP	70	288	0
NMTAP	70	288	7
NMTAP	70	312	6
NMHLD	70	336	5	48
EXTAP	71	0	3
EXTAP	71	48	0
EXTAP	71	48	6
NMTAP	71	72	5
NMTAP	71	96	3
NMTAP	71	96	4
NMTAP	71	120	2
NMHLD	71	144	1	48
EXTAP	71	192	7
EXTAP	71	240	1
EXTAP	71	240	7
NMTAP	71	264	2
NMTAP	71	288	3
NMTAP	71	288	4
NMTAP	71	312	5
NMHLD	71	336	6	48
EXTAP	72	0	0
EXTAP	72	48	2
EXTAP	72	48	4
NMTAP	72	72	5
NMTAP	72	96	6
NMTAP	72	96	7
NMTAP	72	120	0
NMHLD	72	144	1	48
EXTAP	72	192	3
EXTAP	72	240	2
EXTAP	72	240	4
NMTAP	72	264	1
NMTAP	72	288	0
NMTAP	72	288	7
NMTAP	72	312	6
NMHLD	72	336	5	48
NMTAP	73	0	3
NMTAP	73	24	4
NMTAP	73	48	3
NMTAP	73	72	4
NMTAP	73	96	1
NMTAP	73	120	6
NMTAP	73	144	1
NMTAP	73	168	6
NMTAP	73	192	0
NMTAP	73	204	1
NMTAP	73	216	2
NMTAP	73	228	3
NMTAP	73	240	4
NMTAP	73	252	5
NMTAP	73	264	6
NMTAP	73	276	7
NMTAP	73	288	0
NMTAP	73	300	1
NMTAP	73	312	2
NMTAP	73	324	3
NMTAP	73	336	4
NMTAP	73	348	5
NMTAP	73	360	6
NMTAP	73	372	7
NMHLD	74	0	0	1536
NMTHO	74	0	0	1536	C	0	M1
NMTTP	75	0	7	B	0	M1
NMTTP	75	192	0	B	0	M1
NMTTP	76	0	6	B	0	M1
NMTTP	76	192	1	B	0	M1
NMTTP	77	0	5	B	0	M1
NMTTP	77	192	2	B	0	M1
NMTTP	78	0	4	B	0	M1

T_REC_TAP	594
T_REC_BRK	31
T_REC_XTP	43
T_REC_BXX	4
T_REC_HLD	76
T_REC_XHO	0
T_REC_BHO	2
T_REC_BXH	2
T_REC_STR	15
T_REC_BST	0
T_REC_XST	0
T_REC_XBS	0
T_REC_TTP	41
T_REC_THO	1
T_REC_SLD	12
T_REC_BSL	5
T_REC_ALL	826
T_NUM_TAP	693
T_NUM_BRK	44
T_NUM_HLD	77
T_NUM_SLD	12
T_NUM_ALL	826
T_JUDGE_TAP	728
T_JUDGE_HLD	244
T_JUDGE_SLD	17
T_JUDGE_ALL	989
TTM_EACHPAIRS	111
TTM_SCR_TAP	346500
TTM_SCR_BRK	114400
TTM_SCR_HLD	77000
TTM_SCR_SLD	18000
TTM_SCR_ALL	555900
TTM_SCR_S	535000
TTM_SCR_SS	551500
TTM_RAT_ACV	10079

