VERSION	0.00.00	1.04.00
FES_MODE	0
BPM_DEF	148.000	148.000	148.000	148.000
MET_DEF	4	4
RESOLUTION	384
CLK_DEF	384
COMPATIBLE_CODE	MA2

BPM	0	0	148.000

NMHLD	1	0	3	768
NMTAP	1	0	4
NMSTR	2	0	0
NMSUL	2	0	0	96	192	5
NMHLD	3	0	4	672
NMSTR	4	0	7
NMSUR	4	0	7	96	192	1
NMTAP	5	0	2
NMTAP	5	96	2
NMTAP	5	192	3
NMTAP	5	288	3
NMTAP	6	0	4
NMTAP	6	96	4
NMTAP	6	192	5
NMSTR	6	288	5
NMSCR	6	288	5	96	288	4
NMHLD	8	0	1	96
NMHLD	8	0	6	96
NMTAP	8	192	2
NMTAP	8	192	5
BRTAP	8	288	0
BRTAP	8	288	7
EXHLD	9	0	1	72
EXHLD	9	72	3	72
EXHLD	9	144	4	144
NMTAP	9	240	7
NMTAP	9	288	7
EXHLD	10	0	6	72
EXHLD	10	72	4	72
EXHLD	10	144	3	144
NMTAP	10	240	0
NMTAP	10	288	0
NMSTR	11	0	2
NMSI_	11	0	2	96	48	7
NMSTR	11	0	4
NMSI_	11	0	4	96	48	7
NMSTR	11	192	3
NMSI_	11	192	3	96	48	0
NMSTR	11	192	5
NMSI_	11	192	5	96	48	0
NMTAP	12	0	0
NMTAP	12	0	1
NMTAP	12	72	2
NMTAP	12	72	3
NMTAP	12	144	4
NMHLD	12	144	5	144
NMTAP	12	240	7
NMTAP	12	288	7
NMHLD	13	0	6	72
NMHLD	13	72	4	72
NMTAP	13	144	3
NMTAP	13	240	0
NMTAP	13	240	1
NMTAP	13	288	0
NMTAP	13	288	1
NMHLD	14	0	1	72
NMHLD	14	72	3	72
NMTAP	14	144	4
NMTAP	14	240	6
NMTAP	14	240	7
NMTAP	14	288	6
NMTAP	14	288	7
NMSTR	15	0	0
NMSI_	15	0	0	96	48	3
NMSTR	15	0	5
NMSI_	15	0	5	96	48	7
NMSTR	15	192	2
NMSI_	15	192	2	96	48	0
NMSTR	15	192	7
NMSI_	15	192	7	96	48	4
NMTAP	16	0	5
NMTAP	16	0	7
NMTAP	16	72	3
NMTAP	16	72	4
BRSTR	16	144	2
NMSV_	16	144	2	96	72	0
BRSTR	16	144	5
NMSV_	16	144	5	96	72	7
NMHLD	17	0	1	384
NMTAP	17	0	6
NMTTP	17	192	3	E	0	M1
NMHLD	18	0	3	384
NMTTP	18	192	4	E	0	M1
NMHLD	19	0	4	384
NMTTP	19	192	6	E	0	M1
NMSTR	20	0	6
NMSUL	20	0	6	96	192	0
NMTAP	21	0	7
NMTAP	21	96	6
NMTAP	21	192	5
NMTAP	21	288	4
NMTAP	21	288	5
NMTAP	22	0	0
NMTAP	22	96	1
NMTAP	22	192	2
NMTAP	22	288	2
NMTAP	22	288	3
NMTAP	23	0	6
NMTAP	23	48	6
NMTAP	23	96	4
NMTAP	23	192	1
NMTAP	23	240	1
NMTAP	23	288	3
NMHLD	24	0	7	192
NMTAP	24	192	0
BRTAP	24	288	0
BRTAP	24	288	7
NMTAP	25	0	1
NMHLD	25	96	1	288
NMTAP	25	192	3
NMTAP	25	288	4
NMHLD	26	0	6	288
NMTAP	26	96	4
NMTAP	26	192	3
NMTAP	26	288	2
NMTAP	27	0	1
NMTAP	27	96	1
NMTAP	27	96	3
NMTAP	27	192	6
NMTAP	27	288	4
NMTAP	27	288	6
NMSTR	28	0	4
NMSUL	28	0	4	96	288	1
NMSTR	28	0	5
NMSXL	28	0	5	96	288	0
BRTAP	29	96	2
BRTAP	29	96	7
NMTAP	29	192	4
NMHLD	29	192	5	96
NMTAP	29	288	7
NMHLD	30	0	2	96
NMTAP	30	0	3
BRTAP	30	96	0
NMTAP	30	192	4
NMHLD	30	192	5	96
NMTAP	30	288	7
EXHLD	31	0	1	72
EXHLD	31	0	3	72
EXHLD	31	192	4	72
EXHLD	31	192	6	72
EXTAP	32	0	3
EXTAP	32	0	4
EXTAP	32	72	2
EXTAP	32	72	5
NMTHO	32	144	0	240	C	0	M1
NMTTP	32	144	1	B	0	M1
NMTTP	32	144	6	B	0	M1
BRTAP	33	288	0
BRTAP	33	288	7
NMHLD	34	0	1	72
NMHLD	34	72	3	72
NMHLD	34	144	5	144
NMTAP	34	240	7
NMTAP	34	288	7
NMHLD	35	0	6	72
NMHLD	35	72	4	72
NMHLD	35	144	2	144
NMTAP	35	240	0
NMTAP	35	288	0
NMSTR	36	0	2
NMSI_	36	0	2	96	48	7
NMSTR	36	0	3
NMSI_	36	0	3	96	48	7
NMSTR	36	192	4
NMSI_	36	192	4	96	48	0
NMSTR	36	192	5
NMSI_	36	192	5	96	48	0
NMTAP	37	0	0
NMTAP	37	0	1
NMTAP	37	72	2
NMTAP	37	72	3
NMTAP	37	144	4
NMHLD	37	144	5	144
NMTAP	37	240	7
NMTAP	37	288	7
NMHLD	38	0	6	72
NMHLD	38	72	4	72
NMHLD	38	144	2	144
NMTAP	38	240	0
NMTAP	38	288	0
NMHLD	39	0	1	72
NMHLD	39	72	3	72
NMHLD	39	144	5	144
NMTAP	39	240	7
NMTAP	39	288	7
NMSTR	40	0	0
NMSI_	40	0	0	96	48	4
NMSTR	40	0	5
NMSI_	40	0	5	96	48	7
NMSTR	40	192	2
NMSI_	40	192	2	96	48	0
NMSTR	40	192	7
NMSI_	40	192	7	96	48	3
NMTAP	41	0	6
NMTAP	41	0	7
NMTAP	41	72	4
NMTAP	41	72	5
NMHLD	41	144	2	144
NMTAP	41	144	3
BRTAP	41	240	0
BRTAP	41	288	0
NMTAP	42	0	1
NMTAP	42	0	3
NMTAP	42	72	3
NMTAP	42	72	4
NMTAP	42	144	4
NMHLD	42	144	6	144
NMTAP	42	240	7
NMTAP	42	288	7
NMTAP	43	0	4
NMTAP	43	0	6
NMTAP	43	72	3
NMTAP	43	72	4
NMHLD	43	144	1	144
NMTAP	43	144	3
NMTAP	43	240	0
NMTAP	43	288	0
NMSTR	44	0	2
NMSI_	44	0	2	96	48	7
NMSTR	44	0	3
NMSI_	44	0	3	96	48	6
NMSTR	44	192	4
NMSI_	44	192	4	96	48	1
NMSTR	44	192	5
NMSI_	44	192	5	96	48	0
NMTAP	45	0	0
NMTAP	45	0	1
NMTAP	45	72	2
NMTAP	45	72	3
NMTAP	45	144	4
NMHLD	45	144	5	144
NMTAP	45	240	7
NMTAP	45	288	7
NMTAP	46	0	5
NMTAP	46	0	6
NMTAP	46	72	3
NMTAP	46	72	4
NMHLD	46	144	1	144
NMTAP	46	144	2
NMTAP	46	240	0
NMTAP	46	288	0
NMTAP	47	0	1
NMTAP	47	0	2
NMTAP	47	72	3
NMTAP	47	72	4
NMTAP	47	144	5
NMHLD	47	144	6	144
NMTAP	47	240	7
NMTAP	47	288	7
NMSTR	48	0	4
NMSI_	48	0	4	96	48	0
NMSTR	48	0	5
NMSI_	48	0	5	96	48	7
NMSTR	48	192	0
NMSI_	48	192	0	96	48	2
NMSTR	48	192	7
NMSI_	48	192	7	96	48	3
NMTAP	49	0	1
NMTAP	49	0	4
NMTAP	49	72	3
NMTAP	49	72	6
BRSTR	49	144	3
NMSF_	49	144	3	96	72	7
BRTAP	49	144	4
NMSTR	50	0	1
NMSCR	50	0	1	96	480	4
NMSTR	50	0	5
NMSCR	50	0	5	96	480	0
NMTTP	52	0	0	E	0	M1
NMTTP	52	192	0	C	0	M1
NMTTP	53	0	4	E	0	M1
NMHLD	53	192	3	288
NMTAP	53	192	4
NMTAP	54	0	2
NMHLD	54	96	2	192
NMTAP	54	192	1
NMHLD	54	288	1	192
NMTAP	55	0	0
NMHLD	55	96	0	192
NMTAP	55	192	7
NMHLD	55	288	7	96
NMHLD	56	0	6	96
NMHLD	56	96	5	96
NMHLD	56	192	4	96
NMHLD	56	288	3	96
NMSTR	57	0	2
BRSF_	57	0	2	96	192	6
NMSTR	58	0	0
NMSI_	58	0	0	96	48	4
NMTAP	58	96	5
NMTAP	58	192	3
NMTAP	58	192	5
NMTAP	58	288	2
NMTAP	58	288	4
NMSTR	59	0	1
NMSI_	59	0	1	96	48	5
NMTAP	59	0	3
NMTAP	59	96	6
NMTAP	59	192	6
NMTAP	59	192	7
NMTAP	59	288	0
NMTAP	59	288	1
NMTAP	60	0	6
NMSTR	60	0	7
NMSI_	60	0	7	96	48	3
NMTAP	60	96	4
NMTAP	60	192	2
NMTAP	60	192	4
NMTAP	60	288	3
NMTAP	60	288	5
NMTAP	61	0	4
NMSTR	61	0	6
NMSI_	61	0	6	96	48	2
NMTAP	61	96	1
NMTAP	61	192	0
NMTAP	61	192	1
NMTAP	61	288	6
NMTAP	61	288	7
NMSTR	62	0	0
NMSXR	62	0	0	96	288	5
NMTAP	62	0	1
NMTAP	62	192	3
NMSTR	63	0	4
NMSXR	63	0	4	96	288	1
NMTAP	63	192	7
NMTAP	64	0	0
NMTAP	64	96	2
NMTAP	64	96	3
NMTAP	64	192	4
NMTAP	64	192	5
NMTAP	64	288	6
NMTAP	64	288	7
NMTAP	65	0	0
NMTAP	65	48	0
NMTAP	65	96	7
NMTAP	65	144	7
NMTAP	65	192	0
NMTAP	65	192	7
BRTAP	65	288	1
BRTAP	65	288	6
NMSTR	66	0	6
NMSI_	66	0	6	96	48	4
NMTAP	66	0	7
NMTAP	66	96	3
NMTAP	66	192	3
NMSTR	66	192	4
NMSI_	66	192	4	96	48	0
NMTAP	66	288	1
NMTAP	67	0	0
NMSTR	67	0	1
NMSI_	67	0	1	96	48	3
NMTAP	67	96	4
NMSTR	67	192	3
NMSI_	67	192	3	96	48	7
NMTAP	67	192	4
NMTAP	67	288	6
NMSTR	68	0	6
NMSI_	68	0	6	96	48	4
NMSTR	68	0	7
NMSI_	68	0	7	96	48	3
NMSTR	68	192	0
NMSI_	68	192	0	96	48	4
NMSTR	68	192	1
NMSI_	68	192	1	96	48	3
NMTAP	69	0	6
NMTAP	69	0	7
NMTAP	69	96	2
NMTAP	69	96	3
NMTAP	69	192	0
NMTAP	69	192	1
NMTAP	69	288	4
NMTAP	69	288	5
NMSTR	70	0	0
NMSI_	70	0	0	96	48	4
NMSTR	70	0	5
NMSI_	70	0	5	96	48	7
NMSTR	70	192	2
NMSI_	70	192	2	96	48	0
NMSTR	70	192	7
NMSI_	70	192	7	96	48	3
NMSTR	71	0	0
NMSI_	71	0	0	96	48	4
NMSTR	71	0	5
NMSI_	71	0	5	96	48	7
NMSTR	71	192	2
NMSI_	71	192	2	96	48	0
NMSTR	71	192	7
NMSI_	71	192	7	96	48	3
NMTAP	72	0	6
NMTAP	72	0	7
NMTAP	72	96	2
NMTAP	72	96	3
NMTAP	72	192	0
NMTAP	72	192	1
NMSTR	72	288	4
NMSF_	72	288	4	96	192	0
NMTAP	72	288	5
BRTAP	73	288	2
BRTAP	73	288	6
NMSTR	74	0	3
NMSI_	74	0	3	96	48	1
NMSTR	74	0	7
NMSI_	74	0	7	96	48	5
NMSTR	74	192	0
NMSI_	74	192	0	96	48	2
NMSTR	74	192	4
NMSI_	74	192	4	96	48	6
NMSTR	75	0	3
NMSI_	75	0	3	96	48	0
NMSTR	75	0	7
NMSI_	75	0	7	96	48	4
NMSTR	75	192	0
NMSI_	75	192	0	96	48	3
NMSTR	75	192	4
NMSI_	75	192	4	96	48	7
NMSTR	76	0	3
NMSCL	76	0	3	96	48	0
NMSTR	76	0	7
NMSCL	76	0	7	96	48	4
NMSTR	76	192	0
NMSCR	76	192	0	96	48	3
NMSTR	76	192	4
NMSCR	76	192	4	96	48	7
NMSTR	77	0	3
NMSV_	77	0	3	96	48	0
NMSTR	77	0	7
NMSV_	77	0	7	96	48	4
NMSTR	77	192	0
NMSXL	77	192	0	96	480	3
NMSTR	77	192	4
NMSXL	77	192	4	96	480	7

T_REC_TAP	196
T_REC_BRK	16
T_REC_XTP	4
T_REC_BXX	0
T_REC_HLD	46
T_REC_XHO	10
T_REC_BHO	0
T_REC_BXH	0
T_REC_STR	72
T_REC_BST	3
T_REC_XST	0
T_REC_XBS	0
T_REC_TTP	8
T_REC_THO	1
T_REC_SLD	74
T_REC_BSL	1
T_REC_ALL	431
T_NUM_TAP	280
T_NUM_BRK	20
T_NUM_HLD	57
T_NUM_SLD	74
T_NUM_ALL	431
T_JUDGE_TAP	299
T_JUDGE_HLD	195
T_JUDGE_SLD	75
T_JUDGE_ALL	569
TTM_EACHPAIRS	112
TTM_SCR_TAP	140000
TTM_SCR_BRK	52000
TTM_SCR_HLD	57000
TTM_SCR_SLD	111000
TTM_SCR_ALL	360000
TTM_SCR_S	347300
TTM_SCR_SS	358000
TTM_RAT_ACV	10055

