VERSION	0.00.00	1.03.00
FES_MODE	0
BPM_DEF	174.000	174.000	174.000	174.000
MET_DEF	4	4
RESOLUTION	384
CLK_DEF	384
COMPATIBLE_CODE	MA2

BPM	0	0	174.000

HLD	1	0	4	192
TTP	1	96	1	B	0	M1
TTP	1	96	2	B	0	M1
HLD	1	192	3	96
TTP	1	288	5	B	0	M1
TTP	1	288	6	B	0	M1
TTP	2	0	0	B	0	M1
TTP	2	0	0	C	1	M1
TTP	2	0	3	B	0	M1
TTP	2	0	4	B	0	M1
TTP	2	0	7	B	0	M1
TAP	3	0	1
STR	3	0	6
SI_	3	0	6	96	48	3
TAP	3	96	2
TAP	3	144	1
STR	3	192	0
SI_	3	192	0	96	48	2
TAP	3	288	4
TAP	3	336	5
STR	4	0	6
SLL	4	0	6	96	96	0
TAP	4	72	4
TAP	4	144	0
TAP	4	192	1
TAP	4	288	0
TAP	4	288	7
TAP	5	0	1
STR	5	0	6
SCL	5	0	6	96	48	3
TAP	5	96	1
TAP	5	144	0
STR	5	192	7
SI_	5	192	7	96	48	3
TAP	5	288	4
TAP	5	336	5
TAP	6	0	6
TAP	6	48	5
TAP	6	72	4
TAP	6	96	5
TAP	6	144	2
TAP	6	168	3
TAP	6	192	2
TAP	6	240	4
TAP	6	264	3
TAP	6	288	4
TAP	6	336	2
TAP	6	336	5
STR	7	0	1
SI_	7	0	1	96	48	4
TAP	7	0	6
TAP	7	96	5
TAP	7	144	6
STR	7	192	7
SI_	7	192	7	96	48	5
TAP	7	288	3
TAP	7	336	2
STR	8	0	1
SLR	8	0	1	96	96	7
TAP	8	48	4
TAP	8	96	5
TAP	8	144	6
XTP	8	240	0
XTP	8	288	0
BST	9	0	2
SXR	9	0	2	96	240	7
BST	9	0	6
SXR	9	0	6	96	240	3
TAP	10	48	3
TAP	10	48	7
TAP	10	144	0
TAP	10	144	4
STR	10	192	0
SI_	10	192	0	96	48	3
STR	10	192	4
SI_	10	192	4	96	48	7
BRK	10	288	0
BRK	10	288	4
HLD	11	0	1	48
TAP	11	48	7
TAP	11	72	7
TAP	11	120	1
TAP	11	168	0
TAP	11	168	1
TAP	11	216	2
TAP	11	216	7
TAP	11	264	3
TAP	11	264	6
TAP	11	312	5
TAP	11	336	4
TAP	11	360	5
HLD	12	0	3	48
TAP	12	48	4
TAP	12	72	4
TAP	12	120	2
TAP	12	168	2
TAP	12	168	3
TAP	12	216	1
TAP	12	216	4
TAP	12	264	0
TAP	12	264	5
TAP	12	312	6
TAP	12	336	7
TAP	12	360	6
HLD	13	0	0	48
TAP	13	48	7
TAP	13	72	7
TAP	13	120	0
TAP	13	168	0
TAP	13	168	7
TAP	13	216	1
TAP	13	216	6
TAP	13	264	2
TAP	13	264	5
TAP	13	312	4
TAP	13	336	3
TAP	13	360	4
HLD	14	0	3	48
TAP	14	48	4
TAP	14	72	4
TAP	14	120	2
TAP	14	168	2
TAP	14	192	3
TAP	14	216	1
TAP	14	240	4
TAP	14	264	0
TAP	14	288	5
TAP	14	312	7
TAP	14	336	6
TAP	14	360	7
HLD	15	0	6	48
TAP	15	48	0
TAP	15	72	0
TAP	15	120	6
TAP	15	168	6
TAP	15	168	7
TAP	15	216	0
TAP	15	216	5
TAP	15	264	1
TAP	15	264	4
TAP	15	312	2
TAP	15	336	3
TAP	15	360	2
HLD	16	0	4	48
TAP	16	48	3
TAP	16	72	3
TAP	16	120	5
TAP	16	168	4
TAP	16	168	5
TAP	16	216	3
TAP	16	216	6
TAP	16	264	2
TAP	16	264	7
TAP	16	312	1
TAP	16	336	0
TAP	16	360	1
HLD	17	0	7	48
TAP	17	48	0
TAP	17	72	0
TAP	17	120	7
TAP	17	168	0
TAP	17	168	7
TAP	17	216	1
TAP	17	216	6
TAP	17	264	2
TAP	17	264	5
TAP	17	312	3
TAP	17	336	4
TAP	17	360	3
HLD	18	0	4	48
TAP	18	48	3
TAP	18	72	3
TAP	18	120	5
TAP	18	168	4
TAP	18	168	6
XTP	18	192	4
XTP	18	192	6
XTP	18	264	1
XTP	18	264	5
XTP	18	336	2
XTP	18	336	7
HLD	19	0	6	192
TTP	19	96	6	B	0	M1
HLD	19	192	1	192
TTP	19	288	1	B	0	M1
HLD	20	0	6	384
TTP	20	96	4	B	0	M1
TTP	20	96	5	B	0	M1
TTP	20	192	0	B	0	M1
TTP	20	192	1	B	0	M1
TTP	20	288	5	B	0	M1
TTP	20	288	6	B	0	M1
HLD	21	0	1	192
TTP	21	96	1	B	0	M1
TAP	21	192	6
HLD	21	288	6	96
TTP	22	0	0	E	0	M1
TTP	22	48	0	C	0	M1
TTP	22	96	4	E	0	M1
TTP	22	144	6	E	0	M1
TTP	22	192	2	E	0	M1
TTP	22	240	0	E	0	M1
TTP	22	288	0	C	0	M1
TTP	22	288	3	B	0	M1
TTP	22	288	4	B	0	M1
HLD	23	0	0	192
TTP	23	96	0	B	0	M1
HLD	23	192	6	192
TTP	23	288	6	B	0	M1
HLD	24	0	2	384
TTP	24	96	2	B	0	M1
TTP	24	96	3	B	0	M1
TTP	24	192	6	B	0	M1
TTP	24	192	7	B	0	M1
TTP	24	288	1	B	0	M1
TTP	24	288	2	B	0	M1
TAP	25	0	6
HLD	25	96	6	96
TTP	25	192	0	E	0	M1
TTP	25	240	0	C	0	M1
TTP	25	288	4	E	0	M1
TTP	25	336	2	E	0	M1
TTP	25	336	6	E	0	M1
TTP	26	48	0	B	0	M1
TTP	26	48	1	E	0	M1
TTP	26	48	1	B	0	M1
TTP	26	144	4	B	0	M1
TTP	26	144	5	B	0	M1
TTP	26	144	5	E	0	M1
BRK	26	240	2
BRK	26	240	6
STR	27	0	5
SLR	27	0	5	96	96	3
TAP	27	72	7
TAP	27	144	0
XTP	27	240	1
XTP	27	288	1
XTP	27	288	3
STR	28	0	2
SLL	28	0	2	96	96	4
TAP	28	72	0
TAP	28	144	7
XTP	28	240	6
XTP	28	288	4
XTP	28	288	6
TAP	29	0	5
TAP	29	48	5
TAP	29	96	3
TAP	29	144	3
TAP	29	192	4
TAP	29	240	3
TAP	29	288	2
STR	29	336	1
SCR	29	336	1	96	96	4
STR	30	48	4
SCR	30	48	4	96	96	7
STR	30	144	7
SI_	30	144	7	96	96	2
SI_	30	144	7	96	96	4
STR	31	0	1
SLR	31	0	1	96	96	7
TAP	31	72	3
TAP	31	144	4
TAP	31	240	5
TAP	31	288	5
TAP	31	288	7
STR	32	0	6
SLL	32	0	6	96	96	0
TAP	32	72	4
TAP	32	144	3
TAP	32	240	2
TAP	32	288	0
TAP	32	288	2
STR	33	0	1
SLR	33	0	1	96	144	7
STR	33	96	6
SI_	33	96	6	96	48	4
TAP	33	336	0
TAP	33	336	4
TAP	34	48	0
TAP	34	48	4
TAP	34	96	1
TAP	34	96	5
STR	34	144	2
SI_	34	144	2	96	48	5
STR	34	144	6
SI_	34	144	6	96	48	1
XTP	34	240	2
XTP	34	240	6
STR	35	0	2
SCL	35	0	2	96	48	7
TAP	35	0	6
TAP	35	96	6
TAP	35	144	5
STR	35	192	4
SI_	35	192	4	96	48	0
TAP	35	288	1
TAP	35	336	2
TAP	36	0	3
TAP	36	72	0
TAP	36	72	6
TAP	36	144	2
TAP	36	144	7
TAP	36	192	1
TAP	36	192	5
TAP	36	288	0
TAP	36	336	7
TAP	37	0	1
STR	37	0	6
SI_	37	0	6	96	48	3
TAP	37	96	6
TAP	37	96	7
TAP	37	144	0
STR	37	192	1
SI_	37	192	1	96	48	4
STR	37	240	4
SCL	37	240	4	96	48	0
TAP	37	288	1
TAP	37	336	5
TAP	38	0	5
TAP	38	48	6
TAP	38	72	7
TAP	38	96	6
TAP	38	144	1
TAP	38	168	0
TAP	38	192	1
TAP	38	240	4
TAP	38	264	3
TAP	38	288	4
TAP	38	312	3
TAP	38	336	4
TAP	39	0	1
STR	39	0	5
SCR	39	0	5	96	48	0
TAP	39	96	1
TAP	39	144	2
STR	39	192	3
SI_	39	192	3	96	48	7
TAP	39	288	6
TAP	39	336	5
TAP	40	0	4
TAP	40	48	0
TAP	40	48	7
TAP	40	96	1
TAP	40	96	6
TAP	40	144	2
TAP	40	144	5
TAP	40	240	0
TAP	40	240	7
TAP	40	288	5
TAP	40	336	2
TAP	40	336	4
STR	41	0	0
SI_	41	0	0	96	48	2
STR	41	48	7
SI_	41	48	7	96	48	3
STR	41	96	0
SI_	41	96	0	96	48	4
STR	41	144	7
SI_	41	144	7	96	48	5
STR	41	192	0
SI_	41	192	0	96	48	3
STR	41	240	7
SCL	41	240	7	96	144	1
TAP	41	288	0
TAP	41	336	7
XTP	42	48	0
XTP	42	96	0
STR	42	192	6
SI_	42	192	6	96	48	3
STR	42	192	7
SI_	42	192	7	96	48	2
BRK	42	288	6
BRK	42	288	7
TAP	43	0	1
STR	43	0	5
SCR	43	0	5	96	48	0
TAP	43	96	1
TAP	43	144	2
STR	43	192	3
SI_	43	192	3	96	48	7
TAP	43	288	6
TAP	43	336	5
TAP	44	0	4
TAP	44	72	1
TAP	44	72	7
TAP	44	144	0
TAP	44	144	5
TAP	44	192	2
TAP	44	192	6
TAP	44	288	0
TAP	44	336	7
STR	45	0	1
SI_	45	0	1	96	48	4
TAP	45	0	6
TAP	45	96	0
TAP	45	96	1
TAP	45	144	7
STR	45	192	6
SI_	45	192	6	96	48	3
STR	45	240	3
SCR	45	240	3	96	48	7
TAP	45	288	6
TAP	45	336	2
TAP	46	0	2
TAP	46	48	1
TAP	46	72	0
TAP	46	96	1
TAP	46	144	6
TAP	46	168	7
TAP	46	192	6
TAP	46	240	3
TAP	46	264	4
TAP	46	288	3
TAP	46	312	4
TAP	46	336	3
STR	47	0	2
SCL	47	0	2	96	48	7
TAP	47	0	6
TAP	47	96	6
TAP	47	144	5
STR	47	192	4
SI_	47	192	4	96	48	0
TAP	47	288	1
TAP	47	336	2
TAP	48	0	3
TAP	48	48	1
TAP	48	48	6
TAP	48	96	0
TAP	48	96	7
TAP	48	144	2
TAP	48	144	5
TAP	48	240	0
TAP	48	240	7
TAP	48	288	2
TAP	48	336	3
TAP	48	336	5
STR	49	0	7
SI_	49	0	7	96	48	5
STR	49	48	0
SI_	49	48	0	96	48	4
STR	49	96	7
SI_	49	96	7	96	48	3
STR	49	144	0
SI_	49	144	0	96	48	2
STR	49	192	7
SI_	49	192	7	96	48	4
STR	49	240	0
SCR	49	240	0	96	144	6
TAP	49	288	7
TAP	49	336	0
XTP	50	48	7
XTP	50	96	7
STR	50	192	0
SI_	50	192	0	96	48	5
STR	50	192	1
SI_	50	192	1	96	48	4
BRK	50	288	0
BRK	50	288	1
XTP	51	0	3
XHO	51	0	7	48
TAP	51	72	2
HLD	51	96	7	48
TAP	51	144	3
XHO	51	192	7	48
TAP	51	240	0
TAP	51	288	1
HLD	51	288	7	48
TAP	51	336	0
XTP	52	0	3
XHO	52	0	7	48
TAP	52	72	2
HLD	52	96	7	48
TAP	52	144	3
XHO	52	192	7	48
TAP	52	240	0
TAP	52	288	1
HLD	52	288	7	48
TAP	52	336	0
XTP	53	0	3
XHO	53	0	7	48
TAP	53	72	2
HLD	53	96	7	48
TAP	53	144	3
XHO	53	192	7	48
TAP	53	240	0
TAP	53	288	1
HLD	53	288	7	48
TAP	53	336	0
STR	54	0	1
SI_	54	0	1	96	48	4
TAP	54	0	7
TAP	54	96	1
TAP	54	96	7
STR	54	192	3
SI_	54	192	3	96	48	1
BST	54	192	6
SCL	54	192	6	96	48	3
TAP	54	288	3
BRK	54	288	6
XHO	55	0	0	48
XTP	55	0	4
TAP	55	72	5
HLD	55	96	0	48
TAP	55	144	4
XHO	55	192	0	48
TAP	55	240	7
HLD	55	288	0	48
TAP	55	288	6
TAP	55	336	7
XHO	56	0	0	48
XTP	56	0	4
TAP	56	72	5
HLD	56	96	0	48
TAP	56	144	4
XHO	56	192	0	48
TAP	56	240	7
HLD	56	288	0	48
TAP	56	288	6
TAP	56	336	7
XHO	57	0	0	48
XTP	57	0	4
TAP	57	72	5
HLD	57	96	0	48
TAP	57	144	4
XHO	57	192	0	48
TAP	57	240	7
HLD	57	288	0	48
TAP	57	288	6
TAP	57	336	7
TAP	58	0	0
STR	58	0	6
SI_	58	0	6	96	48	3
TAP	58	96	0
TAP	58	96	6
BST	58	192	1
SCR	58	192	1	96	48	4
STR	58	192	4
SI_	58	192	4	96	48	6
BRK	58	288	1
TAP	58	288	4
XTP	59	0	0
XTP	59	0	7
TTP	59	96	3	E	0	M1
TTP	59	96	3	B	0	M1
TTP	59	96	4	B	0	M1
TTP	59	96	5	E	0	M1
XTP	59	192	0
XTP	59	192	1
TTP	59	288	4	B	0	M1
TTP	59	288	4	E	0	M1
TTP	59	288	5	B	0	M1
TTP	59	288	6	E	0	M1
XTP	60	0	0
XTP	60	0	7
TTP	60	96	3	B	0	M1
TTP	60	96	3	E	0	M1
TTP	60	96	4	B	0	M1
TTP	60	96	5	E	0	M1
XTP	60	192	6
XTP	60	192	7
TTP	60	288	2	E	0	M1
TTP	60	288	2	B	0	M1
TTP	60	288	3	B	0	M1
TTP	60	288	4	E	0	M1
TTP	61	0	7	E	0	M1
TTP	61	48	6	E	0	M1
TTP	61	96	5	E	0	M1
TTP	61	144	4	E	0	M1
TTP	61	192	1	E	0	M1
TTP	61	240	2	E	0	M1
TTP	61	288	3	E	0	M1
TTP	61	336	4	E	0	M1
TTP	62	0	7	E	0	M1
TTP	62	24	6	B	0	M1
TTP	62	48	5	B	0	M1
TTP	62	72	5	E	0	M1
TTP	62	96	1	E	0	M1
TTP	62	120	1	B	0	M1
TTP	62	144	2	B	0	M1
TTP	62	168	3	E	0	M1
TTP	62	192	6	E	0	M1
TTP	62	216	5	B	0	M1
TTP	62	240	4	B	0	M1
TTP	62	264	4	E	0	M1
TTP	62	288	0	E	0	M1
TTP	62	312	0	B	0	M1
TTP	62	336	1	B	0	M1
TTP	62	360	2	E	0	M1
HLD	63	0	6	384
TAP	63	192	4
HLD	64	0	2	384
TAP	64	192	3
HLD	65	0	5	384
TAP	65	192	4
HLD	66	0	1	384
TAP	66	192	2
HLD	67	0	5	384
TAP	67	96	4
TAP	67	192	3
TAP	67	288	4
HLD	68	0	1	384
TAP	68	96	3
TAP	68	192	4
TAP	68	288	3
STR	69	0	6
SLL	69	0	6	96	144	0
STR	69	96	1
SI_	69	96	1	96	48	3
TAP	69	336	0
TAP	69	336	4
TAP	70	48	3
TAP	70	48	7
TAP	70	96	2
TAP	70	96	6
STR	70	144	1
SI_	70	144	1	96	48	6
STR	70	144	5
SI_	70	144	5	96	48	2
BRK	70	240	1
BRK	70	240	5
TAP	71	0	0
STR	71	0	4
SI_	71	0	4	96	48	7
TAP	71	96	0
TAP	71	96	4
TAP	71	144	1
TAP	71	192	0
STR	71	192	2
SCR	71	192	2	96	48	5
TAP	71	288	0
TAP	71	288	2
TAP	71	336	7
TAP	72	0	0
TAP	72	0	6
TAP	72	72	3
TAP	72	72	5
TAP	72	144	0
TAP	72	144	1
XTP	72	192	2
XTP	72	192	7
TAP	72	288	3
TAP	72	336	4
TAP	73	0	1
STR	73	0	6
SCL	73	0	6	96	48	3
TAP	73	96	1
TAP	73	96	6
TAP	73	144	0
STR	73	192	7
SI_	73	192	7	96	48	2
STR	73	240	3
SI_	73	240	3	96	48	6
TAP	73	288	7
TAP	73	336	3
TAP	74	0	1
TAP	74	48	2
TAP	74	72	3
TAP	74	96	2
TAP	74	144	5
TAP	74	168	4
TAP	74	192	5
TAP	74	240	0
TAP	74	264	4
TAP	74	288	1
TAP	74	312	5
TAP	74	336	2
STR	75	0	3
SI_	75	0	3	96	48	0
TAP	75	0	7
TAP	75	96	3
TAP	75	96	7
TAP	75	144	6
STR	75	192	5
SCL	75	192	5	96	48	2
TAP	75	192	7
TAP	75	288	5
TAP	75	288	7
TAP	75	336	0
TAP	76	0	1
TAP	76	48	2
TAP	76	48	3
TAP	76	96	0
TAP	76	96	7
XTP	76	144	1
XTP	76	144	6
STR	76	240	0
SI_	76	240	0	96	48	4
STR	76	288	6
SI_	76	288	6	96	48	4
STR	76	336	0
SI_	76	336	0	96	48	2
STR	77	0	6
SI_	77	0	6	96	48	2
STR	77	48	0
SI_	77	48	0	96	48	3
STR	77	96	6
SI_	77	96	6	96	48	3
STR	77	144	0
SI_	77	144	0	96	48	4
STR	77	192	6
SI_	77	192	6	96	48	2
STR	77	240	0
SCR	77	240	0	96	144	6
TAP	77	288	6
TAP	77	336	0
XTP	78	48	7
XTP	78	96	7
STR	78	192	1
SI_	78	192	1	96	48	4
STR	78	192	5
SI_	78	192	5	96	48	0
XTP	78	288	1
XTP	78	288	5
STR	79	0	3
SI_	79	0	3	96	48	0
TAP	79	0	7
TAP	79	96	3
TAP	79	96	7
TAP	79	144	6
STR	79	192	5
SCL	79	192	5	96	48	2
TAP	79	192	7
TAP	79	288	5
TAP	79	288	7
TAP	79	336	0
TAP	80	0	1
TAP	80	0	7
TAP	80	72	2
TAP	80	72	4
TAP	80	144	6
TAP	80	144	7
XTP	80	192	0
XTP	80	192	5
TAP	80	288	4
TAP	80	336	3
STR	81	0	1
SCR	81	0	1	96	48	4
TAP	81	0	6
TAP	81	96	1
TAP	81	96	6
TAP	81	144	7
STR	81	192	0
SI_	81	192	0	96	48	5
STR	81	240	4
SI_	81	240	4	96	48	1
TAP	81	288	0
TAP	81	336	4
TAP	82	0	6
TAP	82	48	5
TAP	82	72	4
TAP	82	96	5
TAP	82	144	2
TAP	82	168	3
TAP	82	192	2
TAP	82	240	7
TAP	82	264	3
TAP	82	288	6
TAP	82	312	2
TAP	82	336	5
TAP	83	0	0
STR	83	0	4
SI_	83	0	4	96	48	7
TAP	83	96	0
TAP	83	96	4
TAP	83	144	1
TAP	83	192	0
STR	83	192	2
SCR	83	192	2	96	48	5
TAP	83	288	0
TAP	83	288	2
TAP	83	336	7
TAP	84	0	6
TAP	84	48	0
TAP	84	48	7
TAP	84	96	1
TAP	84	96	6
BRK	84	144	2
BRK	84	144	5
XTP	84	240	0
XTP	84	288	0
BRK	85	0	1
BRK	85	0	7
BRK	85	48	2
BRK	85	48	3
BRK	85	96	0
BRK	85	96	6
BRK	85	144	4
BRK	85	144	5
BRK	85	192	0
BRK	85	192	7
BST	85	240	3
SCL	85	240	3	96	144	4
BST	85	240	4
SCR	85	240	4	96	144	3
BRK	85	288	0
BRK	85	288	7
BRK	85	336	3
BRK	85	336	4
STR	86	192	1
SI_	86	192	1	96	48	3
STR	86	192	4
SI_	86	192	4	96	48	0
BRK	86	288	1
BRK	86	288	4
XTP	87	0	4
XHO	87	0	7	48
TAP	87	72	3
HLD	87	96	7	48
TAP	87	144	4
XHO	87	192	7	48
TAP	87	240	0
TAP	87	288	1
HLD	87	288	7	48
TAP	87	336	0
XTP	88	0	4
XHO	88	0	7	48
TAP	88	72	3
HLD	88	96	7	48
TAP	88	144	4
XHO	88	192	7	48
TAP	88	240	0
TAP	88	288	1
HLD	88	288	7	48
TAP	88	336	0
XTP	89	0	4
XHO	89	0	7	48
TAP	89	72	3
HLD	89	96	7	48
TAP	89	144	4
XHO	89	192	7	48
TAP	89	240	0
TAP	89	288	1
HLD	89	288	7	48
TAP	89	336	0
STR	90	0	1
SI_	90	0	1	96	48	4
TAP	90	0	7
TAP	90	96	1
TAP	90	96	7
STR	90	192	3
SI_	90	192	3	96	48	1
BST	90	192	6
SCL	90	192	6	96	48	3
TAP	90	288	3
BRK	90	288	6
XHO	91	0	0	48
XTP	91	0	3
TAP	91	72	4
HLD	91	96	0	48
TAP	91	144	3
XHO	91	192	0	48
TAP	91	240	7
HLD	91	288	0	48
TAP	91	288	6
TAP	91	336	7
XHO	92	0	0	48
XTP	92	0	3
TAP	92	72	4
HLD	92	96	0	48
TAP	92	144	3
XHO	92	192	0	48
TAP	92	240	7
HLD	92	288	0	48
TAP	92	288	6
TAP	92	336	7
XHO	93	0	0	48
XTP	93	0	3
TAP	93	72	4
HLD	93	96	0	48
TAP	93	144	3
XHO	93	192	0	48
TAP	93	240	7
HLD	93	288	0	48
TAP	93	288	6
TAP	93	336	7
TAP	94	0	0
STR	94	0	6
SI_	94	0	6	96	48	3
TAP	94	96	0
TAP	94	96	6
BST	94	192	1
SCR	94	192	1	96	48	4
STR	94	192	4
SI_	94	192	4	96	48	6
BRK	94	288	1
TAP	94	288	4
TAP	95	0	0
TAP	95	0	7
TAP	95	48	2
TAP	95	72	3
TAP	95	96	2
TAP	95	144	1
TAP	95	144	4
TTP	95	192	0	E	0	M1
TTP	95	192	6	E	0	M1
TTP	95	240	3	E	0	M1
TTP	95	288	0	C	0	M1
TTP	95	336	7	E	0	M1
TAP	96	0	1
TAP	96	24	0
TAP	96	48	1
TAP	96	72	0
TAP	96	96	1
TAP	96	144	2
TAP	96	144	7
TTP	96	192	4	E	0	M1
TTP	96	192	6	E	0	M1
TTP	96	240	1	E	0	M1
TTP	96	288	0	C	0	M1
TTP	96	336	5	E	0	M1
STR	97	0	0
SI_	97	0	0	96	48	2
STR	97	48	7
SI_	97	48	7	96	48	5
TAP	97	96	0
TAP	97	144	7
TTP	97	192	0	E	0	M1
TTP	97	240	0	C	0	M1
TTP	97	288	4	E	0	M1
TTP	97	336	2	E	0	M1
TTP	97	336	6	E	0	M1
TAP	98	0	7
TAP	98	24	6
TAP	98	48	5
TAP	98	72	4
TAP	98	96	3
TAP	98	120	2
TAP	98	144	1
TAP	98	168	0
XTP	98	192	3
XTP	98	192	7
TTP	98	288	0	C	1	M1
TTP	98	288	2	B	0	M1
TTP	98	288	5	B	0	M1
TAP	99	0	0
TAP	99	24	7
TAP	99	48	0
TAP	99	72	7
TAP	99	96	0
TAP	99	144	1
TAP	99	144	6
TTP	99	192	3	E	0	M1
TTP	99	192	5	E	0	M1
TTP	99	240	0	E	0	M1
TTP	99	288	0	C	0	M1
TTP	99	336	4	E	0	M1
TAP	100	0	6
TAP	100	24	7
TAP	100	48	6
TAP	100	72	7
TAP	100	96	6
TAP	100	144	0
TAP	100	144	5
TTP	100	192	3	E	0	M1
TTP	100	192	5	E	0	M1
TTP	100	240	2	E	0	M1
TTP	100	288	0	C	0	M1
TTP	100	336	6	E	0	M1
TAP	101	0	1
TAP	101	24	0
TAP	101	48	1
TAP	101	72	0
TAP	101	96	1
TAP	101	144	2
TAP	101	144	7
TTP	101	192	3	E	0	M1
TTP	101	192	5	E	0	M1
TTP	101	240	0	E	0	M1
TTP	101	288	0	C	0	M1
TTP	101	336	4	E	0	M1
TAP	102	0	0
TAP	102	24	7
TAP	102	48	0
TAP	102	72	7
TAP	102	96	1
TAP	102	120	6
TAP	102	144	1
TAP	102	168	6
TAP	102	192	1
TAP	102	216	2
TAP	102	240	3
TAP	102	264	4
STR	102	288	5
SI_	102	288	5	96	48	1
TAP	102	312	6
TAP	102	336	7
TAP	102	360	0
BRK	103	0	1
BRK	103	0	5
TTP	103	24	0	C	1	M1

T_REC_TAP	507
T_REC_BRK	34
T_REC_XTP	54
T_REC_HLD	49
T_REC_XHO	24
T_REC_STR	93
T_REC_BST	8
T_REC_XST	0
T_REC_TTP	120
T_REC_THO	0
T_REC_SLD	102
T_REC_ALL	991
T_NUM_TAP	774
T_NUM_BRK	42
T_NUM_HLD	73
T_NUM_SLD	102
T_NUM_ALL	991
T_JUDGE_TAP	816
T_JUDGE_HLD	150
T_JUDGE_SLD	102
T_JUDGE_ALL	1068
TTM_EACHPAIRS	173
TTM_SCR_TAP	387000
TTM_SCR_BRK	109200
TTM_SCR_HLD	73000
TTM_SCR_SLD	153000
TTM_SCR_ALL	722200
TTM_SCR_S	696500
TTM_SCR_SS	718000
TTM_RAT_ACV	10058

