VERSION	0.00.00	1.03.00
FES_MODE	0
BPM_DEF	174.000	174.000	174.000	174.000
MET_DEF	4	4
RESOLUTION	384
CLK_DEF	384
COMPATIBLE_CODE	MA2

BPM	0	0	174.000
MET	0	0	4	4

HLD	1	0	0	96
HLD	1	0	7	96
HLD	1	192	1	96
HLD	1	192	6	96
TAP	2	0	3
TAP	2	48	4
TAP	2	96	3
TAP	2	192	3
TAP	2	192	4
TAP	2	288	2
TAP	2	288	5
HLD	3	0	6	96
TAP	3	96	0
HLD	3	192	1	96
TAP	3	288	7
STR	4	0	6
SCL	4	0	6	96	96	3
TAP	4	288	1
TAP	5	0	2
TAP	5	0	3
TAP	5	96	1
TAP	5	96	4
TAP	5	192	4
TAP	5	192	5
TAP	5	288	3
TAP	5	288	6
STR	6	0	1
SCR	6	0	1	96	96	6
TAP	6	288	0
TAP	6	288	7
HLD	7	0	5	96
TAP	7	96	0
HLD	7	192	2	96
TAP	7	288	7
STR	8	0	4
SF_	8	0	4	96	96	0
THO	9	0	0	336	C	1	M1
TTP	9	0	1	B	0	M1
TTP	9	0	2	B	0	M1
TTP	9	0	5	B	0	M1
TTP	9	0	6	B	0	M1
BRK	10	192	0
BRK	10	192	7
BRK	10	288	1
BRK	10	288	6
TAP	11	0	1
TAP	11	96	0
TAP	11	96	2
TAP	11	192	3
TAP	11	240	5
TAP	11	288	4
TAP	12	0	6
TAP	12	96	5
TAP	12	96	7
TAP	12	192	4
TAP	12	240	2
TAP	12	288	3
TAP	13	0	1
TAP	13	48	0
TAP	13	96	1
TAP	13	192	6
TAP	13	240	7
TAP	13	288	6
TAP	14	0	0
TAP	14	48	7
TAP	14	96	0
TAP	14	144	7
STR	14	192	0
SI_	14	192	0	96	48	4
TAP	14	288	7
TAP	15	0	6
TAP	15	96	5
TAP	15	96	7
TAP	15	192	4
TAP	15	240	2
TAP	15	288	1
TAP	15	288	3
TAP	16	0	1
TAP	16	96	0
TAP	16	96	2
TAP	16	192	3
TAP	16	240	5
TAP	16	288	4
TAP	16	288	6
TAP	17	0	6
TAP	17	48	7
TAP	17	96	0
TAP	17	96	6
TAP	17	192	1
TAP	17	240	0
TAP	17	288	1
TAP	17	288	7
STR	18	0	0
SI_	18	0	0	96	48	4
STR	18	0	7
SI_	18	0	7	96	48	3
XTP	18	192	2
XTP	18	192	5
TAP	19	0	5
TAP	19	96	4
TAP	19	96	5
TAP	19	192	4
TAP	19	288	3
TAP	19	288	5
TAP	20	0	2
TAP	20	96	2
TAP	20	96	3
TAP	20	192	3
TAP	20	288	2
TAP	20	288	4
TAP	21	0	5
TAP	21	96	4
TAP	21	96	6
TAP	21	192	2
TAP	21	288	1
TAP	21	288	3
TAP	22	0	0
TAP	22	48	7
TAP	22	96	0
TAP	22	192	4
TAP	22	240	3
TAP	22	288	4
TAP	23	0	6
TAP	23	96	6
TAP	23	96	7
TAP	23	192	7
TAP	23	288	0
TAP	23	288	6
TAP	24	0	1
TAP	24	96	0
TAP	24	96	1
TAP	24	192	0
TAP	24	288	1
TAP	24	288	7
TAP	25	0	0
TAP	25	0	7
TAP	25	96	1
TAP	25	96	6
TAP	25	192	3
TAP	25	240	4
TAP	25	288	2
HLD	25	336	5	288
TTP	26	48	4	E	0	M1
TTP	26	144	0	C	0	M1
TTP	26	240	0	E	0	M1
STR	27	0	6
SCL	27	0	6	96	96	3
XTP	27	240	0
XTP	27	288	0
STR	28	0	1
SCR	28	0	1	96	96	4
XTP	28	240	7
XTP	28	288	7
HLD	29	0	6	240
TAP	29	96	0
TAP	29	192	4
TAP	29	240	4
TTP	29	336	6	B	0	M1
TTP	29	336	7	B	0	M1
TTP	29	336	7	E	0	M1
TTP	30	48	1	B	0	M1
TTP	30	48	2	B	0	M1
TTP	30	48	2	E	0	M1
TTP	30	144	4	B	0	M1
TTP	30	144	5	B	0	M1
TTP	30	144	5	E	0	M1
TTP	30	240	0	B	0	M1
TTP	30	240	1	B	0	M1
TTP	30	240	1	E	0	M1
STR	31	0	5
SCR	31	0	5	96	96	0
XTP	31	240	3
XTP	31	288	3
STR	32	0	2
SCL	32	0	2	96	96	7
XTP	32	240	4
XTP	32	288	4
TAP	33	0	3
TAP	33	0	4
TAP	33	96	1
TAP	33	96	6
STR	33	192	2
SLR	33	192	2	96	192	7
STR	33	192	5
SLL	33	192	5	96	192	0
TTP	34	240	0	C	1	M1
TAP	35	0	0
STR	35	0	1
SI_	35	0	1	96	48	4
STR	35	192	6
SI_	35	192	6	96	48	3
TAP	35	192	7
HLD	36	0	1	72
HLD	36	72	7	72
TAP	36	144	0
TAP	36	192	1
TAP	36	192	6
TAP	36	288	0
TAP	36	288	7
STR	37	0	0
SUR	37	0	0	96	48	4
TAP	37	96	6
STR	37	192	7
SUL	37	192	7	96	48	3
TAP	37	288	1
HLD	38	0	0	96
HLD	38	96	2	96
HLD	38	192	4	96
TAP	38	288	6
TAP	39	0	4
STR	39	0	5
SI_	39	0	5	96	48	0
STR	39	192	2
SI_	39	192	2	96	48	7
TAP	39	192	3
TAP	40	0	6
TAP	40	48	0
TAP	40	96	7
HLD	40	144	1	144
TAP	40	240	6
STR	40	288	6
SI_	40	288	6	96	48	3
STR	41	0	7
SI_	41	0	7	96	48	2
STR	41	96	6
SI_	41	96	6	96	48	3
STR	41	192	7
SI_	41	192	7	96	48	2
STR	41	288	6
SCL	41	288	6	96	192	1
HLD	42	0	0	192
BRK	42	288	0
BRK	42	288	7
STR	43	0	6
SI_	43	0	6	96	48	3
TAP	43	0	7
TAP	43	192	0
STR	43	192	1
SI_	43	192	1	96	48	4
HLD	44	0	6	72
HLD	44	72	0	72
TAP	44	144	7
TAP	44	192	1
TAP	44	192	6
TAP	44	288	0
TAP	44	288	7
STR	45	0	7
SUL	45	0	7	96	48	3
TAP	45	96	1
STR	45	192	0
SUR	45	192	0	96	48	4
TAP	45	288	6
HLD	46	0	7	96
HLD	46	96	5	96
HLD	46	192	3	96
TAP	46	288	1
STR	47	0	2
SI_	47	0	2	96	48	7
TAP	47	0	3
TAP	47	192	4
STR	47	192	5
SI_	47	192	5	96	48	0
TAP	48	0	1
TAP	48	48	7
TAP	48	96	0
HLD	48	144	6	144
TAP	48	240	0
TAP	48	288	0
STR	49	0	0
SI_	49	0	0	96	48	4
STR	49	0	6
SI_	49	0	6	96	48	4
STR	49	192	1
SI_	49	192	1	96	48	3
STR	49	192	7
SI_	49	192	7	96	48	3
TAP	50	0	0
TAP	50	48	7
TAP	50	96	1
TAP	50	144	6
TAP	50	192	0
TAP	50	192	7
TAP	50	288	1
TAP	50	288	6
HLD	51	0	2	192
TTP	51	96	0	C	0	M1
HLD	51	192	4	192
TTP	51	288	0	E	0	M1
HLD	52	0	2	192
TTP	52	96	0	C	0	M1
HLD	52	192	4	192
TTP	52	288	0	E	0	M1
HLD	53	0	2	192
TTP	53	96	0	C	0	M1
HLD	53	192	4	192
TTP	53	288	0	E	0	M1
STR	54	0	2
SI_	54	0	2	96	48	7
BRK	54	192	5
BRK	54	288	2
BRK	54	288	7
HLD	55	0	5	192
TTP	55	96	0	C	0	M1
HLD	55	192	3	192
TTP	55	288	0	E	0	M1
HLD	56	0	5	192
TTP	56	96	0	C	0	M1
HLD	56	192	3	192
TTP	56	288	0	E	0	M1
HLD	57	0	5	192
TTP	57	96	0	C	0	M1
HLD	57	192	3	192
TTP	57	288	0	E	0	M1
STR	58	0	5
SI_	58	0	5	96	48	0
BRK	58	192	2
BRK	58	288	0
BRK	58	288	5
HLD	59	0	4	1440
TTP	59	96	0	B	0	M1
TTP	59	288	1	B	0	M1
TTP	60	96	2	B	0	M1
TTP	60	288	3	B	0	M1
TTP	61	96	4	B	0	M1
TTP	61	288	5	B	0	M1
TTP	62	96	6	B	0	M1
TTP	62	288	7	B	0	M1
HLD	63	0	0	384
TAP	63	192	1
HLD	64	0	6	384
TAP	64	192	5
HLD	65	0	2	384
TAP	65	192	3
HLD	66	0	4	192
TAP	66	192	3
TAP	67	0	5
TAP	67	48	4
TAP	67	96	5
TAP	67	192	2
TAP	67	240	3
TAP	67	288	2
TAP	68	0	5
TAP	68	48	4
TAP	68	96	6
TAP	68	192	2
TAP	68	240	3
TAP	68	288	1
TAP	69	0	2
TAP	69	0	6
TAP	69	96	0
TAP	69	96	4
STR	69	192	1
SLR	69	192	1	96	192	0
STR	69	192	6
SLL	69	192	6	96	192	7
TTP	70	240	0	C	1	M1
STR	71	0	6
SI_	71	0	6	96	48	2
STR	71	0	7
SI_	71	0	7	96	48	3
STR	71	192	0
SI_	71	192	0	96	48	4
STR	71	192	1
SI_	71	192	1	96	48	5
HLD	72	0	6	72
HLD	72	72	0	72
TAP	72	144	7
TAP	72	192	1
TAP	72	192	6
TAP	72	288	7
STR	73	0	6
SUL	73	0	6	96	48	2
TAP	73	96	0
STR	73	192	1
SUR	73	192	1	96	48	5
TAP	73	288	7
HLD	74	0	7	96
HLD	74	96	5	96
HLD	74	192	3	96
TAP	74	288	1
STR	75	0	2
SI_	75	0	2	96	48	7
STR	75	0	3
SI_	75	0	3	96	48	7
STR	75	192	4
SI_	75	192	4	96	48	0
STR	75	192	5
SI_	75	192	5	96	48	0
TAP	76	0	1
TAP	76	48	7
TAP	76	96	0
HLD	76	144	6	144
TAP	76	240	1
STR	76	288	1
SI_	76	288	1	96	48	4
XST	77	0	5
SI_	77	0	5	96	48	0
XST	77	96	2
SI_	77	96	2	96	48	7
XST	77	192	6
SI_	77	192	6	96	48	3
XST	77	288	1
SCR	77	288	1	96	192	6
XHO	78	0	7	192
TAP	78	288	1
TAP	78	288	6
STR	79	0	0
SI_	79	0	0	96	48	4
STR	79	0	1
SI_	79	0	1	96	48	5
STR	79	192	6
SI_	79	192	6	96	48	2
STR	79	192	7
SI_	79	192	7	96	48	3
HLD	80	0	1	72
HLD	80	72	7	72
TAP	80	144	0
TAP	80	192	1
TAP	80	192	6
TAP	80	288	0
STR	81	0	1
SUR	81	0	1	96	48	5
TAP	81	96	7
STR	81	192	6
SUL	81	192	6	96	48	2
TAP	81	288	0
HLD	82	0	0	96
HLD	82	96	2	96
HLD	82	192	4	96
TAP	82	288	6
STR	83	0	4
SI_	83	0	4	96	48	0
STR	83	0	5
SI_	83	0	5	96	48	0
STR	83	192	2
SI_	83	192	2	96	48	7
STR	83	192	3
SI_	83	192	3	96	48	7
TAP	84	0	6
TAP	84	48	0
TAP	84	96	7
HLD	84	144	1	144
XTP	84	240	7
XTP	84	288	7
BRK	85	0	0
BRK	85	48	1
BRK	85	96	2
BRK	85	144	3
BRK	85	192	4
BRK	85	240	5
BRK	85	288	6
BRK	85	336	7
TTP	86	192	0	C	1	M1
TTP	86	192	4	B	0	M1
TTP	86	192	5	E	0	M1
TTP	86	192	5	B	0	M1
TTP	86	192	6	B	0	M1
TTP	86	192	7	E	0	M1
HLD	87	0	1	192
TTP	87	96	0	C	0	M1
HLD	87	192	3	192
TTP	87	288	0	E	0	M1
HLD	88	0	2	192
TTP	88	96	0	C	0	M1
HLD	88	192	4	192
TTP	88	288	0	E	0	M1
HLD	89	0	3	192
TTP	89	96	0	C	0	M1
HLD	89	192	5	192
TTP	89	288	0	E	0	M1
STR	90	0	4
SI_	90	0	4	96	48	0
BRK	90	192	7
BRK	90	288	0
BRK	90	288	6
HLD	91	0	6	192
TTP	91	96	0	C	0	M1
HLD	91	192	4	192
TTP	91	288	0	E	0	M1
HLD	92	0	5	192
TTP	92	96	0	C	0	M1
HLD	92	192	3	192
TTP	92	288	0	E	0	M1
HLD	93	0	4	192
TTP	93	96	0	C	0	M1
HLD	93	192	2	192
TTP	93	288	0	E	0	M1
STR	94	0	3
SI_	94	0	3	96	48	7
BRK	94	192	0
BRK	94	288	1
BRK	94	288	7
TAP	95	0	4
TAP	95	0	5
TAP	95	96	2
TAP	95	96	3
TAP	95	192	4
TAP	95	240	3
TAP	95	288	4
TAP	96	0	2
TAP	96	48	2
TAP	96	96	4
TAP	96	144	4
TAP	96	192	3
TAP	96	240	3
TAP	96	288	5
TAP	97	0	6
TAP	97	0	7
TAP	97	96	0
TAP	97	96	1
TAP	97	192	7
TAP	97	240	0
TAP	97	288	6
TAP	97	336	1
THO	98	0	0	192	C	1	M1
TAP	99	0	1
TAP	99	96	2
TAP	99	96	7
TAP	99	192	3
TAP	99	240	3
TAP	99	288	7
TAP	99	336	7
TAP	100	0	6
TAP	100	96	0
TAP	100	96	5
TAP	100	192	4
TAP	100	240	4
TAP	100	288	0
TAP	100	336	0
TAP	101	0	1
TAP	101	96	2
TAP	101	96	7
TAP	101	192	3
TAP	101	240	3
TAP	101	288	7
TAP	101	336	7
TAP	102	0	2
TAP	102	48	6
TAP	102	96	1
TAP	102	144	5
STR	102	192	0
SI_	102	192	0	96	48	3
STR	102	192	4
SI_	102	192	4	96	48	7
BRK	103	0	2
BRK	103	0	6

T_REC_TAP	248
T_REC_BRK	28
T_REC_XTP	12
T_REC_HLD	64
T_REC_XHO	1
T_REC_STR	62
T_REC_BST	0
T_REC_XST	4
T_REC_TTP	59
T_REC_THO	2
T_REC_SLD	66
T_REC_ALL	546
T_NUM_TAP	385
T_NUM_BRK	28
T_NUM_HLD	67
T_NUM_SLD	66
T_NUM_ALL	546
T_JUDGE_TAP	413
T_JUDGE_HLD	252
T_JUDGE_SLD	66
T_JUDGE_ALL	731
TTM_EACHPAIRS	80
TTM_SCR_TAP	192500
TTM_SCR_BRK	72800
TTM_SCR_HLD	67000
TTM_SCR_SLD	99000
TTM_SCR_ALL	431300
TTM_SCR_S	415650
TTM_SCR_SS	428500
TTM_RAT_ACV	10065

