VERSION	0.00.00	1.03.00
FES_MODE	0
BPM_DEF	174.000	174.000	174.000	174.000
MET_DEF	4	4
RESOLUTION	384
CLK_DEF	384
COMPATIBLE_CODE	MA2

BPM	0	0	174.000

TAP	1	0	5
TAP	1	96	4
TAP	1	192	2
TAP	1	288	3
STR	2	0	3
SI_	2	0	3	96	144	0
STR	2	0	4
SI_	2	0	4	96	144	7
TAP	3	0	6
TAP	3	96	6
TAP	3	192	0
TAP	3	192	6
TAP	3	288	0
TAP	3	288	6
TAP	4	0	7
TAP	4	96	0
TAP	4	96	7
XTP	4	192	1
XTP	4	192	6
TAP	5	0	2
TAP	5	96	3
TAP	5	192	5
TAP	5	288	4
TAP	6	0	2
TAP	6	0	3
TAP	6	96	2
TAP	6	96	3
XTP	6	192	1
XTP	6	192	4
TAP	7	0	1
TAP	7	96	1
TAP	7	192	1
TAP	7	192	7
TAP	7	288	1
TAP	7	288	7
TAP	8	0	0
TAP	8	96	0
TAP	8	96	7
XTP	8	192	1
XTP	8	192	6
TAP	9	0	7
TAP	9	96	7
TAP	9	192	0
TAP	9	288	0
TAP	9	288	7
BRK	10	0	1
BRK	10	0	6
XTP	10	192	0
XTP	10	288	0
TAP	11	0	7
TAP	11	96	6
TAP	11	192	5
TAP	11	288	4
TAP	12	0	3
TAP	12	96	2
TAP	12	192	1
TAP	12	288	0
TAP	13	0	0
TAP	13	96	1
TAP	13	192	2
TAP	13	288	3
TAP	14	0	4
TAP	14	96	3
TAP	14	96	4
XTP	14	192	2
XTP	14	192	5
TAP	15	0	4
TAP	15	96	5
TAP	15	192	6
TAP	15	288	7
TAP	16	0	0
TAP	16	96	1
TAP	16	192	2
TAP	16	288	3
TAP	17	0	3
TAP	17	96	2
TAP	17	192	1
TAP	17	288	0
TAP	18	0	7
TAP	18	96	0
TAP	18	96	7
BRK	18	192	1
BRK	18	192	6
HLD	19	0	5	192
TAP	19	192	4
TAP	19	288	3
HLD	20	0	3	192
TAP	20	192	4
TAP	20	288	5
HLD	21	0	5	192
TAP	21	192	4
TAP	21	288	3
TAP	22	0	2
TAP	22	96	1
XTP	22	192	0
XTP	22	192	1
HLD	23	0	2	192
TAP	23	192	3
TAP	23	288	4
HLD	24	0	4	192
TAP	24	192	3
TAP	24	288	2
TAP	25	0	1
TAP	25	96	1
TAP	25	192	0
TAP	25	288	0
TAP	26	0	7
TAP	26	96	7
XTP	26	192	1
XTP	26	192	6
STR	27	0	6
SI_	27	0	6	96	144	3
STR	28	0	2
SI_	28	0	2	96	144	7
STR	29	0	6
SCL	29	0	6	96	144	3
TAP	30	0	2
TAP	30	96	2
XTP	30	192	2
STR	31	0	3
SI_	31	0	3	96	144	0
STR	32	0	7
SI_	32	0	7	96	144	4
STR	33	0	3
SCL	33	0	3	96	144	0
STR	33	0	4
SCR	33	0	4	96	144	7
TAP	34	0	7
XTP	34	96	0
XTP	34	96	7
BRK	34	192	1
BRK	34	192	6
TAP	35	0	6
TAP	35	96	6
TAP	35	96	7
TAP	35	192	1
TAP	35	288	0
TAP	35	288	1
TAP	36	0	6
TAP	36	96	6
TAP	36	96	7
XTP	36	192	0
XTP	36	192	5
HLD	37	0	5	96
TAP	37	96	4
HLD	37	192	3	96
TAP	37	288	4
STR	38	0	3
SI_	38	0	3	96	144	0
STR	38	0	4
SI_	38	0	4	96	144	7
TAP	39	0	1
TAP	39	96	0
TAP	39	96	1
TAP	39	192	6
TAP	39	288	6
TAP	39	288	7
TAP	40	0	0
TAP	40	96	1
TAP	40	96	6
XTP	40	192	2
XTP	40	192	5
TAP	41	0	2
TAP	41	0	3
TAP	41	96	2
TAP	41	96	3
TAP	41	192	1
TAP	41	192	4
TAP	41	288	1
TAP	41	288	4
BRK	42	0	0
BRK	42	0	5
XHO	42	192	7	96
TAP	43	0	1
TAP	43	96	0
TAP	43	96	1
TAP	43	192	6
TAP	43	288	6
TAP	43	288	7
TAP	44	0	1
TAP	44	96	0
TAP	44	96	1
XTP	44	192	2
XTP	44	192	7
HLD	45	0	2	96
TAP	45	96	3
HLD	45	192	4	96
TAP	45	288	3
STR	46	0	3
SI_	46	0	3	96	144	0
STR	46	0	4
SI_	46	0	4	96	144	7
TAP	47	0	6
TAP	47	96	6
TAP	47	96	7
TAP	47	192	1
TAP	47	288	0
TAP	47	288	1
TAP	48	0	7
TAP	48	96	1
TAP	48	96	6
XTP	48	192	2
XTP	48	192	5
TAP	49	0	4
TAP	49	0	5
TAP	49	96	4
TAP	49	96	5
TAP	49	192	3
TAP	49	192	6
TAP	49	288	3
TAP	49	288	6
BRK	50	0	2
BRK	50	0	7
XHO	50	192	0	96
HLD	51	0	7	96
TAP	51	192	1
TAP	51	288	1
HLD	52	0	7	96
TAP	52	192	0
TAP	52	288	0
HLD	53	0	7	96
TAP	53	192	1
TAP	53	288	1
HLD	54	0	7	192
TAP	54	192	0
TAP	54	288	0
HLD	55	0	0	96
TAP	55	192	6
TAP	55	288	6
HLD	56	0	0	96
TAP	56	192	7
TAP	56	288	7
HLD	57	0	0	96
TAP	57	192	6
TAP	57	288	6
TAP	58	0	7
TAP	58	96	0
XTP	58	192	1
XTP	58	192	6
TAP	59	0	5
HLD	59	192	5	192
TAP	60	0	4
HLD	60	192	4	192
TAP	61	0	3
HLD	61	192	3	192
TAP	62	0	2
TAP	62	192	3
TAP	62	192	4
TTP	63	0	3	B	0	L1
TTP	63	192	4	B	0	L1
TTP	64	0	2	B	0	L1
TTP	65	0	4	B	0	L1
TTP	65	192	3	B	0	L1
TTP	66	0	5	B	0	L1
TTP	67	0	6	B	0	L1
TTP	67	192	0	C	0	L1
TTP	68	0	2	B	0	L1
TTP	68	192	1	B	0	L1
THO	69	0	0	336	C	1	L1
TAP	71	0	1
TAP	71	96	0
TAP	71	96	1
TAP	71	192	6
TAP	71	288	6
TAP	71	288	7
TAP	72	0	5
TAP	72	96	4
TAP	72	96	5
BRK	72	192	3
BRK	72	192	6
HLD	73	0	5	96
TAP	73	96	4
HLD	73	192	2	96
TAP	73	288	3
STR	74	0	3
SCL	74	0	3	96	144	0
STR	74	0	4
SCR	74	0	4	96	144	7
TAP	75	0	6
TAP	75	96	6
TAP	75	96	7
TAP	75	192	1
TAP	75	288	0
TAP	75	288	1
TAP	76	0	0
TAP	76	0	7
TAP	76	96	1
TAP	76	96	6
XTP	76	192	2
XTP	76	192	5
TAP	77	0	2
TAP	77	96	2
TAP	77	96	3
TAP	77	192	1
TAP	77	192	4
TAP	77	288	0
TAP	77	288	5
BRK	78	0	0
BRK	78	0	5
XTP	78	192	7
XTP	78	288	7
TAP	79	0	6
TAP	79	96	6
TAP	79	96	7
TAP	79	192	1
TAP	79	288	0
TAP	79	288	1
TAP	80	0	2
TAP	80	96	2
TAP	80	96	3
BRK	80	192	1
BRK	80	192	4
HLD	81	0	2	96
TAP	81	96	3
HLD	81	192	5	96
TAP	81	288	4
STR	82	0	3
SCL	82	0	3	96	144	0
STR	82	0	4
SCR	82	0	4	96	144	7
TAP	83	0	1
TAP	83	96	0
TAP	83	96	1
TAP	83	192	6
TAP	83	288	6
TAP	83	288	7
TAP	84	0	0
TAP	84	96	1
TAP	84	96	6
XTP	84	192	2
XTP	84	192	5
TAP	85	0	5
TAP	85	96	4
TAP	85	96	5
TAP	85	192	3
TAP	85	192	6
TAP	85	288	2
TAP	85	288	7
BRK	86	0	2
BRK	86	0	7
BRK	86	192	0
BRK	86	288	0
TAP	87	0	6
TAP	87	96	6
TAP	87	192	0
TAP	87	240	0
TAP	87	288	0
TAP	88	0	7
TAP	88	96	7
TAP	88	192	0
TAP	88	240	0
TAP	88	288	0
TAP	89	0	6
TAP	89	96	6
TAP	89	192	0
TAP	89	240	0
TAP	89	288	0
BRK	90	0	1
BRK	90	0	7
BRK	90	192	7
BRK	90	288	7
TAP	91	0	1
TAP	91	96	1
TAP	91	192	7
TAP	91	240	7
TAP	91	288	7
TAP	92	0	0
TAP	92	96	0
TAP	92	192	7
TAP	92	240	7
TAP	92	288	7
TAP	93	0	1
TAP	93	96	1
TAP	93	192	7
TAP	93	240	7
TAP	93	288	7
BRK	94	0	0
BRK	94	0	6
BRK	94	192	0
BRK	94	288	0
TAP	95	0	7
TAP	95	96	6
TAP	95	192	5
TAP	95	288	4
TAP	95	288	5
TAP	96	0	3
TAP	96	96	2
TAP	96	192	1
TAP	96	288	0
TAP	96	288	1
TAP	97	0	0
TAP	97	96	1
TAP	97	192	2
TAP	97	288	3
TAP	98	0	4
TAP	98	96	3
TAP	98	96	4
XTP	98	192	2
XTP	98	192	5
TAP	99	0	4
TAP	99	96	5
TAP	99	192	6
TAP	99	288	6
TAP	99	288	7
TAP	100	0	0
TAP	100	96	1
TAP	100	192	2
TAP	100	288	2
TAP	100	288	3
TAP	101	0	3
TAP	101	96	2
TAP	101	192	1
TAP	101	288	0
TAP	102	0	7
TAP	102	96	7
TAP	102	192	0
XTP	102	288	0
XTP	102	288	7
BRK	103	0	1
BRK	103	0	6

T_REC_TAP	283
T_REC_BRK	30
T_REC_XTP	37
T_REC_HLD	23
T_REC_XHO	2
T_REC_STR	17
T_REC_BST	0
T_REC_XST	0
T_REC_TTP	10
T_REC_THO	1
T_REC_SLD	17
T_REC_ALL	420
T_NUM_TAP	347
T_NUM_BRK	30
T_NUM_HLD	26
T_NUM_SLD	17
T_NUM_ALL	420
T_JUDGE_TAP	377
T_JUDGE_HLD	75
T_JUDGE_SLD	17
T_JUDGE_ALL	469
TTM_EACHPAIRS	90
TTM_SCR_TAP	173500
TTM_SCR_BRK	78000
TTM_SCR_HLD	26000
TTM_SCR_SLD	25500
TTM_SCR_ALL	303000
TTM_SCR_S	291000
TTM_SCR_SS	300000
TTM_RAT_ACV	10100

